Скачать через торрент музыку Van Der Graaf Generator - Live in Concert at Metropolis Studios 2CD+DVD - 2012, WavPack бесплатно без регистрации torrent

Если у вас наблюдаются проблемы со скриншотами, переходом по ссылками, скачиванием торрентов - проблемы в блокировщике рекламы AdBlock. #хорошегоДня!


Статистика раздачи
Размер:  1.2 GB   |    Зарегистрирован:  5 лет   |    .torrent скачан:  22 раза   |   
Раздают:  1  
   
Загрузка...
 
Автор Сообщение

L


Van Der Graaf Generator / Live in Concert at Metropolis Studios 2CD

Жанр: Progressive
Страна-производитель диска: UK
Год издания: 2012
Издатель (лейбл): Union Square Music
Номер по каталогу: SALVOSVX006
Страна: UK
Аудиокодек: WavPack (*.wv)
Тип рипа: iso.wv
Битрейт аудио: lossless
Продолжительность: 52:07:31+34:28:55
Источник (релизер): tatuk
Наличие сканов в содержимом раздачи: да
Треклист:
1. INTERFERENCE PATTERNS
(Hammill / Banton / Evans)
2. NUTTER ALERT
(Hammill)
3. YOUR TIME STARTS NOW
(Hammill / Banton / Evans)
4. LEMMINGS
(Hammill)
5. LIFETIME
(Hammill / Banton / Evans)
6. BUNSHO
(Hammill / Banton / Evans)
7. CHILDLIKE FAITH
(Hammill)
  
Exact Audio Copy V1.0 beta 3 from 29. August 2011

EAC extraction logfile from 28. July 2012, 11:16

Van Der Graaf Generator / Live In Concert At Metropolis Studios [Disk 1]

Used drive : SONY DVD RW DRU-830A Adapter: 1 ID: 0

Read mode : SecureUtilize accurate stream : YesDefeat audio cache : YesMake use of C2 pointers : No

Read offset correction : 6Overread into Lead-In and Lead-Out : NoFill up missing offset samples with silence : YesDelete leading and trailing silent blocks : NoNull samples used in CRC calculations : YesUsed interface : Native Win32 interface for Win NT & 2000

Used output format : User Defined EncoderSelected bitrate : 768 kBit/sQuality : HighAdd ID3 tag : NoCommand line compressor : C:\Program Files (x86)\Exact Audio Copy\wavpack\wavpack.exeAdditional command line options : -hlm %source%

TOC of the extracted CD

Track | Start | Length | Start sector | End sector --------------------------------------------------------- 1 | 0:00.00 | 4:22.64 | 0 | 19713 2 | 4:22.64 | 5:35.31 | 19714 | 44869 3 | 9:58.20 | 4:25.34 | 44870 | 64778 4 | 14:23.54 | 14:26.47 | 64779 | 129775 5 | 28:50.26 | 5:24.42 | 129776 | 154117 6 | 34:14.68 | 5:38.13 | 154118 | 179480 7 | 39:53.06 | 12:14.25 | 179481 | 234555

Range status and errors

Selected range

Filename D:\_NL+_by_TATUK\WV.ISO0\Van Der Graaf Generator - Live In Concert At Metropolis Studios [Disk 1].wav

Peak level 99.8 % Extraction speed 6.9 X Range quality 100.0 % Copy CRC 895B13B6 Copy OK

No errors occurred

AccurateRip summary

Track 1 not present in databaseTrack 2 not present in databaseTrack 3 not present in databaseTrack 4 not present in databaseTrack 5 not present in databaseTrack 6 not present in databaseTrack 7 not present in database

None of the tracks are present in the AccurateRip database

End of status report

==== Log checksum 1CF1B1E4919436389330A19912CAE4D1C3952D1E1C1193AA5B70A41F77E4B46F ====
  
REM GENRE "Progressive Rock"REM DATE 2012REM DISCID 540C3707REM COMMENT "ExactAudioCopy v1.0b3"PERFORMER "Van Der Graaf Generator"TITLE "Live In Concert At Metropolis Studios [Disk 1]"FILE "Van Der Graaf Generator - Live In Concert At Metropolis Studios [Disk 1] 2012.wv" WAVE TRACK 01 AUDIO TITLE "Interference Patterns" PERFORMER "Van Der Graaf Generator" INDEX 01 00:00:00 TRACK 02 AUDIO TITLE "Nutter Alert" PERFORMER "Van Der Graaf Generator" INDEX 01 04:22:64 TRACK 03 AUDIO TITLE "Your Time Starts Now" PERFORMER "Van Der Graaf Generator" INDEX 01 09:58:20 TRACK 04 AUDIO TITLE "Lemmings" PERFORMER "Van Der Graaf Generator" INDEX 01 14:23:54 TRACK 05 AUDIO TITLE "Lifetime" PERFORMER "Van Der Graaf Generator" INDEX 01 28:50:26 TRACK 06 AUDIO TITLE "Bunsho" PERFORMER "Van Der Graaf Generator" INDEX 01 34:14:68 TRACK 07 AUDIO TITLE "Childlike Faith" PERFORMER "Van Der Graaf Generator" INDEX 01 39:53:06
  
-----------------------

DON'T MODIFY THIS FILE

-----------------------

PERFORMER: auCDtect Task Manager, ver. 1.5.1RC3 build 1.5.1.4Copyright (c) 2008-2010 y-soft. All rights reservedhttp://y-soft.org

ANALYZER: auCDtect: CD records authenticity detector, version 0.8.2Copyright (c) 2004 Oleg Berngardt. All rights reserved.Copyright (c) 2004 Alexander Djourik. All rights reserved.

FILE: Van Der Graaf Generator - Live In Concert At Metropolis Studios [Disk 1].wav Size: 551675756 Hash: BCF33FAF8C37E88521C398791953B92C Accuracy: -m0 Conclusion: CDDA 100% Signature: 7EC65CFFB01331BAF42B45A95DBCDD944386D253
cd.jpg
back.jpg
Union Square Music SALVOSVX006.sig
Van Der Graaf Generator - Live In Concert At Metropolis Studios [Disk 1] 2012.log
Van Der Graaf Generator - Live In Concert At Metropolis Studios [Disk 1] 2012.wv
Van Der Graaf Generator - Live In Concert At Metropolis Studios [Disk 1] 2012.wv.cue
front.jpg
checkers\matrix.jpg
checkers\spectral.jpg
checkers\Van Der Graaf Generator - Live In Concert At Metropolis Studios [Disk 1] 2012.accurip
checkers\Van Der Graaf Generator - Live In Concert At Metropolis Studios [Disk 1].wav.auCDtect.txt
checkers\wave.jpg
checkers\EAC.jpg
misc\info.txt
readme\[RUS] README No unpacking needed to play or burn this release.txt
readme\[ENG] README No unpacking needed to play or burn this release.txt
scans\booklet1-12.png
scans\booklet10-11.png
scans\booklet2-3.png
scans\booklet4-5.png
scans\booklet6-7.png
scans\booklet8-9.png
scans\cd.png
scans\front1.png
scans\front2.png
scans\inside1.png
scans\inside2.png
Треклист:
1.MR. SANDS
(Hammill / Banton / Evans)
2.OVER THE HILL
(Hammill / Banton / Evans)
3. WE ARE NOT HERE
(Hammill / Banton / Evans)
4. MAN-ERG
(Hammill)
  
Exact Audio Copy V1.0 beta 3 from 29. August 2011

EAC extraction logfile from 28. July 2012, 11:29

Van Der Graaf Generator / Live In Concert At Metropolis Studios [Disk 2]

Used drive : SONY DVD RW DRU-830A Adapter: 1 ID: 0

Read mode : SecureUtilize accurate stream : YesDefeat audio cache : YesMake use of C2 pointers : No

Read offset correction : 6Overread into Lead-In and Lead-Out : NoFill up missing offset samples with silence : YesDelete leading and trailing silent blocks : NoNull samples used in CRC calculations : YesUsed interface : Native Win32 interface for Win NT & 2000

Used output format : User Defined EncoderSelected bitrate : 768 kBit/sQuality : HighAdd ID3 tag : NoCommand line compressor : C:\Program Files (x86)\Exact Audio Copy\wavpack\wavpack.exeAdditional command line options : -hlm %source%

TOC of the extracted CD

Track | Start | Length | Start sector | End sector --------------------------------------------------------- 1 | 0:00.00 | 5:22.24 | 0 | 24173 2 | 5:22.24 | 12:21.11 | 24174 | 79759 3 | 17:43.35 | 4:54.41 | 79760 | 101850 4 | 22:38.01 | 11:50.54 | 101851 | 155154

Range status and errors

Selected range

Filename D:\_NL+_by_TATUK\WV.ISO5\Van Der Graaf Generator - Live In Concert At Metropolis Studios [Disk 2].wav

Peak level 99.8 % Extraction speed 3.9 X Range quality 100.0 % Copy CRC 36C43179 Copy OK

No errors occurred

AccurateRip summary

Track 1 not present in databaseTrack 2 not present in databaseTrack 3 not present in databaseTrack 4 not present in database

None of the tracks are present in the AccurateRip database

End of status report

==== Log checksum 7B88F23563B00264A54EA81911105F5E4ED2C982755CA133F1AE7F1C5C0221AD ====
  
REM GENRE "Progressive Rock"REM DATE 2012REM DISCID 21081404REM COMMENT "ExactAudioCopy v1.0b3"PERFORMER "Van Der Graaf Generator"TITLE "Live In Concert At Metropolis Studios [Disk 2]"FILE "Van Der Graaf Generator - Live In Concert At Metropolis Studios [Disk 2] 2012.wv" WAVE TRACK 01 AUDIO TITLE "Mr Sands" PERFORMER "Van Der Graaf Generator" INDEX 01 00:00:00 TRACK 02 AUDIO TITLE "Over The Hill" PERFORMER "Van Der Graaf Generator" INDEX 01 05:22:24 TRACK 03 AUDIO TITLE "We Are Not Here" PERFORMER "Van Der Graaf Generator" INDEX 01 17:43:35 TRACK 04 AUDIO TITLE "Man-Erg" PERFORMER "Van Der Graaf Generator" INDEX 01 22:38:01
  
-----------------------

DON'T MODIFY THIS FILE

-----------------------

PERFORMER: auCDtect Task Manager, ver. 1.5.1RC3 build 1.5.1.4Copyright (c) 2008-2010 y-soft. All rights reservedhttp://y-soft.org

ANALYZER: auCDtect: CD records authenticity detector, version 0.8.2Copyright (c) 2004 Oleg Berngardt. All rights reserved.Copyright (c) 2004 Alexander Djourik. All rights reserved.

FILE: Van Der Graaf Generator - Live In Concert At Metropolis Studios [Disk 2].wav Size: 364924604 Hash: 20EE3968E88E9C1793E5EFBFC546103B Accuracy: -m0 Conclusion: CDDA 100% Signature: F6D469148ADD3870B613E0E992885AD3C8EF6B25
cd.jpg
back.jpg
Union Square Music SALVOSVX006.sig
Van Der Graaf Generator - Live In Concert At Metropolis Studios [Disk 2] 2012.log
Van Der Graaf Generator - Live In Concert At Metropolis Studios [Disk 2] 2012.wv
Van Der Graaf Generator - Live In Concert At Metropolis Studios [Disk 2] 2012.wv.cue
front.jpg
checkers\matrix.jpg
checkers\spectral.jpg
checkers\Van Der Graaf Generator - Live In Concert At Metropolis Studios [Disk 2] 2012.accurip
checkers\Van Der Graaf Generator - Live In Concert At Metropolis Studios [Disk 2].wav.auCDtect.txt
checkers\wave.jpg
checkers\EAC.jpg
misc\info.txt
readme\[RUS] README No unpacking needed to play or burn this release.txt
readme\[ENG] README No unpacking needed to play or burn this release.txt
scans\booklet1-12.png
scans\booklet10-11.png
scans\booklet2-3.png
scans\booklet4-5.png
scans\booklet6-7.png
scans\booklet8-9.png
scans\cd.png
scans\front1.png
scans\front2.png
scans\inside1.png
scans\inside2.png
Few bands of the 1970s inspired such a devoted following, or divided opinion as vehemently as Van Der Graaf Generator. Fans found theirs some of the most challenging music of the decade; others had to leave the room when a VDGG album came on! Founder member Peter Hammill later admitted "The times were intense, and we were an intense, even scary band"
But through it all, the group persisted and developed. On and off reunions culminated in this rendezvous in December 2010, when three key members of the band -Peter Hammill, Hugh Banton and Guy Evans - performed a blistering set to a small, dedicated audience of fans in a West London recording studio.
Originally formed by Hamogtill while studying at Manchester University in the late 60s, VDGG were plagued by record industry contractual nightmares, and it was only the belief of legendary record company owner Tony Stratton-Smith that the band held out and stayed together. "We were the first act to sign to Charisma Records" Peter Hammill told Mark Powell, "and in a way were the reason for the label starting, mainly due to the fact that Tony couldn't interest any other label in signing us!"
One of the best-loved (and certainly best value) tours of the 1970s found Charisma label mates Van Der Graaf Generator, Lindisfarne and Genesis packing 'em in to student unions.
"Things were extremely open", Peter Hammill admitted later, looking back on 1971's Pawn Hearts album, "and that's the attitude we went in with. We were given more time than before, and we were aware that it was going to be an epic production. In the writing, I was trying to push things as far as they could go, and in the playing, we were trying to pull as many influences into one cohesive mess". The finished Pawn Hearts, Mojo later called "compelling, claustrophobic, carefully-hewn chaos... practically unique in pop".
Of all the bands on his Charisma label, the late Stratton-Smith always had a soft spot for VDGG, calling Peter Hammill "the most talented writer I have ever worked with" - no empty claim when you consider Charisma also boasted Peter Gabriel, Lindisfarne's Alan Hull and Sir John Betjeman! A trio of well-received VDGG albums (The Least We Can Do Is Wave To Each Other; H To H, Who Am The Only One and Pawn Hearts) on Charisma led to the only way to promote their music back then - constant touring.
There were three tours of Italy alone in one year. Such pressure led to the band splitting in 1972, with Hammill pursuing a solo career.
Over the years, Van Der Graaf Generator have reformed for odd albums and sporadic shows; none more keenly anticipated than this reunion. Commenting immediately afterwards, the band singled out this "unique, unrepeatable, fantastic event". All admit to the intensity of Van Der Graaf Generator's music and here, showcased are new numbers from their most recent A Grounding In Numbers album.
Fractured time signatures... Peter Hammill's fervent, and at times frankly terrifying, vocals... the complexity of the band's music... the inscrutability of their lyrics... all add up to a unique and inimitable performance. There was something challenging and confrontational about Van Der Graaf Generator. For many, they were unfairly associated with the easy end of underground music, but as Peter Hammill told Martin Aston: "To put things in perspective, there's all this retro nostalgia today about progressive rock and the 70s, and it's all been about crushed velvet loon pants and petunias. It's easy to forget that this era was also the peak of the Baader-Meinhof and Red Brigade gangs".
Theirs has been called "some of the most experimental, enduring, savage and beautiful music of the 1970s". In interview, Van Der Graaf Generator have been admired by Nick Cave, The Fall's Mark E. Smith, Julian Cope and John Lydon. Stuart Maconie once wrote "Of the classic UK prog rock band, Van Der Graaf Generators stock has always remained high".
Perhaps the most illustrious of the band's fans was David Bowie. In his exhaustive study of the Thin White Duke's work, The Man Who Sold The World, Peter Doggett said that in 1974, Bowie "immersed himself" in the work of Peter Hammill, specifically citing VDGG's 'Darkness (11/11)' and Hammill's solo "In The Black Room' as influences on Station To Station.
Splits and reunions, an ongoing Hammill solo career, CD reissues, a box set... there had been sporadic one-ofT get togethers: in 2003, the three other members of the "classic" VDGG line up joined Hammill onstage at a solo show at the Queen Elizabeth Hall. But it was in 2005 that a full scale reunion took place at the Royal Festival Hall. The word was "reunion" rather than "reformation". Peter Hammill issued a press statement: "I was getting constant offers regarding a reunion, including one from the South Bank. Until then I had never taken them seriously; but now it seemed as though there might be some interest. We talked and we realised that -J we met more often at the funerals of former members of our road crew. So if it was to be undertaken, it should be while-all four of us were still alive!"
Following the reunion, multi-instrumentalist David Jackson decided not to stay with the band, so Van Der Graaf Generator pressed on with the core trio of Hammill, Hugh Banton and Guy Evans, who continue to play together, which led to this event being filmed, and this live souvenir of that very special evening.
© Patrick Humphries, 2012
Peter Hammill
Guy Evans
Hugh Banton


Трекер:  [ 30-Июл-2012 06:55 ]

  

Скачать .torrent

Размер .torrent файла 7 KB


Размер: 1.2 GB
Хэш (hash) релиза: 0ce3ef479eac7d3429a9428b6a6a8b7787c25ddb

Еще никто не оставлял запись к записи скачать торрент Van Der Graaf Generator - Live in Concert at Metropolis Studios 2CD+DVD - 2012, WavPack . Будь первым!

!Обратная связь