Скачать через торрент музыку Jet Lag - Delusione Ottica - 2001, FLAC бесплатно без регистрации torrent

Если у вас наблюдаются проблемы со скриншотами, переходом по ссылками, скачиванием торрентов - проблемы в блокировщике рекламы AdBlock. #хорошегоДня!


Статистика раздачи
Размер:  338 MB   |    Зарегистрирован:  5 лет 2 месяца   |    .torrent скачан:  10 раз   |   
Раздают:  1  
   
Загрузка...
 
Автор Сообщение

L


Jet Lag - Delusione Ottica (2001)

Жанр: RPI/jazz-rock
Страна-производитель диска: Italy
Год издания: 2001
Издатель (лейбл): Lizard Records
Номер по каталогу: 5490192
Страна: Italy
Аудиокодек: FLAC (*.flac)
Тип рипа: tracks+.cue
Битрейт аудио: lossless
Продолжительность: 49:34
Источник (релизер): kotetsu29292929 (спасибо большое)
Наличие сканов в содержимом раздачи: да



Треклист:
1. Il Camaleonte (3:13)
2. King of Fools (5:42)
3. Illusione Prospettica (0:58)
4. Castelli di Rabbia (7:50)
5. Delusione Ottica (3:21)
6. Audio Poker (1:43)
7. Re Nudo (6:07)
8. Elusione Ottica (4:15)
9. Mare Nostrum (16:21)
  
Exact Audio Copy V1.0 beta 3 from 29. August 2011

EAC extraction logfile from 26. July 2012, 21:59

Jet Lag / Delusione Ottica

Used drive : ATAPI iHAS324 Y Adapter: 4 ID: 0

Read mode : SecureUtilize accurate stream : YesDefeat audio cache : YesMake use of C2 pointers : No

Read offset correction : 48Overread into Lead-In and Lead-Out : NoFill up missing offset samples with silence : YesDelete leading and trailing silent blocks : NoNull samples used in CRC calculations : YesUsed interface : Native Win32 interface for Win NT & 2000Gap handling : Appended to previous track

Used output format : User Defined EncoderSelected bitrate : 896 kBit/sQuality : HighAdd ID3 tag : NoCommand line compressor : C:\Program Files\Exact Audio Copy\flac.exeAdditional command line options : -8 -V -T "ARTIST=%artist%" -T "TITLE=%title%" -T "ALBUM=%albumtitle%" -T "DATE=%year%" -T "TRACKNUMBER=%tracknr%" -T "GENRE=%genre%" -T "PERFORMER=%albuminterpret%" -T "COMPOSER=%composer%" %haslyrics%--tag-from-file=LYRICS="%lyricsfile%"%haslyrics% -T "ALBUMARTIST=%albumartist%" -T "DISCNUMBER=%cdnumber%" -T "TOTALDISCS=%totalcds%" -T "TOTALTRACKS=%numtracks%" -T "COMMENT=%comment%" %source% -o %dest%

TOC of the extracted CD

Track | Start | Length | Start sector | End sector --------------------------------------------------------- 1 | 0:00.00 | 3:13.62 | 0 | 14536 2 | 3:13.62 | 5:42.34 | 14537 | 40220 3 | 8:56.21 | 0:58.05 | 40221 | 44575 4 | 9:54.26 | 7:50.35 | 44576 | 79860 5 | 17:44.61 | 3:21.48 | 79861 | 94983 6 | 21:06.34 | 1:43.47 | 94984 | 102755 7 | 22:50.06 | 6:07.54 | 102756 | 130334 8 | 28:57.60 | 4:15.05 | 130335 | 149464 9 | 33:12.65 | 16:21.27 | 149465 | 223066

Track 1

Filename C:\EAC\01 - Il Camaleonte.wav

Pre-gap length 0:00:02.00

Peak level 89.5 % Extraction speed 2.1 X Track quality 100.0 % Test CRC 9C068CD6 Copy CRC 9C068CD6 Accurately ripped (confidence 1) [17DF67F5] (AR v1) Copy OK

Track 2

Filename C:\EAC\02 - King Of Fools.wav

Peak level 100.0 % Extraction speed 2.7 X Track quality 100.0 % Test CRC 5E32783F Copy CRC 5E32783F Accurately ripped (confidence 1) [BB09A783] (AR v1) Copy OK

Track 3

Filename C:\EAC\03 - Illusione Prospettica.wav

Peak level 86.3 % Extraction speed 1.4 X Track quality 99.8 % Test CRC 59998913 Copy CRC 59998913 Accurately ripped (confidence 1) [449BA544] (AR v1) Copy OK

Track 4

Filename C:\EAC\04 - Castelli Di Rabbia.wav

Peak level 100.0 % Extraction speed 3.0 X Track quality 99.9 % Test CRC AEDA33EA Copy CRC AEDA33EA Accurately ripped (confidence 1) [CD2C622A] (AR v1) Copy OK

Track 5

Filename C:\EAC\05 - Delusione Ottica.wav

Peak level 95.4 % Extraction speed 3.2 X Track quality 100.0 % Test CRC 4CBFBBF6 Copy CRC 4CBFBBF6 Accurately ripped (confidence 1) [6DEEAF65] (AR v1) Copy OK

Track 6

Filename C:\EAC\06 - Audiopoker.wav

Peak level 88.8 % Extraction speed 2.9 X Track quality 100.0 % Test CRC 6CAA61F8 Copy CRC 6CAA61F8 Accurately ripped (confidence 1) [318F1FA9] (AR v1) Copy OK

Track 7

Filename C:\EAC\07 - Re Nudo.wav

Peak level 88.9 % Extraction speed 3.8 X Track quality 100.0 % Test CRC 137E9AAF Copy CRC 137E9AAF Accurately ripped (confidence 1) [945FA2AF] (AR v1) Copy OK

Track 8

Filename C:\EAC\08 - Elusione Ottica.wav

Peak level 77.8 % Extraction speed 3.9 X Track quality 100.0 % Test CRC 8305935A Copy CRC 8305935A Accurately ripped (confidence 1) [7F6FF89D] (AR v1) Copy OK

Track 9

Filename C:\EAC\09 - Mare Nostrum.wav

Peak level 100.0 % Extraction speed 3.6 X Track quality 99.9 % Test CRC 655D8A1E Copy CRC 655D8A1E Accurately ripped (confidence 1) [23FAF043] (AR v1) Copy OK

All tracks accurately ripped

No errors occurred

End of status report

==== Log checksum E6E18785F9598AC072A95DB7E154C40D3D42A92B9A7074A1782008206F5C7BFD ====
  
239612312 34191068 01 - Il Camaleonte.wav4271537435 60408812 02 - King Of Fools.wav3047531669 10243004 03 - Illusione Prospettica.wav3028542615 82990364 04 - Castelli Di Rabbia.wav2483836250 35569340 05 - Delusione Ottica.wav3057109771 18279788 06 - Audiopoker.wav3234351201 64865852 07 - Re Nudo.wav3129066575 44993804 08 - Elusione Ottica.wav224852424 173111948 09 - Mare Nostrum.wav

auCDtect: CD records authenticity detector, version 0.8.2Copyright (c) 2004 Oleg Berngardt. All rights reserved.Copyright (c) 2004 Alexander Djourik. All rights reserved.------------------------------------------------------------Processing file: [01 - Il Camaleonte.wav]

------------------------------------------------------------This track looks like CDDA with probability 100%

------------------------------------------------------------Processing file: [02 - King Of Fools.wav]

------------------------------------------------------------This track looks like CDDA with probability 100%

------------------------------------------------------------Processing file: [03 - Illusione Prospettica.wav]

------------------------------------------------------------This track looks like CDDA with probability 100%

------------------------------------------------------------Processing file: [04 - Castelli Di Rabbia.wav]

------------------------------------------------------------This track looks like CDDA with probability 100%

------------------------------------------------------------Processing file: [05 - Delusione Ottica.wav]

------------------------------------------------------------This track looks like CDDA with probability 100%

------------------------------------------------------------Processing file: [06 - Audiopoker.wav]

------------------------------------------------------------This track looks like CDDA with probability 99%

------------------------------------------------------------Processing file: [07 - Re Nudo.wav]

------------------------------------------------------------This track looks like CDDA with probability 100%

------------------------------------------------------------Processing file: [08 - Elusione Ottica.wav]

------------------------------------------------------------This track looks like CDDA with probability 100%

------------------------------------------------------------Processing file: [09 - Mare Nostrum.wav]

------------------------------------------------------------This track looks like CDDA with probability 99%

------------------------------------------------------------Final Conclusion:------------------------------------------------------------These tracks looks like CDDA with probability 100%
Доп. информация: Mare Nostrum
http://www.progarchives.com/artist.asp?id=1965
http://it.wikipedia.org/wiki/JetLag
Интригующее слияния джаза и прог-рок-симфония сочлененный комбинации клавишные, гитара и флейта, поддерживаемая мощной и динамичной ритм-секции, но и очень гибким и творческим. Единственный небольшой недостаток заключается в вокальной, и это не случайно, что лучшие моменты инструментальные, вероятно, с ролью певца, эта запись будет иметь потенциал, чтобы считаться одним из лучших произведений итальянского прогрессивного рока последних лет, Но даже это решение может быть только очень положительным.
- Fabio Itri / guitars
- Saverio Autellitano / keyboards
- Luca Salice / vocals & fluta
- Bruno Crucitti / drums
- Marco Meduri / bass


Трекер:  [ 30-Июл-2012 06:55 ]

  

Скачать .torrent

Размер .torrent файла 14 KB


Размер: 338 MB
Хэш (hash) релиза: d89069bd93997d710c624d102145f547d8c6689d

Еще никто не оставлял запись к записи скачать торрент Jet Lag - Delusione Ottica - 2001, FLAC . Будь первым!

!Обратная связь