Скачать через торрент музыку Santi Picó бесплатно без регистрации torrent

Если у вас наблюдаются проблемы со скриншотами, переходом по ссылками, скачиванием торрентов - проблемы в блокировщике рекламы AdBlock. #хорошегоДня!


Статистика раздачи
Размер:  235 MB   |    Зарегистрирован:  5 лет 2 месяца   |    .torrent скачан:  8 раз   |   
Раздают:  1  
   
Загрузка...
 
Автор Сообщение

L


Santi Picó / La Llave De Plata
Жанр: Jazz-Rock/Fusion, Progressive Rock
Страна-производитель диска: Spain
Год издания: 1979 (2011)
Издатель (лейбл): Nat Team Media
Номер по каталогу: 690057
Страна: Spain
Аудиокодек: FLAC (*.flac)
Тип рипа: tracks+.cue
Битрейт аудио: lossless
Источник (релизер): вата (kotetsu29292929)
Наличие сканов в содержимом раздачи: да

Треклист:
1. La llave de plata
2. Carajillo de rom
3. Primer aniversario
4. Temps de records
5. Miskatonic.
.
.
|| santipico.com || proggnosis.com || rateyourmusic.com || discogs.com ||
  
Exact Audio Copy V1.0 beta 3 from 29. August 2011

EAC extraction logfile from 28. July 2012, 20:46

Santi Picó / La llave de plata

Used drive : ATAPI iHAS324 Y Adapter: 4 ID: 0

Read mode : SecureUtilize accurate stream : YesDefeat audio cache : YesMake use of C2 pointers : No

Read offset correction : 48Overread into Lead-In and Lead-Out : NoFill up missing offset samples with silence : YesDelete leading and trailing silent blocks : NoNull samples used in CRC calculations : YesUsed interface : Native Win32 interface for Win NT & 2000Gap handling : Appended to previous track

Used output format : User Defined EncoderSelected bitrate : 896 kBit/sQuality : HighAdd ID3 tag : NoCommand line compressor : C:\Program Files\Exact Audio Copy\flac.exeAdditional command line options : -8 -V -T "ARTIST=%artist%" -T "TITLE=%title%" -T "ALBUM=%albumtitle%" -T "DATE=%year%" -T "TRACKNUMBER=%tracknr%" -T "GENRE=%genre%" -T "PERFORMER=%albuminterpret%" -T "COMPOSER=%composer%" %haslyrics%--tag-from-file=LYRICS="%lyricsfile%"%haslyrics% -T "ALBUMARTIST=%albumartist%" -T "DISCNUMBER=%cdnumber%" -T "TOTALDISCS=%totalcds%" -T "TOTALTRACKS=%numtracks%" -T "COMMENT=%comment%" %source% -o %dest%

TOC of the extracted CD

Track | Start | Length | Start sector | End sector --------------------------------------------------------- 1 | 0:00.00 | 7:39.40 | 0 | 34464 2 | 7:39.40 | 5:00.26 | 34465 | 56990 3 | 12:39.66 | 7:13.65 | 56991 | 89530 4 | 19:53.56 | 8:14.22 | 89531 | 126602 5 | 28:08.03 | 9:57.30 | 126603 | 171407

Track 1

Filename C:\EAC\01 - La llave de plata.wav

Pre-gap length 0:00:02.00

Peak level 98.8 % Extraction speed 2.9 X Track quality 100.0 % Test CRC B46C498C Copy CRC B46C498C Track not present in AccurateRip database Copy OK

Track 2

Filename C:\EAC\02 - Carajillo de rom.wav

Peak level 98.8 % Extraction speed 3.1 X Track quality 100.0 % Test CRC 33FB7800 Copy CRC 33FB7800 Track not present in AccurateRip database Copy OK

Track 3

Filename C:\EAC\03 - Primer aniversario.wav

Peak level 98.8 % Extraction speed 3.4 X Track quality 100.0 % Test CRC D14F6BA1 Copy CRC D14F6BA1 Track not present in AccurateRip database Copy OK

Track 4

Filename C:\EAC\04 - Temps de records.wav

Peak level 98.8 % Extraction speed 3.9 X Track quality 100.0 % Test CRC 31F41862 Copy CRC 31F41862 Track not present in AccurateRip database Copy OK

Track 5

Filename C:\EAC\05 - Miskatonic.wav

Peak level 98.8 % Extraction speed 4.4 X Track quality 100.0 % Test CRC D3683D35 Copy CRC D3683D35 Track not present in AccurateRip database Copy OK

None of the tracks are present in the AccurateRip database

No errors occurred

End of status report

==== Log checksum ECEA5ED97CF6BD8B6E9E5EA388370D87356E4A7670BFC19E19DE0370E9016447 ====

------------------------------------------------------------

Exact Audio Copy V1.0 beta 3 from 29. August 2011

EAC extraction logfile from 28. July 2012, 20:46

Santi Picó / La llave de plata

Used drive : ATAPI iHAS324 Y Adapter: 4 ID: 0

Read mode : SecureUtilize accurate stream : YesDefeat audio cache : YesMake use of C2 pointers : No

Read offset correction : 48Overread into Lead-In and Lead-Out : NoFill up missing offset samples with silence : YesDelete leading and trailing silent blocks : NoNull samples used in CRC calculations : YesUsed interface : Native Win32 interface for Win NT & 2000Gap handling : Appended to previous track

Used output format : User Defined EncoderSelected bitrate : 896 kBit/sQuality : HighAdd ID3 tag : NoCommand line compressor : C:\Program Files\Exact Audio Copy\flac.exeAdditional command line options : -8 -V -T "ARTIST=%artist%" -T "TITLE=%title%" -T "ALBUM=%albumtitle%" -T "DATE=%year%" -T "TRACKNUMBER=%tracknr%" -T "GENRE=%genre%" -T "PERFORMER=%albuminterpret%" -T "COMPOSER=%composer%" %haslyrics%--tag-from-file=LYRICS="%lyricsfile%"%haslyrics% -T "ALBUMARTIST=%albumartist%" -T "DISCNUMBER=%cdnumber%" -T "TOTALDISCS=%totalcds%" -T "TOTALTRACKS=%numtracks%" -T "COMMENT=%comment%" %source% -o %dest%

TOC of the extracted CD

Track | Start | Length | Start sector | End sector --------------------------------------------------------- 1 | 0:00.00 | 7:39.40 | 0 | 34464 2 | 7:39.40 | 5:00.26 | 34465 | 56990 3 | 12:39.66 | 7:13.65 | 56991 | 89530 4 | 19:53.56 | 8:14.22 | 89531 | 126602 5 | 28:08.03 | 9:57.30 | 126603 | 171407

Track 1

Filename C:\EAC\01 - La llave de plata.wav

Pre-gap length 0:00:02.00

Peak level 98.8 % Extraction speed 2.9 X Track quality 100.0 % Test CRC B46C498C Copy CRC B46C498C Track not present in AccurateRip database Copy OK

Track 2

Filename C:\EAC\02 - Carajillo de rom.wav

Peak level 98.8 % Extraction speed 3.1 X Track quality 100.0 % Test CRC 33FB7800 Copy CRC 33FB7800 Track not present in AccurateRip database Copy OK

Track 3

Filename C:\EAC\03 - Primer aniversario.wav

Peak level 98.8 % Extraction speed 3.4 X Track quality 100.0 % Test CRC D14F6BA1 Copy CRC D14F6BA1 Track not present in AccurateRip database Copy OK

Track 4

Filename C:\EAC\04 - Temps de records.wav

Peak level 98.8 % Extraction speed 3.9 X Track quality 100.0 % Test CRC 31F41862 Copy CRC 31F41862 Track not present in AccurateRip database Copy OK

Track 5

Filename C:\EAC\05 - Miskatonic.wav

Peak level 98.8 % Extraction speed 4.4 X Track quality 100.0 % Test CRC D3683D35 Copy CRC D3683D35 Track not present in AccurateRip database Copy OK

None of the tracks are present in the AccurateRip database

No errors occurred

End of status report

==== Log checksum ECEA5ED97CF6BD8B6E9E5EA388370D87356E4A7670BFC19E19DE0370E9016447 ====
  
REM GENRE FusionREM DATE 1979REM DISCID 3B08ED05REM COMMENT "ExactAudioCopy v1.0b3"PERFORMER "Santi Pico"TITLE "La llave de plata"FILE "01 - La llave de plata.wav" WAVE TRACK 01 AUDIO TITLE "La llave de plata" PERFORMER "Santi Pico" INDEX 01 00:00:00FILE "02 - Carajillo de rom.wav" WAVE TRACK 02 AUDIO TITLE "Carajillo de rom" PERFORMER "Santi Pico" INDEX 01 00:00:00FILE "03 - Primer aniversario.wav" WAVE TRACK 03 AUDIO TITLE "Primer aniversario" PERFORMER "Santi Pico" INDEX 01 00:00:00FILE "04 - Temps de records.wav" WAVE TRACK 04 AUDIO TITLE "Temps de records" PERFORMER "Santi Pico" INDEX 01 00:00:00FILE "05 - Miskatonic.wav" WAVE TRACK 05 AUDIO TITLE "Miskatonic" PERFORMER "Santi Pico" INDEX 01 00:00:00
  
-----------------------

DON'T MODIFY THIS FILE

-----------------------

PERFORMER: auCDtect Task Manager, ver. 1.5.1RC4 build 1.5.1.5Copyright (c) 2008-2010 y-soft. All rights reservedhttp://y-soft.org

ANALYZER: auCDtect: CD records authenticity detector, version 0.8.2Copyright (c) 2004 Oleg Berngardt. All rights reserved.Copyright (c) 2004 Alexander Djourik. All rights reserved.

FILE: 02 - Carajillo de rom.flac Size: 32901256 Hash: C02AD508AE68901CF2B2ACA044686446 Accuracy: -m0 Conclusion: CDDA 100% Signature: AE6EA8145EBA244E4DE08FF071A839E4363152AAFILE: 01 - La llave de plata.flac Size: 53623393 Hash: F7C600F19085488FCAA173783F2A8D71 Accuracy: -m0 Conclusion: CDDA 99% Signature: 0700B9196BEEE1287A0C35D9E31EE7CF123E707DFILE: 05 - Miskatonic.flac Size: 60725323 Hash: 5778E104D8E9F5B460E5AB22E2899D7B Accuracy: -m0 Conclusion: CDDA 100% Signature: FBA1D7873209992310059116C1B326421638232FFILE: 04 - Temps de records.flac Size: 51433985 Hash: 75D157880C7013E5F84643B7C75A41DB Accuracy: -m0 Conclusion: CDDA 100% Signature: 63A181DE64C52E29DEF0BEC137205B4C21E8DE3AFILE: 03 - Primer aniversario.flac Size: 46398767 Hash: D3AEA9915BA3F8A46436650E37379171 Accuracy: -m0 Conclusion: CDDA 100% Signature: 18FD07B7D2B1FB197118F89A18400386794CB609
Santiago Picó

Spanish jazz-electronic guitar player. He started playing on Tony Ronald band in 1968. Later in the 70's he recorded and toured with Los Mustang, Los Diablos, Santabárbara, Los Sirex, Lorenzo Santamaría, Los Salvajes, Peret... In 1977 he toured with Spanish version of the musical "Hair". He founded "Gabriel" with Xavi Garriga, recording just two singles. In 1979 he recorded his first solo album: "La Llave de Plata".

Santi Picó is best known for his work as half of the electronic music duo Neuronium. He first appeared as guest musician on the album "The New Digital Dream" (1980), and was listed as a full member of Neuronium on a number of albums released between 1982 and 1996. Picó also appeared on the Neuronium album Alienikon (1999). He was also a member of "Guitarras Mestizas" which released two albums in 1999 and 2000. He also led the "Santi Picó Blues Band".

His first three solo albums, released between 1979 and 1984, were jazz/rock fusion in style. With "Miskatonic II" (1992) he did more Neuronium style electronic work, particularly on the title track and on "Dance of the Ghouls". That album has been reissued under the names "Perfume" (1998) and "Wings of a Bird" (2002).

http://www.discogs.com/artist/Santi+Pico?anv=Santi+Pic%C3%B3
Bass – Eduardo Medina (треки 1, 3 и 5)
Drums – Jordi Colomer
Electric Guitar, Acoustic Guitar – Santi Picó
Percussion – Pepe Ebano
Piano, Keyboards – Josep Mas "Kitflus"



Трекер:  [ 30-Июл-2012 06:55 ]

  

Скачать .torrent

Размер .torrent файла 19 KB


Размер: 235 MB
Хэш (hash) релиза: 99f9c77993c0ed28c745941aa59069bdcc494be4

Еще никто не оставлял запись к записи скачать торрент Santi Picó . Будь первым!

!Обратная связь