Скачать через торрент музыку Solstice - Mirage & Espresso - 1978 & 1981 бесплатно без регистрации torrent

Если у вас наблюдаются проблемы со скриншотами, переходом по ссылками, скачиванием торрентов - проблемы в блокировщике рекламы AdBlock. #хорошегоДня!


Статистика раздачи
Размер:  461 MB   |    Зарегистрирован:  5 лет 3 месяца   |    .torrent скачан:  11 раз   |   
Раздают:  1  
   
Загрузка...
 
Автор Сообщение

L


Solstice / Mirage & Espresso
Жанр: Jazz Rock/Fusion
Год издания: 1978 & 1981 (2010)
Издатель (лейбл): TAKE5
Номер по каталогу: 35016
Страна: Canada
Аудиокодек: FLAC (*.flac)
Тип рипа: tracks+.cue
Битрейт аудио: lossless
Продолжительность: 1:11:58
Источник (релизер): вата (kotetsu29292929)
Наличие сканов в содержимом раздачи: да

Треклист:
Mirage
1. Equinoxe - 4 :19
2. Mirage - 7:55
3. Aromat - 5:55
4. Cybernetique - 4:59
5. Stress - 4:41
6. Nu-Pieds - 9:03
Espresso
7. Nuits Insolites - 4:04
8. Hymne Pour Les Enfants - 4:06
9. Grand Galop - 3:17
10. Baile - 5:07
11. Espresso - 4:51
12. Pas De 12 - 5:53
13. Le Soleil Et Ses Ombres - 3:58
14. Vite Ca Presse - 3:44
|| progarchives.com || rateyourmusic.com ||
  
Exact Audio Copy V1.0 beta 3 from 29. August 2011

EAC extraction logfile from 26. July 2012, 23:45

Solstice / Mirage & Espresso

Used drive : ATAPI iHAS324 Y Adapter: 4 ID: 0

Read mode : SecureUtilize accurate stream : YesDefeat audio cache : YesMake use of C2 pointers : No

Read offset correction : 48Overread into Lead-In and Lead-Out : NoFill up missing offset samples with silence : YesDelete leading and trailing silent blocks : NoNull samples used in CRC calculations : YesUsed interface : Native Win32 interface for Win NT & 2000Gap handling : Appended to previous track

Used output format : User Defined EncoderSelected bitrate : 896 kBit/sQuality : HighAdd ID3 tag : NoCommand line compressor : C:\Program Files\Exact Audio Copy\flac.exeAdditional command line options : -8 -V -T "ARTIST=%artist%" -T "TITLE=%title%" -T "ALBUM=%albumtitle%" -T "DATE=%year%" -T "TRACKNUMBER=%tracknr%" -T "GENRE=%genre%" -T "PERFORMER=%albuminterpret%" -T "COMPOSER=%composer%" %haslyrics%--tag-from-file=LYRICS="%lyricsfile%"%haslyrics% -T "ALBUMARTIST=%albumartist%" -T "DISCNUMBER=%cdnumber%" -T "TOTALDISCS=%totalcds%" -T "TOTALTRACKS=%numtracks%" -T "COMMENT=%comment%" %source% -o %dest%

TOC of the extracted CD

Track | Start | Length | Start sector | End sector --------------------------------------------------------- 1 | 0:00.00 | 4:19.61 | 0 | 19485 2 | 4:19.61 | 7:55.20 | 19486 | 55130 3 | 12:15.06 | 5:55.65 | 55131 | 81820 4 | 18:10.71 | 4:59.61 | 81821 | 104306 5 | 23:10.57 | 4:41.37 | 104307 | 125418 6 | 27:52.19 | 9:03.35 | 125419 | 166178 7 | 36:55.54 | 4:04.41 | 166179 | 184519 8 | 41:00.20 | 4:06.08 | 184520 | 202977 9 | 45:06.28 | 3:17.06 | 202978 | 217758 10 | 48:23.34 | 5:07.42 | 217759 | 240825 11 | 53:31.01 | 4:51.20 | 240826 | 262670 12 | 58:22.21 | 5:53.08 | 262671 | 289153 13 | 64:15.29 | 3:58.03 | 289154 | 307006 14 | 68:13.32 | 3:44.66 | 307007 | 323872

Track 1

Filename C:\EAC\01 - Equinoxe.wav

Pre-gap length 0:00:02.00

Peak level 96.6 % Extraction speed 2.4 X Track quality 100.0 % Test CRC 849F5E2E Copy CRC 849F5E2E Track not present in AccurateRip database Copy OK

Track 2

Filename C:\EAC\02 - Mirage.wav

Peak level 96.6 % Extraction speed 3.0 X Track quality 100.0 % Test CRC FECB300E Copy CRC FECB300E Track not present in AccurateRip database Copy OK

Track 3

Filename C:\EAC\03 - Aromat.wav

Peak level 96.6 % Extraction speed 3.0 X Track quality 99.9 % Test CRC 7F3DD541 Copy CRC 7F3DD541 Track not present in AccurateRip database Copy OK

Track 4

Filename C:\EAC\04 - Cybernetique.wav

Peak level 96.6 % Extraction speed 3.5 X Track quality 100.0 % Test CRC F59D92BA Copy CRC F59D92BA Track not present in AccurateRip database Copy OK

Track 5

Filename C:\EAC\05 - Stress.wav

Peak level 96.6 % Extraction speed 3.2 X Track quality 99.9 % Test CRC 95F85B85 Copy CRC 95F85B85 Track not present in AccurateRip database Copy OK

Track 6

Filename C:\EAC\06 - Nu-pieds.wav

Peak level 96.6 % Extraction speed 4.0 X Track quality 99.9 % Test CRC 5A24EF70 Copy CRC 5A24EF70 Track not present in AccurateRip database Copy OK

Track 7

Filename C:\EAC\07 - Nuits insolites.wav

Peak level 96.6 % Extraction speed 4.1 X Track quality 100.0 % Test CRC FD0DDF8C Copy CRC FD0DDF8C Track not present in AccurateRip database Copy OK

Track 8

Filename C:\EAC\08 - Hymne pour les enfants.wav

Peak level 96.6 % Extraction speed 4.3 X Track quality 100.0 % Test CRC 026E9AF3 Copy CRC 026E9AF3 Track not present in AccurateRip database Copy OK

Track 9

Filename C:\EAC\09 - Grand galop.wav

Peak level 96.6 % Extraction speed 4.3 X Track quality 100.0 % Test CRC CDC9CE15 Copy CRC CDC9CE15 Track not present in AccurateRip database Copy OK

Track 10

Filename C:\EAC\10 - Baile.wav

Peak level 96.6 % Extraction speed 4.7 X Track quality 100.0 % Test CRC 39AB1F63 Copy CRC 39AB1F63 Track not present in AccurateRip database Copy OK

Track 11

Filename C:\EAC\11 - Espresso.wav

Peak level 96.6 % Extraction speed 4.9 X Track quality 100.0 % Test CRC 767D8F11 Copy CRC 767D8F11 Track not present in AccurateRip database Copy OK

Track 12

Filename C:\EAC\12 - Pas de 12.wav

Peak level 96.6 % Extraction speed 5.1 X Track quality 100.0 % Test CRC A1BC9218 Copy CRC A1BC9218 Track not present in AccurateRip database Copy OK

Track 13

Filename C:\EAC\13 - Le soleil et ses ombres.wav

Peak level 96.6 % Extraction speed 4.4 X Track quality 99.9 % Test CRC 2B911DAE Copy CRC 2B911DAE Track not present in AccurateRip database Copy OK

Track 14

Filename C:\EAC\14 - Vite ca presse.wav

Peak level 96.6 % Extraction speed 5.2 X Track quality 100.0 % Test CRC B7FA9B5D Copy CRC B7FA9B5D Track not present in AccurateRip database Copy OK

None of the tracks are present in the AccurateRip database

No errors occurred

End of status report

==== Log checksum 4818C74B118EDCD4F604B65E89986530125956410B6C7572FBA75287D28EDF41 ====

------------------------------------------------------------

Exact Audio Copy V1.0 beta 3 from 29. August 2011

EAC extraction logfile from 26. July 2012, 23:45

Solstice / Mirage & Espresso

Used drive : ATAPI iHAS324 Y Adapter: 4 ID: 0

Read mode : SecureUtilize accurate stream : YesDefeat audio cache : YesMake use of C2 pointers : No

Read offset correction : 48Overread into Lead-In and Lead-Out : NoFill up missing offset samples with silence : YesDelete leading and trailing silent blocks : NoNull samples used in CRC calculations : YesUsed interface : Native Win32 interface for Win NT & 2000Gap handling : Appended to previous track

Used output format : User Defined EncoderSelected bitrate : 896 kBit/sQuality : HighAdd ID3 tag : NoCommand line compressor : C:\Program Files\Exact Audio Copy\flac.exeAdditional command line options : -8 -V -T "ARTIST=%artist%" -T "TITLE=%title%" -T "ALBUM=%albumtitle%" -T "DATE=%year%" -T "TRACKNUMBER=%tracknr%" -T "GENRE=%genre%" -T "PERFORMER=%albuminterpret%" -T "COMPOSER=%composer%" %haslyrics%--tag-from-file=LYRICS="%lyricsfile%"%haslyrics% -T "ALBUMARTIST=%albumartist%" -T "DISCNUMBER=%cdnumber%" -T "TOTALDISCS=%totalcds%" -T "TOTALTRACKS=%numtracks%" -T "COMMENT=%comment%" %source% -o %dest%

TOC of the extracted CD

Track | Start | Length | Start sector | End sector --------------------------------------------------------- 1 | 0:00.00 | 4:19.61 | 0 | 19485 2 | 4:19.61 | 7:55.20 | 19486 | 55130 3 | 12:15.06 | 5:55.65 | 55131 | 81820 4 | 18:10.71 | 4:59.61 | 81821 | 104306 5 | 23:10.57 | 4:41.37 | 104307 | 125418 6 | 27:52.19 | 9:03.35 | 125419 | 166178 7 | 36:55.54 | 4:04.41 | 166179 | 184519 8 | 41:00.20 | 4:06.08 | 184520 | 202977 9 | 45:06.28 | 3:17.06 | 202978 | 217758 10 | 48:23.34 | 5:07.42 | 217759 | 240825 11 | 53:31.01 | 4:51.20 | 240826 | 262670 12 | 58:22.21 | 5:53.08 | 262671 | 289153 13 | 64:15.29 | 3:58.03 | 289154 | 307006 14 | 68:13.32 | 3:44.66 | 307007 | 323872

Track 1

Filename C:\EAC\01 - Equinoxe.wav

Pre-gap length 0:00:02.00

Peak level 96.6 % Extraction speed 2.4 X Track quality 100.0 % Test CRC 849F5E2E Copy CRC 849F5E2E Track not present in AccurateRip database Copy OK

Track 2

Filename C:\EAC\02 - Mirage.wav

Peak level 96.6 % Extraction speed 3.0 X Track quality 100.0 % Test CRC FECB300E Copy CRC FECB300E Track not present in AccurateRip database Copy OK

Track 3

Filename C:\EAC\03 - Aromat.wav

Peak level 96.6 % Extraction speed 3.0 X Track quality 99.9 % Test CRC 7F3DD541 Copy CRC 7F3DD541 Track not present in AccurateRip database Copy OK

Track 4

Filename C:\EAC\04 - Cybernetique.wav

Peak level 96.6 % Extraction speed 3.5 X Track quality 100.0 % Test CRC F59D92BA Copy CRC F59D92BA Track not present in AccurateRip database Copy OK

Track 5

Filename C:\EAC\05 - Stress.wav

Peak level 96.6 % Extraction speed 3.2 X Track quality 99.9 % Test CRC 95F85B85 Copy CRC 95F85B85 Track not present in AccurateRip database Copy OK

Track 6

Filename C:\EAC\06 - Nu-pieds.wav

Peak level 96.6 % Extraction speed 4.0 X Track quality 99.9 % Test CRC 5A24EF70 Copy CRC 5A24EF70 Track not present in AccurateRip database Copy OK

Track 7

Filename C:\EAC\07 - Nuits insolites.wav

Peak level 96.6 % Extraction speed 4.1 X Track quality 100.0 % Test CRC FD0DDF8C Copy CRC FD0DDF8C Track not present in AccurateRip database Copy OK

Track 8

Filename C:\EAC\08 - Hymne pour les enfants.wav

Peak level 96.6 % Extraction speed 4.3 X Track quality 100.0 % Test CRC 026E9AF3 Copy CRC 026E9AF3 Track not present in AccurateRip database Copy OK

Track 9

Filename C:\EAC\09 - Grand galop.wav

Peak level 96.6 % Extraction speed 4.3 X Track quality 100.0 % Test CRC CDC9CE15 Copy CRC CDC9CE15 Track not present in AccurateRip database Copy OK

Track 10

Filename C:\EAC\10 - Baile.wav

Peak level 96.6 % Extraction speed 4.7 X Track quality 100.0 % Test CRC 39AB1F63 Copy CRC 39AB1F63 Track not present in AccurateRip database Copy OK

Track 11

Filename C:\EAC\11 - Espresso.wav

Peak level 96.6 % Extraction speed 4.9 X Track quality 100.0 % Test CRC 767D8F11 Copy CRC 767D8F11 Track not present in AccurateRip database Copy OK

Track 12

Filename C:\EAC\12 - Pas de 12.wav

Peak level 96.6 % Extraction speed 5.1 X Track quality 100.0 % Test CRC A1BC9218 Copy CRC A1BC9218 Track not present in AccurateRip database Copy OK

Track 13

Filename C:\EAC\13 - Le soleil et ses ombres.wav

Peak level 96.6 % Extraction speed 4.4 X Track quality 99.9 % Test CRC 2B911DAE Copy CRC 2B911DAE Track not present in AccurateRip database Copy OK

Track 14

Filename C:\EAC\14 - Vite ca presse.wav

Peak level 96.6 % Extraction speed 5.2 X Track quality 100.0 % Test CRC B7FA9B5D Copy CRC B7FA9B5D Track not present in AccurateRip database Copy OK

None of the tracks are present in the AccurateRip database

No errors occurred

End of status report

==== Log checksum 4818C74B118EDCD4F604B65E89986530125956410B6C7572FBA75287D28EDF41 ====
  
REM GENRE FusionREM DATE 2010REM DISCID C210DE0EREM COMMENT "ExactAudioCopy v1.0b3"PERFORMER "Solstice"TITLE "Mirage & Espresso"FILE "01 - Equinoxe.wav" WAVE TRACK 01 AUDIO TITLE "Equinoxe" PERFORMER "Solstice" INDEX 01 00:00:00FILE "02 - Mirage.wav" WAVE TRACK 02 AUDIO TITLE "Mirage" PERFORMER "Solstice" INDEX 01 00:00:00FILE "03 - Aromat.wav" WAVE TRACK 03 AUDIO TITLE "Aromat" PERFORMER "Solstice" INDEX 01 00:00:00FILE "04 - Cybernetique.wav" WAVE TRACK 04 AUDIO TITLE "Cybernetique" PERFORMER "Solstice" INDEX 01 00:00:00FILE "05 - Stress.wav" WAVE TRACK 05 AUDIO TITLE "Stress" PERFORMER "Solstice" INDEX 01 00:00:00FILE "06 - Nu-pieds.wav" WAVE TRACK 06 AUDIO TITLE "Nu-pieds" PERFORMER "Solstice" INDEX 01 00:00:00FILE "07 - Nuits insolites.wav" WAVE TRACK 07 AUDIO TITLE "Nuits insolites" PERFORMER "Solstice" INDEX 01 00:00:00FILE "08 - Hymne pour les enfants.wav" WAVE TRACK 08 AUDIO TITLE "Hymne pour les enfants" PERFORMER "Solstice" INDEX 01 00:00:00FILE "09 - Grand galop.wav" WAVE TRACK 09 AUDIO TITLE "Grand galop" PERFORMER "Solstice" INDEX 01 00:00:00FILE "10 - Baile.wav" WAVE TRACK 10 AUDIO TITLE "Baile" PERFORMER "Solstice" INDEX 01 00:00:00FILE "11 - Espresso.wav" WAVE TRACK 11 AUDIO TITLE "Espresso" PERFORMER "Solstice" INDEX 01 00:00:00FILE "12 - Pas de 12.wav" WAVE TRACK 12 AUDIO TITLE "Pas de 12" PERFORMER "Solstice" INDEX 01 00:00:00FILE "13 - Le soleil et ses ombres.wav" WAVE TRACK 13 AUDIO TITLE "Le soleil et ses ombres" PERFORMER "Solstice" INDEX 01 00:00:00FILE "14 - Vite ca presse.wav" WAVE TRACK 14 AUDIO TITLE "Vite ca presse" PERFORMER "Solstice" INDEX 01 00:00:00
  
-----------------------

DON'T MODIFY THIS FILE

-----------------------

PERFORMER: auCDtect Task Manager, ver. 1.5.1RC4 build 1.5.1.5Copyright (c) 2008-2010 y-soft. All rights reservedhttp://y-soft.org

ANALYZER: auCDtect: CD records authenticity detector, version 0.8.2Copyright (c) 2004 Oleg Berngardt. All rights reserved.Copyright (c) 2004 Alexander Djourik. All rights reserved.

FILE: 01 - Equinoxe.flac Size: 30020914 Hash: CAAB25346717F3EAC0BAB2C3D957BD61 Accuracy: -m0 Conclusion: CDDA 100% Signature: 6CA175F7A7580FDAD1797A9531C9633DECAECE65FILE: 14 - Vite ca presse.flac Size: 26854094 Hash: E67CAA7393BDD125B36BD881C4EFFBD5 Accuracy: -m0 Conclusion: CDDA 100% Signature: 0F7CCF395BCB09315CB084B1CDD5AA3327805215FILE: 13 - Le soleil et ses ombres.flac Size: 26599270 Hash: D9624CDEE2CF051484237707911BBBD1 Accuracy: -m0 Conclusion: CDDA 100% Signature: 6E8F5004DB714CBE63F023D38A368CA536152DCDFILE: 12 - Pas de 12.flac Size: 39690537 Hash: 95B0EF236430CA4D948E4D95500896E0 Accuracy: -m0 Conclusion: CDDA 100% Signature: 80A77008D3424D825285F7A18F1DAC77BFB68361FILE: 11 - Espresso.flac Size: 35289114 Hash: CA9850E2CB8856D091787732834426C4 Accuracy: -m0 Conclusion: CDDA 100% Signature: 8C579B7B4A2D1AE7C1A95C6DEC25877488FC3B73FILE: 10 - Baile.flac Size: 33709997 Hash: 1462C83E3C0EC264C7BA7F3EE9602705 Accuracy: -m0 Conclusion: CDDA 100% Signature: C9D9B775183574F2E742AA393A800BFEFEC29D0CFILE: 09 - Grand galop.flac Size: 22724500 Hash: 7718821A9A6B6AE40A208404C8111BBC Accuracy: -m0 Conclusion: CDDA 100% Signature: 08796F0CE6BD16816C87B6D692B14653E5016064FILE: 08 - Hymne pour les enfants.flac Size: 28999981 Hash: B044A5DA5761D6A6FA12B4FBD0198818 Accuracy: -m0 Conclusion: CDDA 100% Signature: 478718B09C2EFB05FF5E4E3AC3BCB47F4DF0A9B9FILE: 07 - Nuits insolites.flac Size: 30040812 Hash: 7EBD5A3E754966D3066F54945F13B17F Accuracy: -m0 Conclusion: CDDA 100% Signature: E9A4D61666F456E5F2337764E227388D4062F0CCFILE: 06 - Nu-pieds.flac Size: 52758239 Hash: 8488623F71524686F826F99A5BCADE92 Accuracy: -m0 Conclusion: CDDA 100% Signature: 9CBFCAF6002057483BBEA94194A158CF9E5101ECFILE: 05 - Stress.flac Size: 30299638 Hash: 5605449615A0FAA85A28BF5095BD05C5 Accuracy: -m0 Conclusion: CDDA 100% Signature: AC46569702D25CBA90A041658D87EDF819B5A7C4FILE: 04 - Cybernetique.flac Size: 34674573 Hash: C621D0714B044A02AAB937E11A0E35A4 Accuracy: -m0 Conclusion: CDDA 100% Signature: 485B6DF3F958A8098EA30DEDB667577D0FB11B93FILE: 03 - Aromat.flac Size: 36502005 Hash: 5E0CEC2D97F67C1EB321182C34F12D12 Accuracy: -m0 Conclusion: CDDA 100% Signature: FB4C4BA8835CCEEC1B7A2187F6F3C48E3D8AC676FILE: 02 - Mirage.flac Size: 53850252 Hash: E21025591B5E5A439F84AC492F9939F3 Accuracy: -m0 Conclusion: CDDA 99% Signature: CBCBBDD2D18DF7B72CA7A6175AAEEA012C4600DC
Solstice - MIRAGE
3.09 | 5 ratings | 2 reviews | 0% 5 stars (progarchives.com)

Among the well-known bands emerging from the huge progressive movement in Quebec,Canada, there were some ''smaller'' names,which didn't achieved the huge success or big promotion of their native groups.Such kind of a band were SOLSTICE,an intially four- member group found in mid-70's by guitarist Daniel Lafrance,bassist Daniel Mathieu,clarinet player Michel Marineau (ex-member of another obscure group from Quebec,''Nebu'') and drummer Gilles Dozois.For their first album, entitled ''Mirage'' and released back in 1978,the main composer was Daniel Lafrance.So it is reasonable the album to have many guitar excursions and solos around and Lafrance has done it very well on his section...but do not expect an explosive sound or massive interplays.''Mirage'' maintains a generally soft atmosphere throughout met in early WEATHER REPORT or even UK jazz rockers NUCLEUS,but it holds also a great introduction to the use of clarinet by Marineau,as he has a lot of space in the album for improvisational solos and smooth interplays with the rhythm section.It is quite surprising that SOLSTICE do not use any keyboards at all,yet their jazzy proposal has a deep and mature sound.The funky bass lines of Mathieu reminds me these of fellow compatriots UZEB,while drummer Gilles Dozois insists on a consistent yet steady playing without any dynamic changes.The result is a typical example of good-executed Jazz Rock with no risks but a qualitive performance overall.Recommended and strongly aiming on the Jazz-Fusion Rock audience.

Review by psarros
http://www.progarchives.com/album.asp?id=31640
Solstice - ESPRESSO
3.14 | 3 ratings | 1 reviews | 0% 5 stars (progarchives.com)

t's a little difficult to believe that the group was not aware of Gong's discography and their late- 70's albums, so I'm not sure why these guys also used it, but obviously, they didn't gain much by doing so, as unfortunately they never got much of an exposition. If you've read my review of their previous album, you might have noticed that I praised the absence of those late-70's synths that ruined many albums of the era. Well you can scrap that particular remark for this album, as there are quite a bit of keyboards, but unfortunately, often the ones I incriminate.

So Solstice's distinctive sound that might have given them an edge is now simply wiped from the table with Robillard's arrival with his wide array of keyboard instruments, although it's not as catastrophic as I might hint it to be. Indeed, if the general direction of a funky JR/F is preserved, the shift from guitars to keyboards (the former are not absent, though) make this album a fairly different beast, but the Solstice touch remains, despite the shorter track format (8 instead of 6). Actually I personally feel that the "songwriting" is probably superior on Espresso than in its predecessor, especially on the rather amazing Pas De Douze.

Not anymore essential than its predecessor Mirage, Espresso is relatively more energetic, with the funk element cranked at 11, instead of 5 or 6 in the Spinal Tap scale.

Review by Sean Trane
http://www.progarchives.com/album.asp?id=31641
Solstice - MIRAGE
Daniel Mathieu: Bass
Michel Martineau: Clarinet
Daniel Lafrance: Guitars Electric and 12 Strings, Percussions
Gilles Dozois: Drums and Percussions
Solstice - ESPRESSO
Daniel Lafrance: Electric Guitars, and 12 Strings, Percussion
Jean-Yves Robillard: Electric Piano, Acoustic Piano, Synthesizers Korg and Prophet V, Percussion and Multimoog
Michel Martineau: Clarinet
Yves Nadeau: Bass Guitar and Bass "Fretless"
Gilles Dozois: Drums and Percussion



Трекер:  [ 30-Июл-2012 06:54 ]

  

Скачать .torrent

Размер .torrent файла 19 KB


Размер: 461 MB
Хэш (hash) релиза: bb0af6d45152fd25d56cc4ce63ca012ff6dcd59a

Еще никто не оставлял запись к записи скачать торрент Solstice - Mirage & Espresso - 1978 & 1981 . Будь первым!

!Обратная связь