Скачать через торрент Passion PitGossamer - 2012 ALAC, lossless бесплатно русская версия torrent активатор

Если у вас наблюдаются проблемы со скриншотами, переходом по ссылками, скачиванием торрентов - проблемы в блокировщике рекламы AdBlock. #хорошегоДня!


Статистика раздачи
Размер:  327 MB   |    Зарегистрирован:  5 лет 2 месяца   |    .torrent скачан:  34 раза   |   
Раздают:  1  
   
Загрузка...
 
Автор Сообщение

Galfimbul

avatar Galfimbul


Passion Pit/Gossamer

Год: 2012
Страна: US
Жанр: Electropop
Продолжительность: 00:47:31
Тексты: вшиты
Кодек: ALAC
Программа-риповщик : foobar2000 + iTunes (lossless)
Битрейт: lossless
Треклист:
01 Take A Walk 4:24
02 I'll Be Alright 4:22
03 Carried Away 3:42
04 Constant Conversations 3:56
05 Mirrored Sea 4:06
06 Cry Like A Ghost 4:23
07 On My Way 3:47
08 Hideaway 3:51
09 Two Veils To Hide My Face 0:34
10 Love Is Greed 4:20
11 It's Not My Fault, I'm Happy 5:06
12 Where We Belong 5:00
Доп. информация: На мой взгляд альбом явно слабее их дебютной пластинки
  
X Lossless Decoder version 20120609 (141.0)

XLD extraction logfile from 2012-07-19 17:19:51 -0700

Passion Pit / Gossamer

Used drive : MATSHITA DVD-R UJ-875 (revision DB09)

Ripper mode : CDParanoia III 10.2 Disable audio cache : OK for the drive with a cache less than 2750KiB Make use of C2 pointers : NO Read offset correction : 102 Max retry count : 100 Gap status : Analyzed, Appended

TOC of the extracted CD Track | Start | Length | Start sector | End sector --------------------------------------------------------- 1 | 00:00:00 | 04:24:37 | 0 | 19836 2 | 04:24:37 | 04:22:34 | 19837 | 39520 3 | 08:46:71 | 03:41:73 | 39521 | 56168 4 | 12:28:69 | 03:55:45 | 56169 | 73838 5 | 16:24:39 | 04:06:21 | 73839 | 92309 6 | 20:30:60 | 04:23:16 | 92310 | 112050 7 | 24:54:01 | 03:47:05 | 112051 | 129080 8 | 28:41:06 | 03:51:13 | 129081 | 146418 9 | 32:32:19 | 00:33:40 | 146419 | 148933 10 | 33:05:59 | 04:20:21 | 148934 | 168454 11 | 37:26:05 | 05:05:51 | 168455 | 191380 12 | 42:31:56 | 05:00:04 | 191381 | 213884

AccurateRip Summary Disc not found in AccurateRip DB.

All Tracks Album gain : -8.93 dB Peak : 0.998871 Statistics Read error : 0 Skipped (treated as error) : 0 Edge jitter error (maybe fixed) : 0 Atom jitter error (maybe fixed) : 0 Drift error (maybe fixed) : 0 Dropped bytes error (maybe fixed) : 0 Duplicated bytes error (maybe fixed) : 0

Track 01 Filename : /Volumes/4 Gig/Passion Pit - 2012 - Gossamer [FLAC]/01-Passion Pit - Take A Walk.flac Pre-gap length : 00:02:00

Track gain : -8.97 dB Peak : 0.983002 CRC32 hash (test run) : 93DB3568 CRC32 hash : 93DB3568 CRC32 hash (skip zero) : 0A825911 AccurateRip v1 signature : 4C811367 AccurateRip v2 signature : 21B2B56E ->Track not present in AccurateRip database. Statistics Read error : 0 Skipped (treated as error) : 0 Edge jitter error (maybe fixed) : 0 Atom jitter error (maybe fixed) : 0 Drift error (maybe fixed) : 0 Dropped bytes error (maybe fixed) : 0 Duplicated bytes error (maybe fixed) : 0 Inconsistency in error sectors : 0

Track 02 Filename : /Volumes/4 Gig/Passion Pit - 2012 - Gossamer [FLAC]/02-Passion Pit - I'll Be Alright.flac

Track gain : -8.22 dB Peak : 0.975922 CRC32 hash (test run) : 1E7561C2 CRC32 hash : 1E7561C2 CRC32 hash (skip zero) : 53A93016 AccurateRip v1 signature : 48CD828D AccurateRip v2 signature : 1EF59F36 ->Track not present in AccurateRip database. Statistics Read error : 0 Skipped (treated as error) : 0 Edge jitter error (maybe fixed) : 0 Atom jitter error (maybe fixed) : 0 Drift error (maybe fixed) : 0 Dropped bytes error (maybe fixed) : 0 Duplicated bytes error (maybe fixed) : 0 Inconsistency in error sectors : 0

Track 03 Filename : /Volumes/4 Gig/Passion Pit - 2012 - Gossamer [FLAC]/03-Passion Pit - Carried Away.flac

Track gain : -9.65 dB Peak : 0.971252 CRC32 hash (test run) : 272D8BA5 CRC32 hash : 272D8BA5 CRC32 hash (skip zero) : 4D9E071D AccurateRip v1 signature : 22AA1D4A AccurateRip v2 signature : 945DA8D7 ->Track not present in AccurateRip database. Statistics Read error : 0 Skipped (treated as error) : 0 Edge jitter error (maybe fixed) : 0 Atom jitter error (maybe fixed) : 0 Drift error (maybe fixed) : 0 Dropped bytes error (maybe fixed) : 0 Duplicated bytes error (maybe fixed) : 0 Inconsistency in error sectors : 0

Track 04 Filename : /Volumes/4 Gig/Passion Pit - 2012 - Gossamer [FLAC]/04-Passion Pit - Constant Conversations.flac

Track gain : -9.38 dB Peak : 0.975922 CRC32 hash (test run) : 8CB9DC07 CRC32 hash : 8CB9DC07 CRC32 hash (skip zero) : 0B9A927F AccurateRip v1 signature : 0703B331 AccurateRip v2 signature : AA89FB8D ->Track not present in AccurateRip database. Statistics Read error : 0 Skipped (treated as error) : 0 Edge jitter error (maybe fixed) : 0 Atom jitter error (maybe fixed) : 0 Drift error (maybe fixed) : 0 Dropped bytes error (maybe fixed) : 0 Duplicated bytes error (maybe fixed) : 0 Inconsistency in error sectors : 0

Track 05 Filename : /Volumes/4 Gig/Passion Pit - 2012 - Gossamer [FLAC]/05-Passion Pit - Mirrored Sea.flac

Track gain : -8.15 dB Peak : 0.965485 CRC32 hash (test run) : 77A00B82 CRC32 hash : 77A00B82 CRC32 hash (skip zero) : 97ABD9D7 AccurateRip v1 signature : 34563CFB AccurateRip v2 signature : 1DB3EE19 ->Track not present in AccurateRip database. Statistics Read error : 0 Skipped (treated as error) : 0 Edge jitter error (maybe fixed) : 0 Atom jitter error (maybe fixed) : 0 Drift error (maybe fixed) : 0 Dropped bytes error (maybe fixed) : 0 Duplicated bytes error (maybe fixed) : 0 Inconsistency in error sectors : 0

Track 06 Filename : /Volumes/4 Gig/Passion Pit - 2012 - Gossamer [FLAC]/06-Passion Pit - Cry Like A Ghost.flac

Track gain : -7.27 dB Peak : 0.973999 CRC32 hash (test run) : F076079D CRC32 hash : F076079D CRC32 hash (skip zero) : CA34937F AccurateRip v1 signature : 02524D50 AccurateRip v2 signature : 97AB2A36 ->Track not present in AccurateRip database. Statistics Read error : 0 Skipped (treated as error) : 0 Edge jitter error (maybe fixed) : 0 Atom jitter error (maybe fixed) : 0 Drift error (maybe fixed) : 0 Dropped bytes error (maybe fixed) : 0 Duplicated bytes error (maybe fixed) : 0 Inconsistency in error sectors : 0

Track 07 Filename : /Volumes/4 Gig/Passion Pit - 2012 - Gossamer [FLAC]/07-Passion Pit - On My Way.flac

Track gain : -8.85 dB Peak : 0.969635 CRC32 hash (test run) : BB8F10A9 CRC32 hash : BB8F10A9 CRC32 hash (skip zero) : E751EC3E AccurateRip v1 signature : 18432E9D AccurateRip v2 signature : 0D96474F ->Track not present in AccurateRip database. Statistics Read error : 0 Skipped (treated as error) : 0 Edge jitter error (maybe fixed) : 0 Atom jitter error (maybe fixed) : 0 Drift error (maybe fixed) : 0 Dropped bytes error (maybe fixed) : 0 Duplicated bytes error (maybe fixed) : 0 Inconsistency in error sectors : 0

Track 08 Filename : /Volumes/4 Gig/Passion Pit - 2012 - Gossamer [FLAC]/08-Passion Pit - Hideaway.flac

Track gain : -9.53 dB Peak : 0.998871 CRC32 hash (test run) : DCCC2AA5 CRC32 hash : DCCC2AA5 CRC32 hash (skip zero) : 482E5715 AccurateRip v1 signature : B7D1FEB8 AccurateRip v2 signature : 14DA03E3 ->Track not present in AccurateRip database. Statistics Read error : 0 Skipped (treated as error) : 0 Edge jitter error (maybe fixed) : 0 Atom jitter error (maybe fixed) : 0 Drift error (maybe fixed) : 0 Dropped bytes error (maybe fixed) : 0 Duplicated bytes error (maybe fixed) : 0 Inconsistency in error sectors : 0

Track 09 Filename : /Volumes/4 Gig/Passion Pit - 2012 - Gossamer [FLAC]/09-Passion Pit - Two Veils To Hide My Face.flac

Track gain : -4.25 dB Peak : 0.742035 CRC32 hash (test run) : 969049A6 CRC32 hash : 969049A6 CRC32 hash (skip zero) : D595693E AccurateRip v1 signature : DB50CE66 AccurateRip v2 signature : 2D859629 ->Track not present in AccurateRip database. Statistics Read error : 0 Skipped (treated as error) : 0 Edge jitter error (maybe fixed) : 0 Atom jitter error (maybe fixed) : 0 Drift error (maybe fixed) : 0 Dropped bytes error (maybe fixed) : 0 Duplicated bytes error (maybe fixed) : 0 Inconsistency in error sectors : 0

Track 10 Filename : /Volumes/4 Gig/Passion Pit - 2012 - Gossamer [FLAC]/10-Passion Pit - Love Is Greed.flac

Track gain : -9.48 dB Peak : 0.974487 CRC32 hash (test run) : EB393C46 CRC32 hash : EB393C46 CRC32 hash (skip zero) : E08B3924 AccurateRip v1 signature : 2794CEB5 AccurateRip v2 signature : DD0861F6 ->Track not present in AccurateRip database. Statistics Read error : 0 Skipped (treated as error) : 0 Edge jitter error (maybe fixed) : 0 Atom jitter error (maybe fixed) : 0 Drift error (maybe fixed) : 0 Dropped bytes error (maybe fixed) : 0 Duplicated bytes error (maybe fixed) : 0 Inconsistency in error sectors : 0

Track 11 Filename : /Volumes/4 Gig/Passion Pit - 2012 - Gossamer [FLAC]/11-Passion Pit - It's Not My Fault, I'm Happy.flac

Track gain : -8.84 dB Peak : 0.970886 CRC32 hash (test run) : 5FEA5E13 CRC32 hash : 5FEA5E13 CRC32 hash (skip zero) : A1BBFB7B AccurateRip v1 signature : 724B630A AccurateRip v2 signature : 37B8B951 ->Track not present in AccurateRip database. Statistics Read error : 0 Skipped (treated as error) : 0 Edge jitter error (maybe fixed) : 0 Atom jitter error (maybe fixed) : 0 Drift error (maybe fixed) : 0 Dropped bytes error (maybe fixed) : 0 Duplicated bytes error (maybe fixed) : 0 Inconsistency in error sectors : 0

Track 12 Filename : /Volumes/4 Gig/Passion Pit - 2012 - Gossamer [FLAC]/12-Passion Pit - Where We Belong.flac

Track gain : -6.60 dB Peak : 0.998871 CRC32 hash (test run) : FD4D1CBD CRC32 hash : FD4D1CBD CRC32 hash (skip zero) : 1CFE2892 AccurateRip v1 signature : 9D45F8EC AccurateRip v2 signature : 8DE10F68 ->Track not present in AccurateRip database. Statistics Read error : 0 Skipped (treated as error) : 0 Edge jitter error (maybe fixed) : 0 Atom jitter error (maybe fixed) : 0 Drift error (maybe fixed) : 0 Dropped bytes error (maybe fixed) : 0 Duplicated bytes error (maybe fixed) : 0 Inconsistency in error sectors : 0

No errors occurred

End of status report
  
TITLE "Gossamer" PERFORMER "Passion Pit" REM GENRE "Alternative" REM DATE "2012" REM DISCNUMBER 1 REM TOTALDISCS 1 REM DISCID B60B230C REM REPLAYGAIN_ALBUM_GAIN -8.93 dB REM REPLAYGAIN_ALBUM_PEAK 0.998871 FILE "01-Passion Pit - Take A Walk.flac" WAVE TRACK 01 AUDIO TITLE "Take A Walk" SONGWRITER "Michael Angelakos" ISRC USSM11202617 REM REPLAYGAIN_TRACK_GAIN -8.97 dB REM REPLAYGAIN_TRACK_PEAK 0.983002 INDEX 01 00:00:00 FILE "02-Passion Pit - I'll Be Alright.flac" WAVE TRACK 02 AUDIO TITLE "I'll Be Alright" SONGWRITER "Michael Angelakos" ISRC USSM11202618 REM REPLAYGAIN_TRACK_GAIN -8.22 dB REM REPLAYGAIN_TRACK_PEAK 0.975922 INDEX 01 00:00:00 FILE "03-Passion Pit - Carried Away.flac" WAVE TRACK 03 AUDIO TITLE "Carried Away" SONGWRITER "Michael Angelakos" ISRC USSM11202619 REM REPLAYGAIN_TRACK_GAIN -9.65 dB REM REPLAYGAIN_TRACK_PEAK 0.971252 INDEX 01 00:00:00 FILE "04-Passion Pit - Constant Conversations.flac" WAVE TRACK 04 AUDIO TITLE "Constant Conversations" SONGWRITER "Michael Angelakos" ISRC USSM11202620 REM REPLAYGAIN_TRACK_GAIN -9.38 dB REM REPLAYGAIN_TRACK_PEAK 0.975922 INDEX 01 00:00:00 FILE "05-Passion Pit - Mirrored Sea.flac" WAVE TRACK 05 AUDIO TITLE "Mirrored Sea" SONGWRITER "Michael Angelakos" ISRC USSM11202621 REM REPLAYGAIN_TRACK_GAIN -8.15 dB REM REPLAYGAIN_TRACK_PEAK 0.965485 INDEX 01 00:00:00 FILE "06-Passion Pit - Cry Like A Ghost.flac" WAVE TRACK 06 AUDIO TITLE "Cry Like A Ghost" SONGWRITER "Michael Angelakos" ISRC USSM11202622 REM REPLAYGAIN_TRACK_GAIN -7.27 dB REM REPLAYGAIN_TRACK_PEAK 0.973999 INDEX 01 00:00:00 FILE "07-Passion Pit - On My Way.flac" WAVE TRACK 07 AUDIO TITLE "On My Way" SONGWRITER "Michael Angelakos" ISRC USSM11202623 REM REPLAYGAIN_TRACK_GAIN -8.85 dB REM REPLAYGAIN_TRACK_PEAK 0.969635 INDEX 01 00:00:00 FILE "08-Passion Pit - Hideaway.flac" WAVE TRACK 08 AUDIO TITLE "Hideaway" SONGWRITER "Michael Angelakos" ISRC USSM11202624 REM REPLAYGAIN_TRACK_GAIN -9.53 dB REM REPLAYGAIN_TRACK_PEAK 0.998871 INDEX 01 00:00:00 FILE "09-Passion Pit - Two Veils To Hide My Face.flac" WAVE TRACK 09 AUDIO TITLE "Two Veils To Hide My Face" SONGWRITER "Michael Angelakos" ISRC USSM11202625 REM REPLAYGAIN_TRACK_GAIN -4.25 dB REM REPLAYGAIN_TRACK_PEAK 0.742035 INDEX 01 00:00:00 FILE "10-Passion Pit - Love Is Greed.flac" WAVE TRACK 10 AUDIO TITLE "Love Is Greed" SONGWRITER "Michael Angelakos" ISRC USSM11202626 REM REPLAYGAIN_TRACK_GAIN -9.48 dB REM REPLAYGAIN_TRACK_PEAK 0.974487 INDEX 01 00:00:00 FILE "11-Passion Pit - It's Not My Fault, I'm Happy.flac" WAVE TRACK 11 AUDIO TITLE "It's Not My Fault, I'm Happy" SONGWRITER "Michael Angelakos" ISRC USSM11202627 REM REPLAYGAIN_TRACK_GAIN -8.84 dB REM REPLAYGAIN_TRACK_PEAK 0.970886 INDEX 01 00:00:00 FILE "12-Passion Pit - Where We Belong.flac" WAVE TRACK 12 AUDIO TITLE "Where We Belong" SONGWRITER "Michael Angelakos" ISRC USSM11202628 REM REPLAYGAIN_TRACK_GAIN -6.60 dB REM REPLAYGAIN_TRACK_PEAK 0.998871 INDEX 01 00:00:00


Трекер:  [ 30-Июл-2012 13:06 ]

  

Скачать .torrent

Размер .torrent файла 14 KB


Размер: 327 MB
Хэш (hash) релиза: a7635539d08d7618f5b5c6971cfabe0c72404e25

Еще никто не оставлял запись к записи скачать торрент Passion PitGossamer - 2012 ALAC, lossless . Будь первым!

!Обратная связь