Скачать через торрент музыку Summerjam бесплатно без регистрации torrent

Если у вас наблюдаются проблемы со скриншотами, переходом по ссылками, скачиванием торрентов - проблемы в блокировщике рекламы AdBlock. #хорошегоДня!


Статистика раздачи
Размер:  7.17 GB   |    Зарегистрирован:  5 лет   |    .torrent скачан:  48 раз   |   
Раздают:  1  
   
Загрузка...
 
Автор Сообщение

L


Summerjam

Страна: Germany
Жанр: Reggae / Roots Reggae / Hip Hop / Rocksteady
Продолжительность: 01:13:30 + 01:21:21
Год выпуска: 2010

DVD5 x 2

SUMMERJAM - один из крупнейших европейских регги-фестивалей, отметивший своё 25-летие со 2 по 4 июля 2010 в Кельне (Германия).
Девиз фестиваля "Let The Spirit Rise!"

Проходит фестиваль обычно в июле на берегу озера Фюлингер в окрестностях Кёльна (Германия). Количество зрителей - 25 000 – 30 000 человек. Две сцены и два тента находятся на острове, палаточный городок располагается по берегам озера и окружает место проведения фестиваля.

Первые годы - с 1985 по 1993 - Summerjam устраивался в Loreley, в 1994 и 1995 годах - в аэропорту Wildenrath, а начиная с 1996 года он проводится под Кёльном. История фестиваля помнит многих: Black Uhuru, Dennis Brown, Jimmy Cliff, Third World, Steel Pulse, Aswad, Freddie McGregor, Sly and Robbie, Burning Spear, Linton Kwesi Johnson, The Abyssinians, Culture, Misty In Roots, Israel Vibration, Lee Scratch Perry, Lucky Dube, Tony Rebel, Maxi Priest, Bunny Wailer, Shaggy, Beenie Man, Sizzla, Sean Paul, Groundation et cetera.
Summerjam Festival 2010Cologne, Fühlinger See, 2-4 July

Volume 1

Machel Montano (soca or soul calypso)
Higher Than High

Gentleman (reggae, roots reggae, dancehall, reggae fusion)
To The Top
Superior
Go To Go

Nas & Damian "Junior Gong" Marley (Nas: hip hop; Damian: reggae, reggae fusion, dancehall, dub, ragga, hip hop)
As We Enter
Nah Mean
If I Ruled The World
Leaders
Count Your Blessing
Dispear
Land Of Promise

Julian Marley & The Uprising (roots reggae)
Rastaman Vibrations
When The Sun Comes Up
Sharp As A Razor
On The Floor
Boom Draw
Runnig Away

Volume 2

Delle (reggae, ska)
I Would Fly Around The World For You
Thou Shall Not
Pound Power

SOJA (reggae, roots reggae, dub, rasta)
Here I Am

Ohrbooten (reggae, ragga, alternative, hip hop)
Man Lebt Nur Einmal

Danakil feat General Levy (Danakil: reggae, roots reggae; General Levy: ragga jungle, jungle, dancehall, reggae, drum and bass)
Classical Option

Max Herre (hip hop, reggae, R&B, pop)
Er Sagt Sie Sagt
Anna

Labrassbanda (brass, balkan, bavarian, reggae, mundart, "альпийское джаз-техно")
Tubissimo

Inner Circle (reggae, jamaican, ska, roots reggae, dancehall)
Rock With You

Nneka (soul, hip hop, R&B, afrobeat, reggae)
The Uncomfortable Truth

Blumentopf (hip hop)
Freestyle
Wir

Lutan Fyah (reggae, dancehall, ragga, rasta, roots)
Not A Dollar More

Toots & The Maytals (reggae, ska, rocksteady)
Reggae Got A Soul
5446
Качество: DVD
Контейнер: VOB
Видео кодек: MPEG2
Видео: MPEG2 Video, 720:576, 16:9, VBR: avg. nom. bitrate 6328 kbps (min/max: 3456/9070), 25 fps
Аудио: MPEG1 Layer 2, 192 kbps, 48 kHz, 2 ch
  
GeneralComplete name : \Summerjam_2010_1\VIDEO_TS\VIDEO_TS.BUPFormat : DVD VideoFormat profile : MenuFile size : 12.0 KiB

VideoID : 224 (0xE0)Format : MPEG VideoFormat version : Version 2Bit rate mode : VariableWidth : 720 pixelsHeight : 576 pixelsDisplay aspect ratio : 4:3Frame rate : 25.000 fpsStandard : PALCompression mode : Lossy

GeneralComplete name : Summerjam_2010_1\VIDEO_TS\VIDEO_TS.IFOFormat : DVD VideoFormat profile : MenuFile size : 12.0 KiB

VideoID : 224 (0xE0)Format : MPEG VideoFormat version : Version 2Bit rate mode : VariableWidth : 720 pixelsHeight : 576 pixelsDisplay aspect ratio : 4:3Frame rate : 25.000 fpsStandard : PALCompression mode : Lossy

GeneralComplete name : \Summerjam_2010_1\VIDEO_TS\VIDEO_TS.VOBFormat : MPEG-PSFile size : 48.0 KiBDuration : 40msOverall bit rate : 9 830 Kbps

VideoID : 224 (0xE0)Format : MPEG VideoFormat version : Version 2Format profile : Main@MainFormat settings, BVOP : NoFormat settings, Matrix : DefaultDuration : 40msBit rate mode : VariableBit rate : 9 000 KbpsWidth : 720 pixelsHeight : 576 pixelsDisplay aspect ratio : 4:3Frame rate : 25.000 fpsStandard : PALColor space : YUVChroma subsampling : 4:2:0Bit depth : 8 bitsScan type : ProgressiveScan order : Top Field FirstCompression mode : LossyBits/(Pixel*Frame) : 0.868Stream size : 43.9 KiB (92%)

Menu

GeneralComplete name : \Summerjam_2010_1\VIDEO_TS\VTS_01_0.BUPFormat : DVD VideoFormat profile : ProgramFile size : 50.0 KiBDuration : 1h 13mnOverall bit rate : 92 bps

VideoID : 224 (0xE0)Format : MPEG VideoFormat version : Version 2Duration : 1h 13mnBit rate mode : VariableWidth : 720 pixelsHeight : 576 pixelsDisplay aspect ratio : 16:9Frame rate : 25.000 fpsStandard : PALCompression mode : Lossy

AudioID : 0 (0x0)Format : MPEG AudioFormat profile : Version 1Duration : 1h 13mnChannel(s) : 2 channelsSampling rate : 48.0 KHzCompression mode : LossyLanguage : English

MenuDuration : 1h 13mn00:00:00.000 : Chapter 100:04:09.520 : Chapter 200:06:54.640 : Chapter 300:12:13.480 : Chapter 400:15:43.000 : Chapter 500:18:24.560 : Chapter 600:21:56.120 : Chapter 700:25:23.600 : Chapter 800:30:35.600 : Chapter 900:34:47.480 : Chapter 1000:40:01.040 : Chapter 1100:45:17.280 : Chapter 1200:50:24.400 : Chapter 1300:54:22.480 : Chapter 1400:58:36.760 : Chapter 1501:03:46.000 : Chapter 1601:09:01.360 : Chapter 17List (Audio) : 0

GeneralComplete name : \Summerjam_2010_1\VIDEO_TS\VTS_01_0.IFOFormat : DVD VideoFormat profile : ProgramFile size : 50.0 KiBDuration : 1h 13mnOverall bit rate : 92 bps

VideoID : 224 (0xE0)Format : MPEG VideoFormat version : Version 2Duration : 1h 13mnBit rate mode : VariableWidth : 720 pixelsHeight : 576 pixelsDisplay aspect ratio : 16:9Frame rate : 25.000 fpsStandard : PALCompression mode : Lossy

AudioID : 0 (0x0)Format : MPEG AudioFormat profile : Version 1Duration : 1h 13mnChannel(s) : 2 channelsSampling rate : 48.0 KHzCompression mode : LossyLanguage : English

MenuDuration : 1h 13mn00:00:00.000 : Chapter 100:04:09.520 : Chapter 200:06:54.640 : Chapter 300:12:13.480 : Chapter 400:15:43.000 : Chapter 500:18:24.560 : Chapter 600:21:56.120 : Chapter 700:25:23.600 : Chapter 800:30:35.600 : Chapter 900:34:47.480 : Chapter 1000:40:01.040 : Chapter 1100:45:17.280 : Chapter 1200:50:24.400 : Chapter 1300:54:22.480 : Chapter 1400:58:36.760 : Chapter 1501:03:46.000 : Chapter 1601:09:01.360 : Chapter 17List (Audio) : 0

GeneralComplete name : \Summerjam_2010_1\VIDEO_TS\VTS_01_0.VOBFormat : MPEG-PSFile size : 356 KiBDuration : 40msOverall bit rate : 72.9 Mbps

VideoID : 224 (0xE0)Format : MPEG VideoFormat version : Version 2Format profile : Main@MainFormat settings, BVOP : NoFormat settings, Matrix : DefaultFormat settings, GOP : N=1Duration : 40msBit rate mode : VariableBit rate : 9 000 KbpsWidth : 720 pixelsHeight : 576 pixelsDisplay aspect ratio : 16:9Frame rate : 25.000 fpsStandard : PALColor space : YUVChroma subsampling : 4:2:0Bit depth : 8 bitsScan type : ProgressiveScan order : Top Field FirstCompression mode : LossyBits/(Pixel*Frame) : 0.868Stream size : 43.9 KiB (12%)

Text #1ID : 32 (0x20)Format : RLEFormat/Info : Run-length encoding

Text #2ID : 33 (0x21)Format : RLEFormat/Info : Run-length encoding

Text #3ID : 34 (0x22)Format : RLEFormat/Info : Run-length encoding

Menu

GeneralComplete name : \Summerjam_2010_1\VIDEO_TS\VTS_01_1.VOBFormat : MPEG-PSFile size : 1 001 MiBDuration : 20mn 21sOverall bit rate : 6 872 Kbps

VideoID : 224 (0xE0)Format : MPEG VideoFormat version : Version 2Format profile : Main@MainFormat settings, BVOP : YesFormat settings, Matrix : DefaultFormat settings, GOP : M=3, N=12Duration : 20mn 21sBit rate mode : VariableBit rate : 6 543 KbpsWidth : 720 pixelsHeight : 576 pixelsDisplay aspect ratio : 16:9Frame rate : 25.000 fpsStandard : PALColor space : YUVChroma subsampling : 4:2:0Bit depth : 8 bitsScan type : InterlacedScan order : Top Field FirstCompression mode : LossyBits/(Pixel*Frame) : 0.631Stream size : 953 MiB (95%)

AudioID : 192 (0xC0)Format : MPEG AudioFormat version : Version 1Format profile : Layer 2Duration : 20mn 21sBit rate mode : ConstantBit rate : 192 KbpsChannel(s) : 2 channelsSampling rate : 48.0 KHzCompression mode : LossyStream size : 28.0 MiB (3%)

Menu

GeneralComplete name : \Summerjam_2010_1\VIDEO_TS\VTS_01_2.VOBFormat : MPEG-PSFile size : 999 MiBDuration : 21mn 40sOverall bit rate : 6 445 Kbps

VideoID : 224 (0xE0)Format : MPEG VideoFormat version : Version 2Format profile : Main@MainFormat settings, BVOP : YesFormat settings, Matrix : DefaultDuration : 21mn 40sBit rate mode : VariableBit rate : 6 124 KbpsWidth : 720 pixelsHeight : 576 pixelsDisplay aspect ratio : 16:9Frame rate : 25.000 fpsStandard : PALColor space : YUVChroma subsampling : 4:2:0Bit depth : 8 bitsScan type : InterlacedScan order : Top Field FirstCompression mode : LossyBits/(Pixel*Frame) : 0.591Stream size : 950 MiB (95%)

AudioID : 192 (0xC0)Format : MPEG AudioFormat version : Version 1Format profile : Layer 2Duration : 21mn 40sBit rate mode : ConstantBit rate : 192 KbpsChannel(s) : 2 channelsSampling rate : 48.0 KHzCompression mode : LossyDelay relative to video : -208msStream size : 29.8 MiB (3%)

Menu

GeneralComplete name : \Summerjam_2010_1\VIDEO_TS\VTS_01_3.VOBFormat : MPEG-PSFile size : 1 000 MiBDuration : 21mn 4sOverall bit rate : 6 637 Kbps

VideoID : 224 (0xE0)Format : MPEG VideoFormat version : Version 2Format profile : Main@MainFormat settings, BVOP : YesFormat settings, Matrix : DefaultDuration : 21mn 4sBit rate mode : VariableBit rate : 6 313 KbpsWidth : 720 pixelsHeight : 576 pixelsDisplay aspect ratio : 16:9Frame rate : 25.000 fpsStandard : PALColor space : YUVChroma subsampling : 4:2:0Bit depth : 8 bitsScan type : InterlacedScan order : Top Field FirstCompression mode : LossyBits/(Pixel*Frame) : 0.609Stream size : 951 MiB (95%)

AudioID : 192 (0xC0)Format : MPEG AudioFormat version : Version 1Format profile : Layer 2Duration : 21mn 4sBit rate mode : ConstantBit rate : 192 KbpsChannel(s) : 2 channelsSampling rate : 48.0 KHzCompression mode : LossyDelay relative to video : -208msStream size : 28.9 MiB (3%)

Menu

GeneralComplete name : \Summerjam_2010_1\VIDEO_TS\VTS_01_4.VOBFormat : MPEG-PSFile size : 493 MiBDuration : 10mn 23sOverall bit rate : 6 635 Kbps

VideoID : 224 (0xE0)Format : MPEG VideoFormat version : Version 2Format profile : Main@MainFormat settings, BVOP : YesFormat settings, Matrix : DefaultFormat settings, GOP : M=3, N=12Duration : 10mn 23sBit rate mode : VariableBit rate : 6 311 KbpsWidth : 720 pixelsHeight : 576 pixelsDisplay aspect ratio : 16:9Frame rate : 25.000 fpsStandard : PALColor space : YUVChroma subsampling : 4:2:0Bit depth : 8 bitsScan type : InterlacedScan order : Top Field FirstCompression mode : LossyBits/(Pixel*Frame) : 0.609Stream size : 469 MiB (95%)

AudioID : 192 (0xC0)Format : MPEG AudioFormat version : Version 1Format profile : Layer 2Duration : 10mn 23sBit rate mode : ConstantBit rate : 192 KbpsChannel(s) : 2 channelsSampling rate : 48.0 KHzCompression mode : LossyDelay relative to video : -216msStream size : 14.3 MiB (3%)
  
GeneralComplete name : \Summerjam_2010_2\VIDEO_TS\VIDEO_TS.BUPFormat : DVD VideoFormat profile : MenuFile size : 12.0 KiB

VideoID : 224 (0xE0)Format : MPEG VideoFormat version : Version 2Bit rate mode : VariableWidth : 720 pixelsHeight : 576 pixelsDisplay aspect ratio : 4:3Frame rate : 25.000 fpsStandard : PALCompression mode : Lossy

GeneralComplete name : \Summerjam_2010_2\VIDEO_TS\VIDEO_TS.IFOFormat : DVD VideoFormat profile : MenuFile size : 12.0 KiB

VideoID : 224 (0xE0)Format : MPEG VideoFormat version : Version 2Bit rate mode : VariableWidth : 720 pixelsHeight : 576 pixelsDisplay aspect ratio : 4:3Frame rate : 25.000 fpsStandard : PALCompression mode : Lossy

GeneralComplete name : \Summerjam_2010_2\VIDEO_TS\VIDEO_TS.VOBFormat : MPEG-PSFile size : 48.0 KiBDuration : 40msOverall bit rate : 9 830 Kbps

VideoID : 224 (0xE0)Format : MPEG VideoFormat version : Version 2Format profile : Main@MainFormat settings, BVOP : NoFormat settings, Matrix : DefaultDuration : 40msBit rate mode : VariableBit rate : 9 000 KbpsWidth : 720 pixelsHeight : 576 pixelsDisplay aspect ratio : 4:3Frame rate : 25.000 fpsStandard : PALColor space : YUVChroma subsampling : 4:2:0Bit depth : 8 bitsScan type : ProgressiveScan order : Top Field FirstCompression mode : LossyBits/(Pixel*Frame) : 0.868Stream size : 43.9 KiB (92%)

Menu

GeneralComplete name : \Summerjam_2010_2\VIDEO_TS\VTS_01_0.BUPFormat : DVD VideoFormat profile : ProgramFile size : 54.0 KiBDuration : 1h 21mnOverall bit rate : 90 bps

VideoID : 224 (0xE0)Format : MPEG VideoFormat version : Version 2Duration : 1h 21mnBit rate mode : VariableWidth : 720 pixelsHeight : 576 pixelsDisplay aspect ratio : 16:9Frame rate : 25.000 fpsStandard : PALCompression mode : Lossy

AudioID : 0 (0x0)Format : MPEG AudioFormat profile : Version 1Duration : 1h 21mnChannel(s) : 2 channelsSampling rate : 48.0 KHzCompression mode : LossyLanguage : English

MenuDuration : 1h 21mn00:00:00.000 : Chapter 100:08:13.120 : Chapter 200:12:08.800 : Chapter 300:15:48.160 : Chapter 400:20:51.040 : Chapter 500:24:37.600 : Chapter 600:28:03.520 : Chapter 700:32:53.920 : Chapter 800:38:18.040 : Chapter 900:43:39.520 : Chapter 1000:51:10.360 : Chapter 1100:55:48.280 : Chapter 1200:58:04.600 : Chapter 1301:01:18.400 : Chapter 1401:04:27.520 : Chapter 1501:10:51.880 : Chapter 16List (Audio) : 0

GeneralComplete name : \Summerjam_2010_2\VIDEO_TS\VTS_01_0.IFOFormat : DVD VideoFormat profile : ProgramFile size : 54.0 KiBDuration : 1h 21mnOverall bit rate : 90 bps

VideoID : 224 (0xE0)Format : MPEG VideoFormat version : Version 2Duration : 1h 21mnBit rate mode : VariableWidth : 720 pixelsHeight : 576 pixelsDisplay aspect ratio : 16:9Frame rate : 25.000 fpsStandard : PALCompression mode : Lossy

AudioID : 0 (0x0)Format : MPEG AudioFormat profile : Version 1Duration : 1h 21mnChannel(s) : 2 channelsSampling rate : 48.0 KHzCompression mode : LossyLanguage : English

MenuDuration : 1h 21mn00:00:00.000 : Chapter 100:08:13.120 : Chapter 200:12:08.800 : Chapter 300:15:48.160 : Chapter 400:20:51.040 : Chapter 500:24:37.600 : Chapter 600:28:03.520 : Chapter 700:32:53.920 : Chapter 800:38:18.040 : Chapter 900:43:39.520 : Chapter 1000:51:10.360 : Chapter 1100:55:48.280 : Chapter 1200:58:04.600 : Chapter 1301:01:18.400 : Chapter 1401:04:27.520 : Chapter 1501:10:51.880 : Chapter 16List (Audio) : 0

GeneralComplete name : \Summerjam_2010_2\VIDEO_TS\VTS_01_0.VOBFormat : MPEG-PSFile size : 366 KiBDuration : 40msOverall bit rate : 75.0 Mbps

VideoID : 224 (0xE0)Format : MPEG VideoFormat version : Version 2Format profile : Main@MainFormat settings, BVOP : NoFormat settings, Matrix : DefaultFormat settings, GOP : N=1Duration : 40msBit rate mode : VariableBit rate : 9 000 KbpsWidth : 720 pixelsHeight : 576 pixelsDisplay aspect ratio : 16:9Frame rate : 25.000 fpsStandard : PALColor space : YUVChroma subsampling : 4:2:0Bit depth : 8 bitsScan type : ProgressiveScan order : Top Field FirstCompression mode : LossyBits/(Pixel*Frame) : 0.868Stream size : 43.9 KiB (12%)

Text #1ID : 32 (0x20)Format : RLEFormat/Info : Run-length encoding

Text #2ID : 33 (0x21)Format : RLEFormat/Info : Run-length encoding

Text #3ID : 34 (0x22)Format : RLEFormat/Info : Run-length encoding

Menu

GeneralComplete name : \Summerjam_2010_2\VIDEO_TS\VTS_01_1.VOBFormat : MPEG-PSFile size : 1 001 MiBDuration : 20mn 22sOverall bit rate : 6 865 KbpsWriting library : encoded by TMPGEnc (ver. 2.59.47.155)

VideoID : 224 (0xE0)Format : MPEG VideoFormat version : Version 2Format profile : Main@MainFormat settings, BVOP : YesFormat settings, Matrix : DefaultDuration : 20mn 22sBit rate mode : VariableBit rate : 6 537 KbpsWidth : 720 pixelsHeight : 576 pixelsDisplay aspect ratio : 16:9Frame rate : 25.000 fpsStandard : PALColor space : YUVChroma subsampling : 4:2:0Bit depth : 8 bitsScan type : InterlacedScan order : Top Field FirstCompression mode : LossyBits/(Pixel*Frame) : 0.630Stream size : 953 MiB (95%)Writing library : TMPGEnc 2.59.47.155

AudioID : 192 (0xC0)Format : MPEG AudioFormat version : Version 1Format profile : Layer 2Duration : 20mn 22sBit rate mode : ConstantBit rate : 192 KbpsChannel(s) : 2 channelsSampling rate : 48.0 KHzCompression mode : LossyStream size : 28.0 MiB (3%)

Menu

GeneralComplete name : \Summerjam_2010_2\VIDEO_TS\VTS_01_2.VOBFormat : MPEG-PSFile size : 1 000 MiBDuration : 20mn 37sOverall bit rate : 6 773 Kbps

VideoID : 224 (0xE0)Format : MPEG VideoFormat version : Version 2Format profile : Main@MainFormat settings, BVOP : YesFormat settings, Matrix : DefaultDuration : 20mn 37sBit rate mode : VariableBit rate : 6 446 KbpsWidth : 720 pixelsHeight : 576 pixelsDisplay aspect ratio : 16:9Frame rate : 25.000 fpsStandard : PALColor space : YUVChroma subsampling : 4:2:0Bit depth : 8 bitsScan type : InterlacedScan order : Top Field FirstCompression mode : LossyBits/(Pixel*Frame) : 0.622Stream size : 951 MiB (95%)

AudioID : 192 (0xC0)Format : MPEG AudioFormat version : Version 1Format profile : Layer 2Duration : 20mn 37sBit rate mode : ConstantBit rate : 192 KbpsChannel(s) : 2 channelsSampling rate : 48.0 KHzCompression mode : LossyDelay relative to video : -240msStream size : 28.3 MiB (3%)

Menu

GeneralComplete name : \Summerjam_2010_2\VIDEO_TS\VTS_01_3.VOBFormat : MPEG-PSFile size : 1 000 MiBDuration : 21mn 51sOverall bit rate : 6 398 Kbps

VideoID : 224 (0xE0)Format : MPEG VideoFormat version : Version 2Format profile : Main@MainFormat settings, BVOP : YesFormat settings, Matrix : DefaultDuration : 21mn 50sBit rate mode : VariableBit rate : 6 079 KbpsWidth : 720 pixelsHeight : 576 pixelsDisplay aspect ratio : 16:9Frame rate : 25.000 fpsStandard : PALColor space : YUVChroma subsampling : 4:2:0Bit depth : 8 bitsScan type : InterlacedScan order : Top Field FirstCompression mode : LossyBits/(Pixel*Frame) : 0.586Stream size : 950 MiB (95%)

AudioID : 192 (0xC0)Format : MPEG AudioFormat version : Version 1Format profile : Layer 2Duration : 21mn 51sBit rate mode : ConstantBit rate : 192 KbpsChannel(s) : 2 channelsSampling rate : 48.0 KHzCompression mode : LossyDelay relative to video : -240msStream size : 30.0 MiB (3%)

Menu

GeneralComplete name : \Summerjam_2010_2\VIDEO_TS\VTS_01_4.VOBFormat : MPEG-PSFile size : 852 MiBDuration : 18mn 29sOverall bit rate : 6 438 Kbps

VideoID : 224 (0xE0)Format : MPEG VideoFormat version : Version 2Format profile : Main@MainFormat settings, BVOP : YesFormat settings, Matrix : DefaultFormat settings, GOP : M=3, N=12Duration : 18mn 29sBit rate mode : VariableBit rate : 6 118 KbpsWidth : 720 pixelsHeight : 576 pixelsDisplay aspect ratio : 16:9Frame rate : 25.000 fpsStandard : PALColor space : YUVChroma subsampling : 4:2:0Bit depth : 8 bitsScan type : InterlacedScan order : Top Field FirstCompression mode : LossyBits/(Pixel*Frame) : 0.590Stream size : 809 MiB (95%)

AudioID : 192 (0xC0)Format : MPEG AudioFormat version : Version 1Format profile : Layer 2Duration : 18mn 29sBit rate mode : ConstantBit rate : 192 KbpsChannel(s) : 2 channelsSampling rate : 48.0 KHzCompression mode : LossyDelay relative to video : -240msStream size : 25.4 MiB (3%)


Трекер:  [ 30-Июл-2012 06:58 ]

  

Скачать .torrent

Размер .torrent файла 37 KB


Размер: 7.17 GB
Хэш (hash) релиза: a6173c8a896eab64e29b6012e739f7aa012a95ce

Еще никто не оставлял запись к записи скачать торрент Summerjam . Будь первым!

!Обратная связь