Скачать через торрент Conor Maynard - Contrast - 2012 бесплатно русская версия torrent активатор

Если у вас наблюдаются проблемы со скриншотами, переходом по ссылками, скачиванием торрентов - проблемы в блокировщике рекламы AdBlock. #хорошегоДня!


Статистика раздачи
Размер:  190 MB   |    Зарегистрирован:  5 лет 2 месяца   |    .torrent скачан:  49 раз   |   
Раздают:  1  
   
Загрузка...
 
Автор Сообщение

Galfimbul

avatar Galfimbul


Conor Maynard - Contrast
Жанр: Pop, Electro, R&B
Страна: UK
Год издания: 2012
Издатель (лейбл): EMI Records Ltd
Аудио кодек: AAC
Тип рипа: tracks
Битрейт аудио: 256 kbps
Продолжительность: 00:47:55
Источник: iTunes
Тексты: отсутствуют
Наличие сканов в содержимом раздачи: нет
Треклист:
1. Animal (3:16)
2. Turn Around (feat. Ne-Yo) (3:52)
3. Vegas Girl (2:49)
4. Can't Say No (3:14)
5. Lift Off (feat. Pharrell) (2:59)
6. Mary Go Round (3:09)
7. Take Off (3:36)
8. Better Than You (feat. Rita Ora) (3:13)
9. Another One (3:12)
10. Pictures (4:09)
11. Glass Girl (4:31)
12. Just In Case (3:19)
13. Headphones (3:19)
14. Drowning (3:17)
15. Can't Say No (3:14) [Video]
16. Vegas Girl (3:39) [Video]
Качество: WEB-DL
Продолжительность: 00:03:14
Формат: MPEG-4 (контейнер m4v)
Видео: H.264, 640 x 342 px (16:9), 25,000 fps, ~1554 kbps, без анаморфа
Аудио: Английский (AAC Stereo, 256 Кбит/сек, 44,1 КГц)
General
Complete name : E:\Apple\Music\Conor Maynord - Contrast (2012)\15 Can't Say No.m4v
Format : MPEG-4
Codec ID : M4V
File size : 43.0 MiB
Duration : 3mn 14s
Overall bit rate : 1 851 Kbps
Movie name : Can't Say No
Album : Contrast
Album/Performer : Conor Maynard
Track name/Position : 1
Track name/Total : 0
Performer : Conor Maynard
Genre : Pop
Recorded date : UTC 2012-07-27 07:00:00
Encoded date : UTC 2012-07-26 14:05:25
Tagged date : UTC 2012-07-26 14:05:25
Cover : Yes
apID : <a href="mailto:christian.gladis2103@web.de" class="postLink">christian.gladis2103@web.de</a>
cnID : 545336415
rtng : 0
atID : 413594421
cmID : 0
plID : 545336085
geID : 1614
sfID : 143443
tvsn : 0
tves : 0
stik : 6
purd : 2012-07-26 23:03:10
rndu : 0
rpdu : 0
xid : EMI:isrc:GB0401100202
flvr : 6:640x480LC-256
iTunMOVI : <?xml version="1.0" encoding="UTF-8"?> / <!DOCTYPE plist PUBLIC "-//Apple//DTD PLIST 1.0//EN" "http://www.apple.com/DTDs/PropertyList-1.0.dtd"> / <plist version="1.0"> / <dict> / <key>asset-info</key> / <dict> / <key>file-size</key> / <integer>45054755</integer> / <key>flavor</key> / <string>6:640x480LC-256</string> / <key>screen-format</key> / <string>widescreen</string> / </dict> / </dict> / </plist>

Video
ID : 1
Format : AVC
Format/Info : Advanced Video Codec
Format profile : <a href="mailto:Baseline@L3.0" class="postLink">Baseline@L3.0</a>
Format settings, CABAC : No
Format settings, ReFrames : 1 frame
Codec ID : avc1
Codec ID/Info : Advanced Video Coding
Duration : 3mn 14s
Bit rate : 1 554 Kbps
Width : 640 pixels
Height : 342 pixels
Display aspect ratio : 2.495
Frame rate mode : Constant
Frame rate : 25.000 fps
Color space : YUV
Chroma subsampling : 4:2:0
Bit depth : 8 bits
Scan type : Progressive
Bits/(Pixel*Frame) : 0.284
Stream size : 36.1 MiB (84%)
Language : English
Encoded date : UTC 2012-07-26 14:05:25
Tagged date : UTC 2012-07-26 14:05:25
Color primaries : BT.601-6 525, BT.1358 525, BT.1700 NTSC, SMPTE 170M
Transfer characteristics : BT.709-5, BT.1361
Matrix coefficients : BT.601-6 525, BT.1358 525, BT.1700 NTSC, SMPTE 170M

Audio
ID : 2
Format : AAC
Format/Info : Advanced Audio Codec
Format profile : LC
Codec ID : 40
Duration : 3mn 14s
Source duration : 3mn 14s
Bit rate mode : Constant
Bit rate : 256 Kbps
Channel(s) : 2 channels
Channel positions : Front: L R
Sampling rate : 44.1 KHz
Compression mode : Lossy
Stream size : 5.75 MiB (13%)
Source stream size : 5.75 MiB (13%)
Language : English
Encoded date : UTC 2012-07-26 14:05:25
Tagged date : UTC 2012-07-26 14:05:25
Качество: WEB-DL
Продолжительность: 00:03:39
Формат: MPEG-4 (контейнер m4v)
Видео: H.264, 640 x 480 px (16:9), 23,976 fps, ~1564 kbps, без анаморфа
Аудио: Английский (AAC Stereo, 256 Кбит/сек, 44,1 КГц)
General
Complete name : E:\Apple\Music\Conor Maynord - Contrast (2012)\16 Vegas Girl.m4v
Format : MPEG-4
Codec ID : M4V
File size : 48.3 MiB
Duration : 3mn 39s
Overall bit rate : 1 847 Kbps
Movie name : Vegas Girl
Album : Contrast
Album/Performer : Conor Maynard
Track name/Position : 1
Track name/Total : 0
Performer : Conor Maynard
Genre : Pop
Recorded date : UTC 2012-07-27 07:00:00
Encoded date : UTC 2012-07-18 06:12:19
Tagged date : UTC 2012-07-18 06:12:20
Cover : Yes
apID : <a href="mailto:christian.gladis2103@web.de" class="postLink">christian.gladis2103@web.de</a>
cnID : 545336496
rtng : 0
atID : 412823375
cmID : 0
plID : 545336085
geID : 1614
sfID : 143443
tvsn : 0
tves : 0
stik : 6
purd : 2012-07-26 23:03:10
rndu : 0
rpdu : 0
xid : EMI:isrc:GB0401200096
flvr : 6:640x480LC-256
iTunMOVI : <?xml version="1.0" encoding="UTF-8"?> / <!DOCTYPE plist PUBLIC "-//Apple//DTD PLIST 1.0//EN" "http://www.apple.com/DTDs/PropertyList-1.0.dtd"> / <plist version="1.0"> / <dict> / <key>asset-info</key> / <dict> / <key>file-size</key> / <integer>50652901</integer> / <key>flavor</key> / <string>6:640x480LC-256</string> / <key>screen-format</key> / <string>widescreen</string> / </dict> / </dict> / </plist>

Video
ID : 1
Format : AVC
Format/Info : Advanced Video Codec
Format profile : <a href="mailto:Baseline@L3.0" class="postLink">Baseline@L3.0</a>
Format settings, CABAC : No
Format settings, ReFrames : 1 frame
Codec ID : avc1
Codec ID/Info : Advanced Video Coding
Duration : 3mn 39s
Bit rate : 1 564 Kbps
Width : 640 pixels
Height : 480 pixels
Display aspect ratio : 16:9
Frame rate mode : Constant
Frame rate : 23.976 fps
Color space : YUV
Chroma subsampling : 4:2:0
Bit depth : 8 bits
Scan type : Progressive
Bits/(Pixel*Frame) : 0.212
Stream size : 40.9 MiB (85%)
Language : English
Encoded date : UTC 2012-07-18 06:12:19
Tagged date : UTC 2012-07-18 06:12:20
Color primaries : BT.601-6 525, BT.1358 525, BT.1700 NTSC, SMPTE 170M
Transfer characteristics : BT.709-5, BT.1361
Matrix coefficients : BT.601-6 525, BT.1358 525, BT.1700 NTSC, SMPTE 170M

Audio
ID : 2
Format : AAC
Format/Info : Advanced Audio Codec
Format profile : LC
Codec ID : 40
Duration : 3mn 39s
Source duration : 3mn 39s
Bit rate mode : Constant
Bit rate : 239 Kbps
Nominal bit rate : 256 Kbps
Channel(s) : 2 channels
Channel positions : Front: L R
Sampling rate : 44.1 KHz
Compression mode : Lossy
Stream size : 6.26 MiB (13%)
Source stream size : 6.26 MiB (13%)
Language : English
Encoded date : UTC 2012-07-18 06:12:19
Tagged date : UTC 2012-07-18 06:12:20
http://en.wikipedia.org/wiki/Contrast_(Conor_Maynard_album)



Трекер:  [ 31-Июл-2012 21:49 ]

  

Скачать .torrent

Размер .torrent файла 16 KB


Размер: 190 MB
Хэш (hash) релиза: 45ecd654159ca7b138161a2b205ca5e7d6c074e4

Еще никто не оставлял запись к записи скачать торрент Conor Maynard - Contrast - 2012 . Будь первым!

!Обратная связь