Скачать через торрент музыку Night Ranger бесплатно без регистрации torrent

Если у вас наблюдаются проблемы со скриншотами, переходом по ссылками, скачиванием торрентов - проблемы в блокировщике рекламы AdBlock. #хорошегоДня!


Статистика раздачи
Размер:  1.27 GB   |    Зарегистрирован:  5 лет 2 месяца   |    .torrent скачан:  16 раз   |   
Раздают:  1  
   
Загрузка...
 
Автор Сообщение

_N_

avatar _N_


Night Ranger / 1982-1987

Жанр: Hard Rock
Страна-производитель диска: Япония
Страна: США
Аудиокодек: FLAC (*.flac)
Тип рипа: image+.cue
Битрейт аудио: lossless
Источник (релизер): Собственный рип
Наличие сканов в содержимом раздачи: да
Night Ranger - Dawn Patrol

Год выхода альбома: 1982
Год выпуска диска: 1985
Производитель диска: Япония
Продолжительность: 32:13

Треклист:
1. Don't Tell Me You Love Me (04:23)
2. Sing Me Away (04:10)
3. At Night She Sleeps (04:14)
4. Call My Name (03:45)
5. Eddie's Comin' Out Tonight (04:26)
6. Can't Find Me a Thrill (03:23)
7. Young Girl In Love (03:35)
8. Play Rough (04:17)
9. Penny (03:48)
10. Night Ranger (04:33)

Доп. информация:
Лейбл: MCA/WARNER-PIONEER
Номер по каталогу: 32XD-336
Матрица: 32XD-336 31A1 +++++ (SONY)
Exact Audio Copy V1.0 beta 3 from 29. August 2011

Отчёт EAC об извлечении, выполненном 20. июля 2012, 10:16

Night Ranger / Dawn Patrol [32XD-336]

Дисковод: Optiarc DVD RW AD-7200A Adapter: 0 ID: 0

Режим чтения : Достоверность
Использование точного потока : Да
Отключение кэша аудио : Да
Использование указателей C2 : Нет

Коррекция смещения при чтении : 48
Способность читать области Lead-in и Lead-out : Нет
Заполнение пропущенных сэмплов тишиной : Да
Удаление блоков с тишиной в начале и конце : Нет
При вычислениях CRC использовались нулевые сэмплы : Да
Интерфейс : Встроенный Win32-интерфейс для Win NT/2000

Выходной формат : Пользовательский кодировщик
Выбранный битрейт : 32 kBit/s
Качество : Высокий
Добавление ID3-тега : Нет
Утилита сжатия : C:\Program Files\Exact Audio Copy\Flac\flac.exe
Дополнительные параметры : -V -8 -T "Date=%year%" -T "Genre=%genre%" %source%

TOC извлечённого CD

Трек | Старт | Длительность | Начальный сектор | Конечный сектор
---------------------------------------------------------------------
1 | 0:00.00 | 4:22.65 | 0 | 19714
2 | 4:22.65 | 4:10.37 | 19715 | 38501
3 | 8:33.27 | 4:13.45 | 38502 | 57521
4 | 12:46.72 | 3:45.05 | 57522 | 74401
5 | 16:32.02 | 4:26.25 | 74402 | 94376
6 | 20:58.27 | 3:22.45 | 94377 | 109571
7 | 24:20.72 | 3:35.18 | 109572 | 125714
8 | 27:56.15 | 4:16.45 | 125715 | 144959
9 | 32:12.60 | 3:48.07 | 144960 | 162066
10 | 36:00.67 | 4:33.30 | 162067 | 182571

Характеристики диапазона извлечения и сообщения об ошибках

Выбранный диапазон

Имя файла Y:\Music\Night Ranger\1982 Dawn Patrol\Night Ranger - Dawn Patrol [32XD-336].wav

Пиковый уровень 100.0 %
Скорость извлечения 3.5 X
Качество диапазона 100.0 %
CRC теста F58E419A
CRC копии F58E419A
Копирование... OK

Ошибок не произошло

AccurateRip: сводка

Трек 1 : извлечено точно (доверие 3) [BBA8B245] (AR v1)
Трек 2 : извлечено точно (доверие 3) [5580E1CB] (AR v1)
Трек 3 : извлечено точно (доверие 3) [85F812FE] (AR v1)
Трек 4 : извлечено точно (доверие 3) [0FDFB40B] (AR v1)
Трек 5 : извлечено точно (доверие 3) [BB5977EA] (AR v1)
Трек 6 : извлечено точно (доверие 3) [316F7063] (AR v1)
Трек 7 : извлечено точно (доверие 3) [44B7AA58] (AR v1)
Трек 8 : извлечено точно (доверие 3) [D5EAB13C] (AR v1)
Трек 9 : извлечено точно (доверие 3) [A6E0179C] (AR v1)
Трек 10 : извлечено точно (доверие 3) [7AC0540D] (AR v1)

Все треки извлечены точно

Конец отчёта
  
REM GENRE "Hard Rock"REM DATE 1982REM DISCID 8C09820AREM COMMENT "ExactAudioCopy v1.0b3"PERFORMER "Night Ranger"TITLE "Dawn Patrol [32XD-336]"FILE "Night Ranger - Dawn Patrol [32XD-336].flac" WAVE TRACK 01 AUDIO TITLE "Don't Tell Me You Love Me" PERFORMER "Night Ranger" INDEX 01 00:00:00 TRACK 02 AUDIO TITLE "Sing Me Away" PERFORMER "Night Ranger" INDEX 00 04:21:27 INDEX 01 04:22:65 TRACK 03 AUDIO TITLE "At Night She Sleeps" PERFORMER "Night Ranger" INDEX 00 08:33:00 INDEX 01 08:33:27 TRACK 04 AUDIO TITLE "Call My Name" PERFORMER "Night Ranger" INDEX 00 12:43:52 INDEX 01 12:46:72 TRACK 05 AUDIO TITLE "Eddie's Comin' Out Tonight" PERFORMER "Night Ranger" INDEX 00 16:31:42 INDEX 01 16:32:02 TRACK 06 AUDIO TITLE "Can't Find Me A Thrill" PERFORMER "Night Ranger" INDEX 00 20:57:67 INDEX 01 20:58:27 TRACK 07 AUDIO TITLE "Young Girl In Love" PERFORMER "Night Ranger" INDEX 00 24:20:10 INDEX 01 24:20:72 TRACK 08 AUDIO TITLE "Play Rough" PERFORMER "Night Ranger" INDEX 00 27:54:65 INDEX 01 27:56:15 TRACK 09 AUDIO TITLE "Penny" PERFORMER "Night Ranger" INDEX 00 32:11:70 INDEX 01 32:12:60 TRACK 10 AUDIO TITLE "Night Ranger" PERFORMER "Night Ranger" INDEX 01 36:00:67
Состав:
Jack Blades - bass, lead vocals
Jeff Watson - lead and rhythm guitars
Brad Gillis - lead and rhythm guitars
Alan Fitzgerald - keyboards, synthesizers, piano, vocal
Kelly Keagy - drums, percussion, lead vocals
Night Ranger - Midnight Madness

Год выхода альбома: 1983
Год выпуска диска: 1984
Производитель диска: Япония
Продолжительность: 39:32

Треклист:
1. (You Can Still) Rock In America (04:16)
2. Rumours In The Air (04:34)
3. Why Does Love Have To Change (03:50)
4. Sister Christian (05:07)
5. Touch Of Madness (05:02)
6. Passion Play (04:45)
7. When You Close Your Eyes (04:20)
8. Chippin' Away (04:14)
9. Let Him Run (03:25)

Доп. информация:
Лейбл: MCA/CBS
Номер по каталогу: 35DP-119
Матрица: 35DP-119 31 (SONY)
Exact Audio Copy V0.99 prebeta 5 from 4. May 2009

Отчёт EAC об извлечении, выполненном 14. января 2011, 14:49

Night Ranger / Midnight Madness [35DP 119]

Дисковод: Optiarc DVD RW AD-7200A Adapter: 1 ID: 0

Режим чтения : Достоверность
Использование точного потока : Да
Отключение кэша аудио : Да
Использование указателей C2 : Нет

Коррекция смещения при чтении : 48
Способность читать области Lead-in и Lead-out : Нет
Заполнение пропущенных сэмплов тишиной : Да
Удаление блоков с тишиной в начале и конце : Нет
При вычислениях CRC использовались нулевые сэмплы : Да
Интерфейс : Встроенный Win32-интерфейс для Win NT/2000

Выходной формат : Пользовательский кодировщик
Выбранный битрейт : 128 kBit/s
Качество : Высокий
Добавление ID3-тэга : Нет
Утилита сжатия : C:\Program Files\Exact Audio Copy\Flac\flac.exe
Дополнительные параметры : -8 -V -T "artist=%a" -T "title=%t" -T "album=%g" -T "date=%y" -T "tracknumber=%n" -T "genre=%m" -T "comment=EAC

TOC извлечённого CD

Трек | Старт | Длительность | Начальный сектор | Конечный сектор
---------------------------------------------------------------------
1 | 0:00.00 | 4:15.72 | 0 | 19196
2 | 4:15.72 | 4:33.60 | 19197 | 39731
3 | 8:49.57 | 3:50.03 | 39732 | 56984
4 | 12:39.60 | 5:07.15 | 56985 | 80024
5 | 17:47.00 | 5:02.37 | 80025 | 102711
6 | 22:49.37 | 4:44.48 | 102712 | 124059
7 | 27:34.10 | 4:20.00 | 124060 | 143559
8 | 31:54.10 | 4:13.40 | 143560 | 162574
9 | 36:07.50 | 3:24.62 | 162575 | 177936

Характеристики диапазона извлечения и сообщения об ошибках

Выбранный диапазон

Имя файла Y:\Музыка\Night Ranger\1983 Midnight Madness\Night Ranger - Midnight Madness [35DP 119].wav

Пиковый уровень 100.0 %
Качество диапазона 100.0 %
CRC теста 2D7F2CB9
CRC копии 2D7F2CB9
Копирование... OK

Ошибок не произошло

AccurateRip: сводка

Трек 1 точность не определена (достоверность 1) [978687BE], AccurateRip вернул [2B24AAA9]
Трек 2 точность не определена (достоверность 1) [04FEB2BA], AccurateRip вернул [EDDF7AE1]
Трек 3 точность не определена (достоверность 1) [5BA3D3ED], AccurateRip вернул [DE39106E]
Трек 4 точность не определена (достоверность 1) [5569C65D], AccurateRip вернул [BF81D2C6]
Трек 5 точность не определена (достоверность 1) [F1F0A299], AccurateRip вернул [B9F5E0A6]
Трек 6 точность не определена (достоверность 1) [39B1A02A], AccurateRip вернул [AD4293AF]
Трек 7 точность не определена (достоверность 1) [D0364E0C], AccurateRip вернул [C3FFE7CB]
Трек 8 точность не определена (достоверность 1) [CD8CBAE7], AccurateRip вернул [9DA36344]
Трек 9 точность не определена (достоверность 1) [C60CD57A], AccurateRip вернул [1E261234]

Ни один трек не прошёл проверки на точность
В вашей базе может быть иной вариант штамповки диска

Конец отчёта
  
REM GENRE RockREM DATE 1983REM DISCID 78094409REM COMMENT "ExactAudioCopy v0.99pb5"PERFORMER "Night Ranger"TITLE "Midnight Madness [35DP 119]"FILE "Night Ranger - Midnight Madness [35DP 119].flac" WAVE TRACK 01 AUDIO TITLE "(You Can Still) Rock In America" PERFORMER "Night Ranger" INDEX 01 00:00:00 TRACK 02 AUDIO TITLE "Rumours In the Air" PERFORMER "Night Ranger" INDEX 01 04:15:72 TRACK 03 AUDIO TITLE "Why Does Love Have to Change" PERFORMER "Night Ranger" INDEX 01 08:49:57 TRACK 04 AUDIO TITLE "Sister Christian" PERFORMER "Night Ranger" INDEX 01 12:39:60 TRACK 05 AUDIO TITLE "Touch of Madness" PERFORMER "Night Ranger" INDEX 00 17:44:65 INDEX 01 17:47:00 TRACK 06 AUDIO TITLE "Passion Play" PERFORMER "Night Ranger" INDEX 01 22:49:37 TRACK 07 AUDIO TITLE "When You Close Your Eyes" PERFORMER "Night Ranger" INDEX 01 27:34:10 TRACK 08 AUDIO TITLE "Chippin' Away" PERFORMER "Night Ranger" INDEX 01 31:54:10 TRACK 09 AUDIO TITLE "Let Him Run" PERFORMER "Night Ranger" INDEX 01 36:07:50
Состав:
Jack Blades – lead vocals, bass
Jeff Watson – guitars, keyboards
Brad Gillis – guitars
Alan Fitzgerald – keyboards
Kelly Keagy – drums, lead vocals
Night Ranger - Midnight Madness

Год выхода альбома: 1983
Год выпуска диска: 1985
Производитель диска: Япония
Продолжительность: 39:20

Треклист:
1. (You Can Still) Rock In America (04:15)
2. Rumours In The Air (04:33)
3. Why Does Love Have To Change (03:49)
4. Sister Christian (05:03)
5. Touch Of Madness (05:01)
6. Passion Play (04:44)
7. When You Close Your Eyes (04:17)
8. Chippin' Away (04:13)
9. Let Him Run (03:23)

Доп. информация:
Лейбл: MCA/WARNER-PIONEER
Номер по каталогу: 32XD-145
Матрица: 32XD-145 11A1 +++++ (SONY)
Exact Audio Copy V1.0 beta 3 from 29. August 2011

Отчёт EAC об извлечении, выполненном 5. марта 2012, 9:48

Night Ranger / Midnight Madness [32XD-145]

Дисковод: Optiarc DVD RW AD-7200A Adapter: 0 ID: 0

Режим чтения : Достоверность
Использование точного потока : Да
Отключение кэша аудио : Да
Использование указателей C2 : Нет

Коррекция смещения при чтении : 48
Способность читать области Lead-in и Lead-out : Нет
Заполнение пропущенных сэмплов тишиной : Да
Удаление блоков с тишиной в начале и конце : Нет
При вычислениях CRC использовались нулевые сэмплы : Да
Интерфейс : Встроенный Win32-интерфейс для Win NT/2000

Выходной формат : Пользовательский кодировщик
Выбранный битрейт : 32 kBit/s
Качество : Высокий
Добавление ID3-тега : Нет
Утилита сжатия : C:\Program Files\Exact Audio Copy\Flac\flac.exe
Дополнительные параметры : -V -8 -T "Date=%year%" -T "Genre=%genre%" %source%

TOC извлечённого CD

Трек | Старт | Длительность | Начальный сектор | Конечный сектор
---------------------------------------------------------------------
1 | 0:00.00 | 4:15.25 | 0 | 19149
2 | 4:15.25 | 4:33.30 | 19150 | 39654
3 | 8:48.55 | 3:49.10 | 39655 | 56839
4 | 12:37.65 | 5:03.37 | 56840 | 79601
5 | 17:41.27 | 5:01.05 | 79602 | 102181
6 | 22:42.32 | 4:44.28 | 102182 | 123509
7 | 27:26.60 | 4:16.72 | 123510 | 142781
8 | 31:43.57 | 4:12.65 | 142782 | 161746
9 | 35:56.47 | 3:22.70 | 161747 | 176966

Характеристики диапазона извлечения и сообщения об ошибках

Выбранный диапазон

Имя файла Y:\Music\Night Ranger\1983 Midnight Madness\Night Ranger - Midnight Madness [32XD-145].wav

Пиковый уровень 69.9 %
Скорость извлечения 3.5 X
Качество диапазона 100.0 %
CRC теста F8AE2E92
CRC копии F8AE2E92
Копирование... OK

Ошибок не произошло

AccurateRip: сводка

Трек 1 : извлечено точно (доверие 1) [94F1E6C6] (AR v1)
Трек 2 : извлечено точно (доверие 1) [B8EE6983] (AR v1)
Трек 3 : извлечено точно (доверие 1) [00B043CF] (AR v1)
Трек 4 : извлечено точно (доверие 1) [C6E9B4FA] (AR v1)
Трек 5 : извлечено точно (доверие 1) [24066C9A] (AR v1)
Трек 6 : извлечено точно (доверие 1) [12BFCA6A] (AR v1)
Трек 7 : извлечено точно (доверие 1) [04E3CEB1] (AR v1)
Трек 8 : извлечено точно (доверие 1) [36C2BE8F] (AR v1)
Трек 9 : извлечено точно (доверие 1) [F19633DB] (AR v1)

Все треки извлечены точно

Конец отчёта

==== Контрольная сумма отчёта D1A8633316E9386612273DBDAF537FAD466FC7E8FF8AF34603CD596AFC716132 ====
  
REM GENRE "Hard Rock"REM DATE 1983REM DISCID 77093709REM COMMENT "ExactAudioCopy v1.0b3"PERFORMER "Night Ranger"TITLE "Midnight Madness [32XD-145]"FILE "Night Ranger - Midnight Madness [32XD-145].flac" WAVE TRACK 01 AUDIO TITLE "(You Can Still) Rock In America" PERFORMER "Night Ranger" INDEX 01 00:00:00 TRACK 02 AUDIO TITLE "Rumours In the Air" PERFORMER "Night Ranger" INDEX 01 04:15:25 TRACK 03 AUDIO TITLE "Why Does Love Have to Change" PERFORMER "Night Ranger" INDEX 01 08:48:55 TRACK 04 AUDIO TITLE "Sister Christian" PERFORMER "Night Ranger" INDEX 01 12:37:65 TRACK 05 AUDIO TITLE "Touch of Madness" PERFORMER "Night Ranger" INDEX 00 17:40:00 INDEX 01 17:41:27 TRACK 06 AUDIO TITLE "Passion Play" PERFORMER "Night Ranger" INDEX 01 22:42:32 TRACK 07 AUDIO TITLE "When You Close Your Eyes" PERFORMER "Night Ranger" INDEX 00 27:25:12 INDEX 01 27:26:60 TRACK 08 AUDIO TITLE "Chippin' Away" PERFORMER "Night Ranger" INDEX 00 31:41:50 INDEX 01 31:43:57 TRACK 09 AUDIO TITLE "Let Him Run" PERFORMER "Night Ranger" INDEX 00 35:55:05 INDEX 01 35:56:47
Состав:
Jack Blades – lead vocals, bass
Jeff Watson – guitars, keyboards
Brad Gillis – guitars
Alan Fitzgerald – keyboards
Kelly Keagy – drums, lead vocals
Night Ranger - Seven Wishes

Год выхода альбома: 1985
Год выпуска диска: 1985
Производитель диска: Япония
Продолжительность: 42:20

Треклист:
1. Seven Wishes (04:54)
2. Faces (04:12)
3. Four In The Morning (I Can't Take Anymore) (03:55)
4. I Need A Woman (04:41)
5. Sentimental Street (04:14)
6. This Boy Needs To Rock (04:00)
7. I Will Follow You (04:16)
8. Interstate Love Affair (03:16)
09. Night Machine (04:35)
10. Goodbye (04:18)

Доп. информация:
Лейбл: MCA/WARNER-PIONEER
Номер по каталогу: 32XD-307
Матрица: 32XD-307 11 +++++ (SONY)
Exact Audio Copy V0.99 prebeta 5 from 4. May 2009

Отчёт EAC об извлечении, выполненном 13. апреля 2010, 21:41

Night Ranger / 7 Wishes [32XD-307]

Дисковод: MATSHITADVD-RAM UJ-850S Adapter: 0 ID: 0

Режим чтения : Достоверность
Использование точного потока : Да
Отключение кэша аудио : Да
Использование указателей C2 : Нет

Коррекция смещения при чтении : 102
Способность читать области Lead-in и Lead-out : Нет
Заполнение пропущенных сэмплов тишиной : Да
Удаление блоков с тишиной в начале и конце : Нет
При вычислениях CRC использовались нулевые сэмплы : Да
Интерфейс : Установленный внешний ASPI-интерфейс

Выходной формат : Пользовательский кодировщик
Выбранный битрейт : 128 kBit/s
Качество : Высокий
Добавление ID3-тэга : Нет
Утилита сжатия : C:\Program Files\Exact Audio Copy\Flac\flac.exe
Дополнительные параметры : -6 -V -T "artist=%a" -T "title=%t" -T "album=%g" -T "date=%y" -T "tracknumber=%n" -T "genre=%m" -T "comment=EAC 0.99beta5 / FLAC 1.1.0 q6" %s

TOC извлечённого CD

Трек | Старт | Длительность | Начальный сектор | Конечный сектор
---------------------------------------------------------------------
1 | 0:00.00 | 4:54.15 | 0 | 22064
2 | 4:54.15 | 4:12.27 | 22065 | 40991
3 | 9:06.42 | 3:54.53 | 40992 | 58594
4 | 13:01.20 | 4:40.57 | 58595 | 79651
5 | 17:42.02 | 4:13.58 | 79652 | 98684
6 | 21:55.60 | 3:59.55 | 98685 | 116664
7 | 25:55.40 | 4:15.47 | 116665 | 135836
8 | 30:11.12 | 3:15.48 | 135837 | 150509
9 | 33:26.60 | 4:35.20 | 150510 | 171154
10 | 38:02.05 | 4:17.70 | 171155 | 190499

Характеристики диапазона извлечения и сообщения об ошибках

Выбранный диапазон

Имя файла Y:\Музыка\Night Ranger\1985 7 Wishes\Night Ranger - 7 Wishes [32XD-307].wav

Пиковый уровень 97.6 %
Качество диапазона 100.0 %
CRC копии D07E4F27
Копирование... OK

Ошибок не произошло

AccurateRip: сводка

Трек 1 точное извлечение (доверие 1) [240A88E6]
Трек 2 точное извлечение (доверие 1) [86A23D4A]
Трек 3 точное извлечение (доверие 1) [ED92A5C8]
Трек 4 точное извлечение (доверие 1) [5F4B7D3C]
Трек 5 точное извлечение (доверие 1) [236CD3BF]
Трек 6 точное извлечение (доверие 1) [20D1596D]
Трек 7 точное извлечение (доверие 1) [6955286D]
Трек 8 точное извлечение (доверие 1) [095CF10B]
Трек 9 точное извлечение (доверие 1) [C5EE40DB]
Трек 10 точное извлечение (доверие 1) [20FDF26A]

Все треки извлечены точно

Конец отчёта
  
REM GENRE "Hard Rock"REM DATE 1985REM DISCID 8609EC0AREM COMMENT "ExactAudioCopy v0.99pb5"PERFORMER "Night Ranger"TITLE "7 Wishes [32XD-307]"FILE "Night Ranger - 7 Wishes [32XD-307].flac" WAVE TRACK 01 AUDIO TITLE "Seven Wishes" PERFORMER "Night Ranger" INDEX 01 00:00:00 TRACK 02 AUDIO TITLE "Faces" PERFORMER "Night Ranger" INDEX 01 04:54:15 TRACK 03 AUDIO TITLE "Four in the Morning" PERFORMER "Night Ranger" INDEX 00 09:05:47 INDEX 01 09:06:42 TRACK 04 AUDIO TITLE "I Need a Woman" PERFORMER "Night Ranger" INDEX 00 12:59:52 INDEX 01 13:01:20 TRACK 05 AUDIO TITLE "Sentimental Street" PERFORMER "Night Ranger" INDEX 00 17:40:50 INDEX 01 17:42:02 TRACK 06 AUDIO TITLE "This Boy Needs to Rock" PERFORMER "Night Ranger" INDEX 00 21:53:67 INDEX 01 21:55:60 TRACK 07 AUDIO TITLE "I Will Follow You" PERFORMER "Night Ranger" INDEX 01 25:55:40 TRACK 08 AUDIO TITLE "Interstate Love Affair" PERFORMER "Night Ranger" INDEX 01 30:11:12 TRACK 09 AUDIO TITLE "Night Machine" PERFORMER "Night Ranger" INDEX 00 33:25:50 INDEX 01 33:26:60 TRACK 10 AUDIO TITLE "Goodbye" PERFORMER "Night Ranger" INDEX 00 38:00:62 INDEX 01 38:02:05
Состав:
Jack Blades – lead vocals, bass
Jeff Watson – lead & rhythmn guitars
Brad Gillis – lead & rhythmn guitars
Alan Fitzgerald – keyboards, piano, vocals
Kelly Keagy – drums, percussion, vocals
Kevin Charles & Vince Neil – shouting
Night Ranger - Big Life

Год выхода альбома: 1987
Год выпуска диска: 1987
Производитель диска: Япония
Продолжительность: 42:33

Треклист:
1. Big Life (05:19)
2. Color Of Your Smile (04:13)
3. Love Is Standing Near (04:27)
4. Rain Comes Crashing Down (05:56)
5. The Secret of My Success (04:28)
6. Carry On (04:23)
7. Better Let It Go (04:43)
8. I Know Tonight (04:04)
9. Hearts Away (05:01)

Доп. информация:
Лейбл: MCA/WARNER-PIONEER
Номер по каталогу: 32XD-634
Матрица: MCAD-5839-V4E 14 (JVC)
Exact Audio Copy V1.0 beta 3 from 29. August 2011

Отчёт EAC об извлечении, выполненном 18. июня 2012, 10:22

Night Ranger / Big Life [32XD-634]

Дисковод: Optiarc DVD RW AD-7200A Adapter: 0 ID: 0

Режим чтения : Достоверность
Использование точного потока : Да
Отключение кэша аудио : Да
Использование указателей C2 : Нет

Коррекция смещения при чтении : 48
Способность читать области Lead-in и Lead-out : Нет
Заполнение пропущенных сэмплов тишиной : Да
Удаление блоков с тишиной в начале и конце : Нет
При вычислениях CRC использовались нулевые сэмплы : Да
Интерфейс : Встроенный Win32-интерфейс для Win NT/2000

Выходной формат : Пользовательский кодировщик
Выбранный битрейт : 32 kBit/s
Качество : Высокий
Добавление ID3-тега : Нет
Утилита сжатия : C:\Program Files\Exact Audio Copy\Flac\flac.exe
Дополнительные параметры : -V -8 -T "Date=%year%" -T "Genre=%genre%" %source%

TOC извлечённого CD

Трек | Старт | Длительность | Начальный сектор | Конечный сектор
---------------------------------------------------------------------
1 | 0:00.37 | 5:18.38 | 37 | 23924
2 | 5:19.00 | 4:12.60 | 23925 | 42884
3 | 9:31.60 | 4:27.37 | 42885 | 62946
4 | 13:59.22 | 5:56.35 | 62947 | 89681
5 | 19:55.57 | 4:27.45 | 89682 | 109751
6 | 24:23.27 | 4:22.43 | 109752 | 129444
7 | 28:45.70 | 4:43.07 | 129445 | 150676
8 | 33:29.02 | 4:03.53 | 150677 | 168954
9 | 37:32.55 | 5:00.55 | 168955 | 191509

Характеристики диапазона извлечения и сообщения об ошибках

Выбранный диапазон

Имя файла Y:\Music\Night Ranger\1987 Big Life\Night Ranger - Big Life [32XD-634].wav

Пиковый уровень 100.0 %
Скорость извлечения 3.9 X
Качество диапазона 100.0 %
CRC копии 664B5D8A
Копирование... OK

Ошибок не произошло

AccurateRip: сводка

Трек 1 : извлечено точно (доверие 6) [22632E44] (AR v1)
Трек 2 : извлечено точно (доверие 6) [7C3E2ECC] (AR v1)
Трек 3 : извлечено точно (доверие 4) [F30C7A1E] (AR v1)
Трек 4 : извлечено точно (доверие 6) [8956B196] (AR v1)
Трек 5 : извлечено точно (доверие 4) [3D26B3AF] (AR v1)
Трек 6 : извлечено точно (доверие 6) [DB94A4DF] (AR v1)
Трек 7 : извлечено точно (доверие 6) [88A99322] (AR v1)
Трек 8 : извлечено точно (доверие 5) [1DDC28A4] (AR v1)
Трек 9 : извлечено точно (доверие 6) [E099C8D2] (AR v1)

Все треки извлечены точно

Конец отчёта
  
REM GENRE "Hard Rock"REM DATE 1987REM DISCID 6809F909REM COMMENT "ExactAudioCopy v1.0b3"PERFORMER "Night Ranger"TITLE "Big Life [32XD-634]"FILE "Night Ranger - Big Life [32XD-634].flac" WAVE TRACK 01 AUDIO TITLE "Big Life" PERFORMER "Night Ranger" INDEX 00 00:00:00 INDEX 01 00:00:37 TRACK 02 AUDIO TITLE "Color Of Your Smile" PERFORMER "Night Ranger" INDEX 00 05:18:74 INDEX 01 05:19:00 TRACK 03 AUDIO TITLE "Love Is Standing Near" PERFORMER "Night Ranger" INDEX 00 09:31:59 INDEX 01 09:31:60 TRACK 04 AUDIO TITLE "Rain Comes Crashing Down" PERFORMER "Night Ranger" INDEX 00 13:58:39 INDEX 01 13:59:22 TRACK 05 AUDIO TITLE "The Secret Of My Success" PERFORMER "Night Ranger" INDEX 01 19:55:57 TRACK 06 AUDIO TITLE "Carry On" PERFORMER "Night Ranger" INDEX 00 24:22:72 INDEX 01 24:23:27 TRACK 07 AUDIO TITLE "Better Let It Go" PERFORMER "Night Ranger" INDEX 00 28:45:52 INDEX 01 28:45:70 TRACK 08 AUDIO TITLE "I Know Tonight" PERFORMER "Night Ranger" INDEX 01 33:29:02 TRACK 09 AUDIO TITLE "Hearts Away" PERFORMER "Night Ranger" INDEX 00 37:32:54 INDEX 01 37:32:55
Состав:
Jack Blades - lead and backing vocals, bass guitar
Brad Gillis - lead and rhythm guitars, vocals
Jeff Watson - lead and rhythm guitars
Alan Fitzgerald - keyboards, piano
Kelly Keagy - drums, percussion, lead and backing vocals
David Foster - additional keyboards
Kevin Chalfant - additional backing vocals


Трекер:  [ 29-Июл-2012 13:41 ]

  

Скачать .torrent

Размер .torrent файла 16 KB


Размер: 1.27 GB
Хэш (hash) релиза: ca1acb3b5ae8f892e07a7d94f5155800b2b3379a

Торренты, похожие на Night Ranger скачать торрент

Форум Название Автор Размер S L Добавлен
Rосk | Mеtаl | Аltеrnаtivе, Рunk, Indереndеnt (mр3) ·· (Hard Rock) Night Ranger - 35 Years And A Night In Chicago - 2016, MP3, 320 kbps Galfimbul 236957991226 MB 0 0 1482220022

10:47

20-Дек-16

Rосk | Mеtаl | Аltеrnаtivе, Рunk, Indереndеnt (mр3) ·· (Hard Rock) Night Ranger - Don't Let Up (Japanese Edition) - 2017, MP3, 320 kbps Galfimbul 132687566127 MB 0 0 1490005814

13:30

20-Мар-17

Rосk | Mеtаl | Аltеrnаtivе, Рunk, Indереndеnt (mр3) ·· (Hard Rock) Night Ranger - Don't Let Up (Japanese Edition) - 2017, MP3, 320 kbps Galfimbul 132701737127 MB 0 0 1489972451

04:14

20-Мар-17

Rосk | Mеtаl | Аltеrnаtivе, Рunk, Indереndеnt (losslеss) ·· (Hard rock) Night Ranger - 24 Strings & A Drummer - Live & Acoustic - 2012, (image+.cue), lossless Galfimbul 522857398499 MB 0 0 1369406269

17:37

24-Май-13

Rосk | Mеtаl | Аltеrnаtivе, Рunk, Indереndеnt (losslеss) ·· (Melodic Hard Rock) Kelly Keagy (Night Ranger) - Дискография 2001-2007 (2 альбома, Японские издания), FLAC (image+.cue), lossless Galfimbul 11042160851.03 GB 0 0 1365929381

11:49

14-Апр-13

Зарубежный Rock ·· (Hard Rock) Night Ranger - 7 Wishes [Remastered] - 2006, FLAC (image+.cue), lossless Galfimbul 311881897297 MB 0 0 1356253680

12:08

23-Дек-12

Зарубежный Rock ·· (Hard Rock, Glam Metal) Night Ranger - Greatest Hits - 1989 (MCA Records MCAD-42307 USA), FLAC (image+.cue), lossless Galfimbul 380930230363 MB 0 0 1342733580

00:33

20-Июл-12

Rосk | Mеtаl | Аltеrnаtivе, Рunk, Indереndеnt (losslеss) ·· (Melodic Rock/AOR) Alliance (ex-Boston, Night Ranger) - Дискография 1996-2008 (4 альбома), FLAC (image+.cue), lossless Umakiro 17052536231.59 GB 0 0 1339479540

08:39

12-Июн-12

Еще никто не оставлял запись к записи скачать торрент Night Ranger . Будь первым!

!Обратная связь