Скачать через торрент музыку Kiss - Albums: 1989, 1992, 1997, APE бесплатно без регистрации torrent

Если у вас наблюдаются проблемы со скриншотами, переходом по ссылками, скачиванием торрентов - проблемы в блокировщике рекламы AdBlock. #хорошегоДня!


Статистика раздачи
Размер:  1.1 GB   |    Зарегистрирован:  5 лет   |    .torrent скачан:  15 раз   |   
Раздают:  1  
   
Загрузка...
 
Автор Сообщение

_N_

avatar _N_


Kiss / Albums: 1989, 1992, 1997

Жанр: Hard Rock / Glam Rock
Страны-производители дисков: Germany, France
Годы изданий: 1989, 1992, 1997
Издатели (лейблы): Vertigo, Phonogram, Mercury
Страна: U.S.A.
Аудиокодек: APE (*.ape)
Тип рипа: image+.cue
Битрейт аудио: lossless
Источник (релизер): Собственная коллекция
Наличие сканов в содержимом раздачи: да

Альбомы:
1. Hot In The Shade (Germany 1st Press 1989, Vertigo 838 913-2)
2. Revenge (Germany 1st press 1992, Mercury, Phonogram 848 037-2)
3. Carnival Of Souls: The Final Sessions (France 1997, Mercury 536 323-2)
Kiss — американская рок-группа, получившая огромную известность в 1970—1980 годах, играющая в жанрах глэм/шок/хард-рока и известная своим сценическим макияжем и концертами-шоу, сопровождаемыми различными пиротехническими эффектами. Была сформирована в Нью-Йорке в январе 1973 года.

Наиболее известные песни — «Strutter» (1974), «Black Diamond» (1974), «Rock and Roll All Night» (1975), «Detroit Rock City» (1976), «I Was Made For Lovin' You» (1979), «Lick it up» (1983), «Heaven’s On Fire» (1984), «God Gave Rock and Roll To You II» (1992), «Psycho circus» (1998). На 2010 год они имеют более сорока пяти золотых и платиновых альбомов и более 100 миллионов проданных записей.
Kiss / Hot In The Shade

Жанр: Hard Rock / Glam Rock
Страна-производитель диска: Germany
Год издания: 1989
Издатель (лейбл): Vertigo
Номер по каталогу: 838 913-2
Страна: U.S.A.
Аудиокодек: APE (*.ape)
Тип рипа: image+.cue
Битрейт аудио: lossless
Продолжительность: 00:58:50
Источник (релизер): Собственная коллекция
Наличие сканов в содержимом раздачи: да
Треклист:
1. Rise To It (4:04)
2. Betrayed (3:40)
3. Hide Your Heart (4:26)
4. Prisoner Of Love (3:45)
5. Read My Body (3:49)
6. Love's A Slap In The Face (4:05)
7. Forever (3:53)
8. Silver Spoon (4:42)
9. Cadillac Dreams (3:47)
10. King Of Hearts (4:27)
11. The Street Giveth And The Street Taketh Away (3:32)
12. You Love Me To Hate You (4:04)
13. Somewhere Between Heaven And Hell (3:48)
14. Little Caesar (3:11)
15. Boomerang (3:31)
  
Exact Audio Copy V1.0 beta 1 from 15. November 2010

EAC extraction logfile from 24. July 2012, 21:49

KISS / Hot In The Shade

Used drive : Optiarc DVD RW AD-7173S Adapter: 3 ID: 0

Read mode : SecureUtilize accurate stream : YesDefeat audio cache : YesMake use of C2 pointers : No

Read offset correction : 48Overread into Lead-In and Lead-Out : NoFill up missing offset samples with silence : YesDelete leading and trailing silent blocks : NoNull samples used in CRC calculations : YesUsed interface : Installed external ASPI interface

Used output format : Internal WAV RoutinesSample format : 44.100 Hz; 16 Bit; Stereo

TOC of the extracted CD

Track | Start | Length | Start sector | End sector --------------------------------------------------------- 1 | 0:00.32 | 4:04.18 | 32 | 18349 2 | 4:04.50 | 3:40.00 | 18350 | 34849 3 | 7:44.50 | 4:26.05 | 34850 | 54804 4 | 12:10.55 | 3:45.20 | 54805 | 71699 5 | 15:56.00 | 3:49.07 | 71700 | 88881 6 | 19:45.07 | 4:05.28 | 88882 | 107284 7 | 23:50.35 | 3:53.32 | 107285 | 124791 8 | 27:43.67 | 4:42.63 | 124792 | 146004 9 | 32:26.55 | 3:47.67 | 146005 | 163096 10 | 36:14.47 | 4:27.15 | 163097 | 183136 11 | 40:41.62 | 3:32.18 | 183137 | 199054 12 | 44:14.05 | 4:04.05 | 199055 | 217359 13 | 48:18.10 | 3:48.62 | 217360 | 234521 14 | 52:06.72 | 3:11.65 | 234522 | 248911 15 | 55:18.62 | 3:31.63 | 248912 | 264799

Range status and errors

Selected range

Filename N:\Kiss - Hot In The Shade.wav

Peak level 100.0 % Extraction speed 0.3 X Range quality 100.0 % Test CRC AAA16866 Copy CRC AAA16866 Copy OK

No errors occurred

AccurateRip summary

Track 1 accurately ripped (confidence 2) [D6495737]Track 2 accurately ripped (confidence 2) [69E2F5E5]Track 3 accurately ripped (confidence 2) [2F750A43]Track 4 accurately ripped (confidence 2) [EABB3A1E]Track 5 accurately ripped (confidence 2) [9125B362]Track 6 accurately ripped (confidence 2) [85A0FB01]Track 7 accurately ripped (confidence 2) [6426C2B5]Track 8 accurately ripped (confidence 2) [F6184FF2]Track 9 accurately ripped (confidence 2) [B75CD161]Track 10 accurately ripped (confidence 2) [7EEAF2C5]Track 11 accurately ripped (confidence 2) [41E39E4E]Track 12 accurately ripped (confidence 2) [53DEE199]Track 13 accurately ripped (confidence 2) [16789E84]Track 14 accurately ripped (confidence 2) [3C8C5D58]Track 15 accurately ripped (confidence 2) [B8CD5DD4]

All tracks accurately ripped

End of status report
Hot in the Shade был определен ААЗК как золотой. Это первый студийный альбом Kiss с 1981 (Music from «The Elder») где пели сразу трое участников. Это так же последний альбом группы с участием Эрика Карра перед его смертью в 1991.

Включая 15 песен это самый большой альбом группы по количеству материала, и по длине — почти целый час.

Hot In The Shade стал золотым 20 Декабря 1989.

Hot In The Shade стал первым альбомом KISS, официально реализуемым в СССР. В частности, в магазине «Мелодия» на Ленинском проспекте (Москва), отстояв несколько часов в очереди, можно было приобрести виниловую пластинку Hot In The Shade производства компании Vertigo (ФРГ) по цене 9 рублей.
Paul Stanley - rhythm guitar, slide guitar on "Rise to It", brass on "Cadillac Dreams", lead vocals
Gene Simmons - bass guitar, lead vocals
Bruce Kulick - lead guitar, all guitars on "Little Caesar", bass guitar on "Forever", backing vocals
Eric Carr - drums, percussion, lead vocals and bass guitar on "Little Caesar", backing vocals

Additional Personnel:

Tommy Thayer - acoustic and electric guitar on "Betrayed" and "The Street Giveth and the Street Taketh Away"
Phil Ashley - keyboards on "Hide Your Heart" and "Forever"
Pat Regan - brass on "Cadillac Dreams"
Charlotte Crossley, Valerie Pinkston, Kim Edwards-Brown - backing vocals on "Silver Spoon"
Kevin Valentine - drums on "You Love Me to Hate You"
Kiss / Revenge

Жанр: Hard Rock / Glam Rock
Страна-производитель диска: Germany
Год издания: 1992
Издатель (лейбл): Mercury, Phonogram
Номер по каталогу: 848 037-2
Страна: U.S.A.
Аудиокодек: APE (*.ape)
Тип рипа: image+.cue
Битрейт аудио: lossless
Продолжительность: 00:49:04
Источник (релизер): Собственная коллекция
Наличие сканов в содержимом раздачи: да
Треклист:
1. Unholy (3:40)
2. Take It Off (4:50)
3. Tough Love (3:44)
4. Spit (3:32)
5. God Gave Rock 'N' Roll To You II (5:18)
6. Domino (4:01)
7. Heart Of Chrome (4:02)
8. Thou Shalt Not (3:59)
9. Every Time I Look At You (4:38)
10. Paralyzed (4:14)
11. I Just Wanna (4:07)
12. Carr Jam 1981 (2:46)
  
Exact Audio Copy V1.0 beta 1 from 15. November 2010

EAC extraction logfile from 24. July 2012, 22:39

Kiss / Revenge

Used drive : Optiarc DVD RW AD-7173S Adapter: 3 ID: 0

Read mode : SecureUtilize accurate stream : YesDefeat audio cache : YesMake use of C2 pointers : No

Read offset correction : 48Overread into Lead-In and Lead-Out : NoFill up missing offset samples with silence : YesDelete leading and trailing silent blocks : NoNull samples used in CRC calculations : YesUsed interface : Installed external ASPI interface

Used output format : Internal WAV RoutinesSample format : 44.100 Hz; 16 Bit; Stereo

TOC of the extracted CD

Track | Start | Length | Start sector | End sector --------------------------------------------------------- 1 | 0:00.33 | 3:42.15 | 33 | 16697 2 | 3:42.48 | 4:51.05 | 16698 | 38527 3 | 8:33.53 | 3:44.17 | 38528 | 55344 4 | 12:17.70 | 3:33.28 | 55345 | 71347 5 | 15:51.23 | 5:20.17 | 71348 | 95364 6 | 21:11.40 | 4:01.20 | 95365 | 113459 7 | 25:12.60 | 4:03.23 | 113460 | 131707 8 | 29:16.08 | 3:59.62 | 131708 | 149694 9 | 33:15.70 | 4:40.15 | 149695 | 170709 10 | 37:56.10 | 4:15.10 | 170710 | 189844 11 | 42:11.20 | 4:08.13 | 189845 | 208457 12 | 46:19.33 | 2:44.62 | 208458 | 220819

Range status and errors

Selected range

Filename N:\Kiss - Revenge.wav

Peak level 100.0 % Extraction speed 0.0 X Range quality 99.9 % Test CRC 99CA26B2 Copy CRC 99CA26B2 Copy OK

No errors occurred

AccurateRip summary

Track 1 accurately ripped (confidence 9) [214AD9CF]Track 2 accurately ripped (confidence 9) [6D321713]Track 3 accurately ripped (confidence 10) [D35649D7]Track 4 accurately ripped (confidence 8) [69DAC516]Track 5 accurately ripped (confidence 8) [AE282620]Track 6 accurately ripped (confidence 10) [C9EEA799]Track 7 accurately ripped (confidence 9) [D08F61C3]Track 8 accurately ripped (confidence 9) [CF6F05CA]Track 9 accurately ripped (confidence 9) [FB3AE2FF]Track 10 accurately ripped (confidence 9) [D9F99A97]Track 11 accurately ripped (confidence 10) [B2F918FA]Track 12 accurately ripped (confidence 8) [B8EA875E]

All tracks accurately ripped

End of status report
Доп. информация: Barcode: 042284803724
Label Code: LC0268
Rights Society: BIEM / STEMRA
Revenge — студийный альбом американской глэм-рок группы Kiss, выпущенный в 1992 году.

Revenge первый альбом Kiss после смерти их ударника Эрика Карра в ноябре 1991 года. Заменивший его Эрик Сингер играл с Lita Ford, Black Sabbath, Badlands, Brian May, Alice Cooper и сольном туре Пола Стэнли 1989 перед вступлением в KISS.

Альбом посвящен Карру, и последняя песня («Carr Jam 1981») была демо-записью, которую он сделал вскоре после присоединения к группе. Одна модификация все же имела место: Брюс Кулик записал гитарное соло вместо Эйса Фрэйли, который был в оригинальной версии. Основной рифф был использован как базовый рифф в песне «Breakout» в 1987 году из альбома Эйса Фрэйли Frehley’s Comet.
Paul Stanley - rhythm guitar, vocals
Gene Simmons - bass guitar, vocals
Bruce Kulick - lead guitar, backing vocals, bass guitar on "Every Time I Look at You"
Eric Singer - drums, backing vocals
Eric Carr - backing vocals on "God Gave Rock 'N' Roll to You II", drums on "Carr Jam 1981"

Additional personnel:

Dick Wagner - guitar solo on "Every Time I Look at You"
Kevin Valentine - drums on "Take It Off"
Jesse Damon - backing vocals
Tommy Thayer - backing vocals
Kiss / Carnival Of Souls: The Final Sessions

Жанр: Hard Rock / Glam Rock
Страна-производитель диска: France
Год издания: 1997
Издатель (лейбл): Mercury
Номер по каталогу: 536 323-2
Страна: U.S.A.
Аудиокодек: APE (*.ape)
Тип рипа: image+.cue
Битрейт аудио: lossless
Продолжительность: 01:00:00
Источник (релизер): Собственная коллекция
Наличие сканов в содержимом раздачи: да
Треклист:
1. Hate (4:37)
2. Rain (4:46)
3. Master & Slave (4:57)
4. Childhood's End (4:21)
5. I Will Be There (3:49)
6. Jungle (6:49)
7. In My Head (4:00)
8. It Never Goes Away (5:52)
9. Seduction Of The Innocent (5:16)
10. I Confess (5:23)
11. In The Mirror (4:26)
12. I Walk Alone (6:08)
  
Exact Audio Copy V1.0 beta 1 from 15. November 2010

EAC extraction logfile from 24. July 2012, 23:08

Kiss / Carnival Of Souls: The Final Sessions

Used drive : Optiarc DVD RW AD-7173S Adapter: 3 ID: 0

Read mode : SecureUtilize accurate stream : YesDefeat audio cache : YesMake use of C2 pointers : No

Read offset correction : 48Overread into Lead-In and Lead-Out : NoFill up missing offset samples with silence : YesDelete leading and trailing silent blocks : NoNull samples used in CRC calculations : YesUsed interface : Installed external ASPI interface

Used output format : Internal WAV RoutinesSample format : 44.100 Hz; 16 Bit; Stereo

TOC of the extracted CD

Track | Start | Length | Start sector | End sector --------------------------------------------------------- 1 | 0:00.00 | 4:37.40 | 0 | 20814 2 | 4:37.40 | 4:46.57 | 20815 | 42321 3 | 9:24.22 | 4:57.68 | 42322 | 64664 4 | 14:22.15 | 4:20.72 | 64665 | 84236 5 | 18:43.12 | 3:49.23 | 84237 | 101434 6 | 22:32.35 | 6:49.55 | 101435 | 132164 7 | 29:22.15 | 4:00.40 | 132165 | 150204 8 | 33:22.55 | 5:42.00 | 150205 | 175854 9 | 39:04.55 | 5:16.20 | 175855 | 199574 10 | 44:21.00 | 5:23.27 | 199575 | 223826 11 | 49:44.27 | 4:26.08 | 223827 | 243784 12 | 54:10.35 | 6:08.30 | 243785 | 271414

Range status and errors

Selected range

Filename N:\Kiss - Carnival Of Souls - The Final Sessions.wav

Peak level 99.2 % Extraction speed 0.5 X Range quality 99.9 % Test CRC AB47C833 Copy CRC AB47C833 Copy OK

No errors occurred

AccurateRip summary

Track 1 accurately ripped (confidence 30) [BC78E64F]Track 2 accurately ripped (confidence 30) [0D6EA5C7]Track 3 accurately ripped (confidence 30) [2430BD87]Track 4 accurately ripped (confidence 30) [889F0DE6]Track 5 accurately ripped (confidence 30) [20267FAB]Track 6 accurately ripped (confidence 30) [D7BCF3F4]Track 7 accurately ripped (confidence 30) [AE71AB28]Track 8 accurately ripped (confidence 30) [68F6325C]Track 9 accurately ripped (confidence 29) [5F15CAB9]Track 10 accurately ripped (confidence 30) [095174AB]Track 11 accurately ripped (confidence 29) [2D55F8B0]Track 12 accurately ripped (confidence 27) [3BCF1B8F]

All tracks accurately ripped

End of status report
Доп. информация: Barcode: 731453632325
Carnival of Souls: The Final Sessions — семнадцатый студийный альбом американской глэм-рок группы Kiss, последний перед воссоединением в оригинальном составе, вышедший в 1997 году.

Диск записан и планировался к выпуску в 1995-ом году, в начале 1996-го Kiss перенесли выход, так как были в воссоединительном туре. Тем не менее, фанаты создавали и распространяли бутлеги в большом количестве, и Kiss пришлось выпустить альбом в 1997 году.

«I Walk Alone» была единственной песней Kiss, которую спел Брюс Кулик.

Два бывших участника Black 'N Blue были соавторами песен на альбоме: вокалист Jaime St. James (который позже перешёл в Warrant) был соавтором песни «In My Head», а гитарист и будущий участник Kiss Томми Таер был соавтором песни «Childhood’s End».

Это один из двух альбомов Kiss, которые до сих пор не стали золотыми (другой — Music from «The Elder» 1981-го года).
Paul Stanley - rhythm guitar, vocals
Gene Simmons - bass guitar, vocals
Bruce Kulick - lead guitar, bass guitar on "Rain", "I Will Be There", "Jungle", "It Never Goes Away", "In the Mirror", and "I Walk Alone", lead vocals on "I Walk Alone"
Eric Singer - drums, percussion, backing vocals


Трекер:  [ 29-Июл-2012 13:41 ]

  

Скачать .torrent

Размер .torrent файла 14 KB


Размер: 1.1 GB
Хэш (hash) релиза: bdeb7fa6f5037d9de812cd8d79d652de3cd3238f

Еще никто не оставлял запись к записи скачать торрент Kiss - Albums: 1989, 1992, 1997, APE . Будь первым!

!Обратная связь