Скачать через торрент музыку Harlequin - One False Move - 1982 бесплатно без регистрации torrent

Если у вас наблюдаются проблемы со скриншотами, переходом по ссылками, скачиванием торрентов - проблемы в блокировщике рекламы AdBlock. #хорошегоДня!


Статистика раздачи
Размер:  351 MB   |    Зарегистрирован:  5 лет 3 месяца   |    .torrent скачан:  14 раз   |   
Раздают:  1  
   
Загрузка...
 
Автор Сообщение

Galfimbul

avatar Galfimbul


Harlequin / One False Move

Жанр: Classic Rock
Страна-производитель диска: England
Год издания: 2012
Издатель (лейбл): Rock Candy
Номер по каталогу: candy123
Страна: Canada
Аудиокодек: FLAC (*.flac)
Тип рипа: image+.cue
Битрейт аудио: lossless
Продолжительность: 36:41
Источник (релизер): собственный рип с фирменного CD
Наличие сканов в содержимом раздачи: да

Треклист:

1. I Did It For Love - 3:28
2. Hard Road - 3:33
3. Shame If You Leave Me - 3:20
4. Say Goodnight - 3:17
5. Ready To Love Again - 4:22
6. Line - 3:26
7. Heart Gone Cold - 3:38
8. Heavy Talk - 3:25
9. Superstitious Feeling - 3:42
10. It's A Woman You Need - 3:54

Наконец-то лучший альбом этой замечательной канадской группы впервые выпущен на CD! Без сомнения, он приглянется любителям Charlie, Streetheart и Blue Oyster Cult. Теперь от Rock Candy ждем Victim Of A Song (1979) и Harlequin (1985).
  
Exact Audio Copy V1.0 beta 3 from 29. August 2011

EAC extraction logfile from 26. July 2012, 23:46

Harlequin / One False Move

Used drive : SlimtypeDVD A DS8A5SH Adapter: 0 ID: 1

Read mode : SecureUtilize accurate stream : YesDefeat audio cache : YesMake use of C2 pointers : No

Read offset correction : 6Overread into Lead-In and Lead-Out : NoFill up missing offset samples with silence : YesDelete leading and trailing silent blocks : NoNull samples used in CRC calculations : YesUsed interface : Native Win32 interface for Win NT & 2000

Used output format : User Defined EncoderSelected bitrate : 320 kBit/sQuality : HighAdd ID3 tag : NoCommand line compressor : C:\Program Files (x86)\Exact Audio Copy\Flac\flac.exeAdditional command line options : -V -8 -T "Date=%year%" -T "Genre=%genre%" %source%

TOC of the extracted CD

Track | Start | Length | Start sector | End sector --------------------------------------------------------- 1 | 0:00.00 | 3:30.46 | 0 | 15795 2 | 3:30.46 | 3:38.16 | 15796 | 32161 3 | 7:08.62 | 3:20.42 | 32162 | 47203 4 | 10:29.29 | 3:15.51 | 47204 | 61879 5 | 13:45.05 | 4:28.50 | 61880 | 82029 6 | 18:13.55 | 3:31.18 | 82030 | 97872 7 | 21:44.73 | 3:44.15 | 97873 | 114687 8 | 25:29.13 | 3:29.54 | 114688 | 130416 9 | 28:58.67 | 3:47.44 | 130417 | 147485 10 | 32:46.36 | 3:55.36 | 147486 | 165146

Range status and errors

Selected range

Filename D:\My Music\Harlequin - 1982 One False Move\Harlequin - One False Move.wav

Peak level 99.7 % Extraction speed 1.7 X Range quality 100.0 % Test CRC 929F1312 Copy CRC 929F1312 Copy OK

No errors occurred

End of status report

==== Log checksum E62E53C6C31017E03D4D4B147F8FDCC7F28B90F96BADFFD1A0A3740D6A0F25F9 ====
George Belanger - lead vocals
Glen Willows - guitars & vocals
Gary Golden - keyboards & vocals
Ralph James - bass
David Budzak - drums, percussions & vocals

1979 - Victim Of A Song (на CD не издавался)
1980 - Love Crimes
1982 - One False Move
1985 - Harlequin (на CD не издавался)
1986 - Greatest Hits
2004 - Harlequin II
2007 - Waking the Jester
2009 - On/Q (live)


Трекер:  [ 28-Июл-2012 20:29 ]

  

Скачать .torrent

Размер .torrent файла 15 KB


Размер: 351 MB
Хэш (hash) релиза: 8a8bf34405cbc70ccc8d19c0ec16d8addbfbec97

Еще никто не оставлял запись к записи скачать торрент Harlequin - One False Move - 1982 . Будь первым!

!Обратная связь