Скачать через торрент музыку Mountain - Nantucket Sleighride - 2004, APE бесплатно без регистрации torrent

Если у вас наблюдаются проблемы со скриншотами, переходом по ссылками, скачиванием торрентов - проблемы в блокировщике рекламы AdBlock. #хорошегоДня!


Статистика раздачи
Размер:  380 MB   |    Зарегистрирован:  5 лет   |    .torrent скачан:  7 раз   |   
Раздают:  1  
   
Загрузка...
 
Автор Сообщение

Galfimbul

avatar Galfimbul


Mountain / Nantucket Sleighride

Жанр: Rock
Страна-производитель диска: Germany
Год издания: 2004
Издатель (лейбл): Repertoire Records
Номер по каталогу: RES 2322
Страна: England
Аудиокодек: APE (*.ape)
Тип рипа: image+.cue
Битрейт аудио: lossless
Продолжительность: 50:01
Источник (релизер): Собственный рип
Наличие сканов в содержимом раздачи: да
Треклист:
01 Don't Look Around
02 Taunta (Sammy's Tune)
03 Nantucket Sleighride (To Owen Coffin)
04 You Can't Get Away
05 Tired Angels (To J.M.H.)
06 The Animal Trainer And The Toad
07 My Lady
08 Travellin' In The Dark (To E.M.P.)
09 The Great Train Robbery
10 Roll Over Beethoven
11 Crossroader
12 Travellin' In The Dark (To E.M.P) (Live-Version)
  
Exact Audio Copy V0.99 prebeta 5 from 4. May 2009

Отчёт EAC об извлечении, выполненном 28. июля 2012, 6:59

Mountain / Nantucket Sleighride

Дисковод: Optiarc DVD RW AD-7280S Adapter: 2 ID: 0

Режим чтения : ДостоверностьИспользование точного потока : ДаОтключение кэша аудио : ДаИспользование указателей C2 : Нет

Коррекция смещения при чтении : 48Способность читать области Lead-in и Lead-out : НетЗаполнение пропущенных сэмплов тишиной : ДаУдаление блоков с тишиной в начале и конце : НетПри вычислениях CRC использовались нулевые сэмплы : ДаИнтерфейс : Установленный внешний ASPI-интерфейс

Выходной формат : Внутренние WAV-операцииФормат сэмплов : 44.100 Гц; 16 бит; стерео

TOC извлечённого CD

Трек | Старт | Длительность | Начальный сектор | Конечный сектор --------------------------------------------------------------------- 1 | 0:00.00 | 3:45.47 | 0 | 16921 2 | 3:45.47 | 1:00.14 | 16922 | 21435 3 | 4:45.61 | 5:52.63 | 21436 | 47898 4 | 10:38.49 | 3:26.02 | 47899 | 63350 5 | 14:04.51 | 4:39.34 | 63351 | 84309 6 | 18:44.10 | 3:27.59 | 84310 | 99893 7 | 22:11.69 | 4:33.38 | 99894 | 120406 8 | 26:45.32 | 4:25.08 | 120407 | 140289 9 | 31:10.40 | 5:46.22 | 140290 | 166261 10 | 36:56.62 | 2:58.61 | 166262 | 179672 11 | 39:55.48 | 4:50.23 | 179673 | 201445 12 | 44:45.71 | 5:15.04 | 201446 | 225074

Характеристики диапазона извлечения и сообщения об ошибках

Выбранный диапазон

Имя файла H:\Раздачи\Mountain - Nantucket Sleighride 2004\Mountain - Nantucket Sleighride.wav

Пиковый уровень 100.0 % Качество диапазона 100.0 % CRC теста DF603419 CRC копии DF603419 Копирование... OK

Ошибок не произошло

AccurateRip: сводка

Трек 1 точное извлечение (доверие 7) [FFE6F3C1]Трек 2 точное извлечение (доверие 7) [568E1492]Трек 3 точное извлечение (доверие 7) [0211A13D]Трек 4 точное извлечение (доверие 7) [0BA7CECC]Трек 5 точное извлечение (доверие 7) [1B33AB06]Трек 6 точное извлечение (доверие 7) [D6F8BA34]Трек 7 точное извлечение (доверие 7) [667680A3]Трек 8 точное извлечение (доверие 7) [D9F7CE63]Трек 9 точное извлечение (доверие 7) [BB44C1FC]Трек 10 точное извлечение (доверие 7) [BBCC0D49]Трек 11 точное извлечение (доверие 7) [0B0F1563]Трек 12 точное извлечение (доверие 7) [593CB692]

Все треки извлечены точно

Конец отчёта
  
REM GENRE "Heavy Metal"REM DATE 2004REM DISCID A70BB90CREM COMMENT "ExactAudioCopy v0.99pb5"PERFORMER "Mountain"TITLE "Nantucket Sleighride"FILE "Mountain - Nantucket Sleighride.wav" WAVE TRACK 01 AUDIO TITLE "Don't Look Around" PERFORMER "Mountain" FLAGS DCP INDEX 01 00:00:00 TRACK 02 AUDIO TITLE "Taunta (Sammy's Tune)" PERFORMER "Mountain" FLAGS DCP INDEX 00 03:43:47 INDEX 01 03:45:47 TRACK 03 AUDIO TITLE "Nantucket Sleighride (To Owen Coffin)" PERFORMER "Mountain" FLAGS DCP INDEX 01 04:45:61 TRACK 04 AUDIO TITLE "You Can't Get Away" PERFORMER "Mountain" FLAGS DCP INDEX 00 10:36:49 INDEX 01 10:38:49 TRACK 05 AUDIO TITLE "Tired Angels (To J.M.H.)" PERFORMER "Mountain" FLAGS DCP INDEX 00 14:02:51 INDEX 01 14:04:51 TRACK 06 AUDIO TITLE "The Animal Trainer And The Toad" PERFORMER "Mountain" FLAGS DCP INDEX 00 18:42:10 INDEX 01 18:44:10 TRACK 07 AUDIO TITLE "My Lady" PERFORMER "Mountain" FLAGS DCP INDEX 00 22:09:69 INDEX 01 22:11:69 TRACK 08 AUDIO TITLE "Travellin' In The Dark (To E.M.P.)" PERFORMER "Mountain" FLAGS DCP INDEX 00 26:43:32 INDEX 01 26:45:32 TRACK 09 AUDIO TITLE "The Great Train Robbery" PERFORMER "Mountain" FLAGS DCP INDEX 00 31:08:40 INDEX 01 31:10:40 TRACK 10 AUDIO TITLE "Roll Over Beethoven" PERFORMER "Mountain" FLAGS DCP INDEX 00 36:54:62 INDEX 01 36:56:62 TRACK 11 AUDIO TITLE "Crossroader" PERFORMER "Mountain" FLAGS DCP INDEX 00 39:53:48 INDEX 01 39:55:48 TRACK 12 AUDIO TITLE "Travellin' In The Dark (To E.M.P) (Live-Version)" PERFORMER "Mountain" FLAGS DCP INDEX 00 44:43:71 INDEX 01 44:45:71
  


Трекер:  [ 28-Июл-2012 20:29 ]

  

Скачать .torrent

Размер .torrent файла 16 KB


Размер: 380 MB
Хэш (hash) релиза: dfc3b84f41a447d070afc0d70a7f926b66dad348

Еще никто не оставлял запись к записи скачать торрент Mountain - Nantucket Sleighride - 2004, APE . Будь первым!

!Обратная связь