Скачать через торрент музыку Panic Room - Skin - 2012, FLAC бесплатно без регистрации torrent

Если у вас наблюдаются проблемы со скриншотами, переходом по ссылками, скачиванием торрентов - проблемы в блокировщике рекламы AdBlock. #хорошегоДня!


Статистика раздачи
Размер:  434 MB   |    Зарегистрирован:  5 лет   |    .torrent скачан:  26 раз   |   
Раздают:  1  
   
Загрузка...
 
Автор Сообщение

Galfimbul

avatar Galfimbul


Panic Room - Skin (2012)

Жанр: Crossover Prog
Страна-производитель диска: United Kingdom
Год издания: 2012
Издатель (лейбл): Esoteric Antenna
Номер по каталогу: EANTCD 1006
Страна: United Kingdom
Аудиокодек: FLAC (*.flac)
Тип рипа: tracks+.cue
Битрейт аудио: lossless
Продолжительность: 64:10
Источник (релизер): andipandi (спасибо большое)
Наличие сканов в содержимом раздачи: да



Треклист:
1. Song For Tomorrow
2. Chameleon
3. Screens
4. Chances
5. Tightrope Walking
6. Promises
7. Velvet & Stars
8. Freefalling
9. Skin
10.Hiding The World
11.Nocturnal
  
Exact Audio Copy V1.0 beta 3 from 29. August 2011

EAC extraction logfile from 5. July 2012, 14:05

Panic Room / Skin

Used drive : HL-DT-STDVD-RAM GSA-H20N Adapter: 3 ID: 0

Read mode : SecureUtilize accurate stream : YesDefeat audio cache : YesMake use of C2 pointers : No

Read offset correction : 102Overread into Lead-In and Lead-Out : NoFill up missing offset samples with silence : YesDelete leading and trailing silent blocks : NoNull samples used in CRC calculations : YesUsed interface : Installed external ASPI interfaceGap handling : Appended to previous track

Used output format : Internal WAV RoutinesSample format : 44.100 Hz; 16 Bit; Stereo

TOC of the extracted CD

Track | Start | Length | Start sector | End sector --------------------------------------------------------- 1 | 0:00.00 | 6:16.28 | 0 | 28227 2 | 6:16.28 | 6:52.13 | 28228 | 59140 3 | 13:08.41 | 4:42.74 | 59141 | 80364 4 | 17:51.40 | 5:54.04 | 80365 | 106918 5 | 23:45.44 | 7:08.48 | 106919 | 139066 6 | 30:54.17 | 5:24.25 | 139067 | 163391 7 | 36:18.42 | 3:15.20 | 163392 | 178036 8 | 39:33.62 | 6:11.70 | 178037 | 205931 9 | 45:45.57 | 5:18.55 | 205932 | 229836 10 | 51:04.37 | 5:18.44 | 229837 | 253730 11 | 56:23.06 | 7:47.09 | 253731 | 288764

Track 1

Filename C:\rips\Panic Room\Skin\01 - Song For Tomorrow.wav

Pre-gap length 0:00:02.00

Peak level 99.6 % Extraction speed 1.8 X Track quality 100.0 % Test CRC 9FE77044 Copy CRC 9FE77044 Accurately ripped (confidence 1) [F0A19324] (AR v1) Copy OK

Track 2

Filename C:\rips\Panic Room\Skin\02 - Chameleon.wav

Pre-gap length 0:00:00.69

Peak level 99.6 % Extraction speed 2.1 X Track quality 100.0 % Test CRC AE568F13 Copy CRC AE568F13 Accurately ripped (confidence 1) [DE656881] (AR v1) Copy OK

Track 3

Filename C:\rips\Panic Room\Skin\03 - Screens.wav

Pre-gap length 0:00:01.63

Peak level 99.6 % Extraction speed 2.2 X Track quality 100.0 % Test CRC DEC21960 Copy CRC DEC21960 Accurately ripped (confidence 1) [9A7E7CEF] (AR v1) Copy OK

Track 4

Filename C:\rips\Panic Room\Skin\04 - Chances.wav

Pre-gap length 0:00:00.46

Peak level 99.6 % Extraction speed 2.4 X Track quality 100.0 % Test CRC CC81B88D Copy CRC CC81B88D Accurately ripped (confidence 1) [5C592C14] (AR v1) Copy OK

Track 5

Filename C:\rips\Panic Room\Skin\05 - Tightrope Walking.wav

Peak level 99.6 % Extraction speed 2.7 X Track quality 100.0 % Test CRC 5278CDC8 Copy CRC 5278CDC8 Accurately ripped (confidence 1) [18F5D062] (AR v1) Copy OK

Track 6

Filename C:\rips\Panic Room\Skin\06 - Promises.wav

Pre-gap length 0:00:00.43

Peak level 99.6 % Extraction speed 2.5 X Track quality 99.9 % Test CRC 5EC40C9B Copy CRC 5EC40C9B Accurately ripped (confidence 1) [2F8C5959] (AR v1) Copy OK

Track 7

Filename C:\rips\Panic Room\Skin\07 - Velvet & Stars.wav

Peak level 64.5 % Extraction speed 2.7 X Track quality 100.0 % Test CRC 21B296E2 Copy CRC 21B296E2 Accurately ripped (confidence 1) [463BC70C] (AR v1) Copy OK

Track 8

Filename C:\rips\Panic Room\Skin\08 - Freefalling.wav

Pre-gap length 0:00:00.25

Peak level 93.0 % Extraction speed 3.1 X Track quality 100.0 % Test CRC 95E66DF9 Copy CRC 95E66DF9 Accurately ripped (confidence 1) [3FC867C5] (AR v1) Copy OK

Track 9

Filename C:\rips\Panic Room\Skin\09 - Skin.wav

Peak level 99.6 % Extraction speed 2.9 X Track quality 99.9 % Test CRC 33A18676 Copy CRC 33A18676 Accurately ripped (confidence 1) [7C556B8F] (AR v1) Copy OK

Track 10

Filename C:\rips\Panic Room\Skin\10 - Hiding The World.wav

Pre-gap length 0:00:00.05

Peak level 99.6 % Extraction speed 3.3 X Track quality 100.0 % Test CRC 86B07C98 Copy CRC 86B07C98 Accurately ripped (confidence 1) [F972544B] (AR v1) Copy OK

Track 11

Filename C:\rips\Panic Room\Skin\11 - Nocturnal.wav

Peak level 99.6 % Extraction speed 3.3 X Track quality 99.9 % Test CRC 50447D3C Copy CRC 50447D3C Accurately ripped (confidence 1) [057054FA] (AR v1) Copy OK

All tracks accurately ripped

No errors occurred

End of status report

==== Log checksum 76208AC22693ABE56DE08FF66002E0BA6CB59649DE1B7DC004FE8AC173BE0D29 ====
  
REM GENRE RockREM DATE 2012REM DISCID A30F0A0BREM COMMENT "ExactAudioCopy v1.0b3"PERFORMER "Panic Room"TITLE "Skin"FILE "01 - Song For Tomorrow.wav" WAVE TRACK 01 AUDIO TITLE "Song For Tomorrow" PERFORMER "Panic Room" FLAGS DCP INDEX 01 00:00:00 TRACK 02 AUDIO TITLE "Chameleon" PERFORMER "Panic Room" FLAGS DCP INDEX 00 06:15:34FILE "02 - Chameleon.wav" WAVE INDEX 01 00:00:00 TRACK 03 AUDIO TITLE "Screens" PERFORMER "Panic Room" FLAGS DCP INDEX 00 06:50:25FILE "03 - Screens.wav" WAVE INDEX 01 00:00:00 TRACK 04 AUDIO TITLE "Chances" PERFORMER "Panic Room" FLAGS DCP INDEX 00 04:42:28FILE "04 - Chances.wav" WAVE INDEX 01 00:00:00FILE "05 - Tightrope Walking.wav" WAVE TRACK 05 AUDIO TITLE "Tightrope Walking" PERFORMER "Panic Room" FLAGS DCP INDEX 01 00:00:00 TRACK 06 AUDIO TITLE "Promises" PERFORMER "Panic Room" FLAGS DCP INDEX 00 07:08:05FILE "06 - Promises.wav" WAVE INDEX 01 00:00:00FILE "07 - Velvet & Stars.wav" WAVE TRACK 07 AUDIO TITLE "Velvet & Stars" PERFORMER "Panic Room" FLAGS DCP INDEX 01 00:00:00 TRACK 08 AUDIO TITLE "Freefalling" PERFORMER "Panic Room" FLAGS DCP INDEX 00 03:14:70FILE "08 - Freefalling.wav" WAVE INDEX 01 00:00:00FILE "09 - Skin.wav" WAVE TRACK 09 AUDIO TITLE "Skin" PERFORMER "Panic Room" FLAGS DCP INDEX 01 00:00:00 TRACK 10 AUDIO TITLE "Hiding The World" PERFORMER "Panic Room" FLAGS DCP INDEX 00 05:18:50FILE "10 - Hiding The World.wav" WAVE INDEX 01 00:00:00FILE "11 - Nocturnal.wav" WAVE TRACK 11 AUDIO TITLE "Nocturnal" PERFORMER "Panic Room" FLAGS DCP INDEX 01 00:00:00
  
2051840199 66392300 01 - Song For Tomorrow.wav3078710141 72707420 02 - Chameleon.wav896786944 49918892 03 - Screens.wav1037676206 62455052 04 - Chances.wav722229652 75612140 05 - Tightrope Walking.wav102220201 57212444 06 - Promises.wav1566144902 34445084 07 - Velvet & Stars.wav3444959248 65609084 08 - Freefalling.wav1685207026 56224604 09 - Skin.wav1119405470 56198732 10 - Hiding The World.wav2653266260 82400012 11 - Nocturnal.wav

auCDtect: CD records authenticity detector, version 0.8.2Copyright (c) 2004 Oleg Berngardt. All rights reserved.Copyright (c) 2004 Alexander Djourik. All rights reserved.------------------------------------------------------------Processing file: [01 - Song For Tomorrow.wav]

------------------------------------------------------------This track looks like CDDA with probability 100%

------------------------------------------------------------Processing file: [02 - Chameleon.wav]

------------------------------------------------------------This track looks like CDDA with probability 100%

------------------------------------------------------------Processing file: [03 - Screens.wav]

------------------------------------------------------------This track looks like CDDA with probability 100%

------------------------------------------------------------Processing file: [04 - Chances.wav]

------------------------------------------------------------This track looks like CDDA with probability 100%

------------------------------------------------------------Processing file: [05 - Tightrope Walking.wav]

------------------------------------------------------------This track looks like CDDA with probability 99%

------------------------------------------------------------Processing file: [06 - Promises.wav]

------------------------------------------------------------This track looks like CDDA with probability 100%

------------------------------------------------------------Processing file: [07 - Velvet & Stars.wav]

------------------------------------------------------------This track looks like CDDA with probability 100%

------------------------------------------------------------Processing file: [08 - Freefalling.wav]

------------------------------------------------------------This track looks like CDDA with probability 100%

------------------------------------------------------------Processing file: [09 - Skin.wav]

------------------------------------------------------------This track looks like CDDA with probability 100%

------------------------------------------------------------Processing file: [10 - Hiding The World.wav]

------------------------------------------------------------This track looks like CDDA with probability 100%

------------------------------------------------------------Processing file: [11 - Nocturnal.wav]

------------------------------------------------------------This track looks like CDDA with probability 100%

------------------------------------------------------------Final Conclusion:------------------------------------------------------------These tracks looks like CDDA with probability 100%
Доп. информация: Skin
Paul Davies - guitars
Jonathan Edwards - keyboards, piano, electric guitar
Gavin John Griffiths - drums
Anne Marie Helder - vocals, 6 and 12 string acoustic guitars
Yatim Halimi - fretted and fretless bass

With:

Dave Larkin - Violin
Henry Salmon - Violin
Allan Grant - Viola
Leah Evans - Cellol


Трекер:  [ 28-Июл-2012 20:29 ]

  

Скачать .torrent

Размер .torrent файла 18 KB


Размер: 434 MB
Хэш (hash) релиза: acd0a9b12c04b700aec1563ae1dd0a239fb8965c

Еще никто не оставлял запись к записи скачать торрент Panic Room - Skin - 2012, FLAC . Будь первым!

!Обратная связь