Скачать через торрент музыку ▪ A Flower Full Of Stars - A Tribute To The Flower Kings ▪ 2011 ▪ бесплатно без регистрации torrent

Если у вас наблюдаются проблемы со скриншотами, переходом по ссылками, скачиванием торрентов - проблемы в блокировщике рекламы AdBlock. #хорошегоДня!


Статистика раздачи
Размер:  1.54 GB   |    Зарегистрирован:  5 лет   |    .torrent скачан:  17 раз   |   
Раздают:  1   Качают:  1  
   
Загрузка...
 
Автор Сообщение

_N_

avatar _N_


Musea Records / Colossus Project
Presents

▪ A Flower Full Of Stars
▪ (A Tribute To The Flower Kings) ▪

Аудио кодек: FLAC | Тип рипа: Image+.cue
Битрейт аудио
: Lossless | Источник: Личная коллекция | Наличие сканов: Да

Репертуар:
1. Abarax - Last Minute on Earth (10:29)
2. Argos - Cosmic Circus - Including Babylon (7:21)
3. AP Project - Alert...! Turn the Flora to This World (7:21)
4. Aurora Lunare - Trading My Soul (6:37)
5. Chris - Different People (6:03)
6. Contemporary Dead Finnish Music Ensemble - Grand Old World (5:42)
7. Expedition Delta - Selfconsuming Fire (6:07)
8. Final Conflict - A King's Prayer (6:29)
Exact Audio Copy V1.0 beta 3 from 29. August 2011

EAC extraction logfile from 25. July 2012, 17:53

Various / A Flower Full of Stars - A Tribute to the Flower Kings - Disk 1

Used drive : Optiarc DVD RW AD-7203S Adapter: 3 ID: 0

Read mode : Secure
Utilize accurate stream : Yes
Defeat audio cache : Yes
Make use of C2 pointers : No

Read offset correction : 48
Overread into Lead-In and Lead-Out : No
Fill up missing offset samples with silence : Yes
Delete leading and trailing silent blocks : No
Null samples used in CRC calculations : Yes
Used interface : Native Win32 interface for Win NT & 2000

Used output format : User Defined Encoder
Selected bitrate : 896 kBit/s
Quality : High
Add ID3 tag : Yes
Command line compressor : D:\EAC\Flac\flac.exe
Additional command line options : -V -8 -T "Date=%year%" -T "Genre=%genre%" %source%

TOC of the extracted CD

Track | Start | Length | Start sector | End sector
---------------------------------------------------------
1 | 0:00.00 | 10:30.00 | 0 | 47249
2 | 10:30.00 | 7:22.00 | 47250 | 80399
3 | 17:52.00 | 7:22.00 | 80400 | 113549
4 | 25:14.00 | 6:38.00 | 113550 | 143399
5 | 31:52.00 | 6:04.00 | 143400 | 170699
6 | 37:56.00 | 5:43.00 | 170700 | 196424
7 | 43:39.00 | 6:08.00 | 196425 | 224024
8 | 49:47.00 | 6:30.00 | 224025 | 253274

Range status and errors

Selected range

Filename E:\Tribute\Various - A Flower Full of Stars - A Tribute to the Flower Kings - Disk 1.wav

Peak level 96.6 %
Extraction speed 3.8 X
Range quality 100.0 %
Test CRC 52157580
Copy CRC 52157580
Copy OK

No errors occurred

AccurateRip summary

Track 1 not present in database
Track 2 not present in database
Track 3 not present in database
Track 4 not present in database
Track 5 not present in database
Track 6 not present in database
Track 7 not present in database
Track 8 not present in database

None of the tracks are present in the AccurateRip database

End of status report

---- CUETools DB Plugin V2.1.3

[CTDB TOCID: el1vrghTkYCxaiRp2bPemynQ3kw-] disk not present in database, Submit result: el1vrghTkYCxaiRp2bPemynQ3kw- has been uploaded

==== Log checksum 3A43F0393686504E88AA989CC3C1371657697B389E703DE6F97AEEC13282930C ====
1. Flamborough Head - Blessing a Smile (2:28)
2. Forgotten Suns - In the Eyes of the World (10:12)
3. Gaou - Rumble Fish Twist (8:21)
4. Guitar Garden with Three Legged Fox - Ghost of the Red Cloud (5:50)
5. Kate - The Man Who Walked With Kings (5:26)
6. Marco Lo Muscio - Pipes of Peace (2:00)
7. Michael Ogodorov Band - Close Your Eyes - A King's Prayer (9:52)
8. Mist Season - Lobsterland Groove (7:23)
9. Cary Clouser & Oracle - World Without a Heart (4:20)
Exact Audio Copy V1.0 beta 3 from 29. August 2011

EAC extraction logfile from 25. July 2012, 18:29

Various Artists / A Flower Full of Stars - A Tribute to the Flower Kings - Disk 2

Used drive : Optiarc DVD RW AD-7203S Adapter: 3 ID: 0

Read mode : Secure
Utilize accurate stream : Yes
Defeat audio cache : Yes
Make use of C2 pointers : No

Read offset correction : 48
Overread into Lead-In and Lead-Out : No
Fill up missing offset samples with silence : Yes
Delete leading and trailing silent blocks : No
Null samples used in CRC calculations : Yes
Used interface : Native Win32 interface for Win NT & 2000

Used output format : User Defined Encoder
Selected bitrate : 896 kBit/s
Quality : High
Add ID3 tag : Yes
Command line compressor : D:\EAC\Flac\flac.exe
Additional command line options : -V -8 -T "Date=%year%" -T "Genre=%genre%" %source%

TOC of the extracted CD

Track | Start | Length | Start sector | End sector
---------------------------------------------------------
1 | 0:00.00 | 2:29.00 | 0 | 11174
2 | 2:29.00 | 10:13.00 | 11175 | 57149
3 | 12:42.00 | 8:22.00 | 57150 | 94799
4 | 21:04.00 | 5:51.00 | 94800 | 121124
5 | 26:55.00 | 5:27.00 | 121125 | 145649
6 | 32:22.00 | 2:01.00 | 145650 | 154724
7 | 34:23.00 | 9:53.00 | 154725 | 199199
8 | 44:16.00 | 7:24.00 | 199200 | 232499
9 | 51:40.00 | 4:21.00 | 232500 | 252074

Range status and errors

Selected range

Filename E:\Tribute\Various Artists - A Flower Full of Stars - A Tribute to the Flower Kings - Disk 2.wav

Peak level 97.2 %
Extraction speed 3.8 X
Range quality 100.0 %
Test CRC 7FB9DE53
Copy CRC 7FB9DE53
Copy OK

No errors occurred

AccurateRip summary

Track 1 not present in database
Track 2 not present in database
Track 3 not present in database
Track 4 not present in database
Track 5 not present in database
Track 6 not present in database
Track 7 not present in database
Track 8 not present in database
Track 9 not present in database

None of the tracks are present in the AccurateRip database

End of status report

---- CUETools DB Plugin V2.1.3

[CTDB TOCID: 13J6nUrU5UeoKHtrevEVM2Bd1PY-] disk not present in database, Submit result: 13J6nUrU5UeoKHtrevEVM2Bd1PY- has been uploaded

==== Log checksum DA0A22DC5BB31B1562B94F79BF288E32F99F26E0AE369D20B5CD11F5953A4FA7 ====
1. Orchestre Celesti - The Rainmaker (5:26)
2. Pandora - Theme for a Hero (4:45)
3. Phaedra - Calling Home (9:51)
4. Projection - Stardust We Are (10:23)
5. Romanov - What If God Is Alone (6:59)
6. Roz Vitalis - Dream On Dreamer (6:35)
7. Sky Architect - Silent Sorrow (8:11)
8. Sky Club - Church of Your Heart (8:27)
Exact Audio Copy V1.0 beta 3 from 29. August 2011

EAC extraction logfile from 26. July 2012, 9:51

A Flower Full of Stars / A Tribute to The Flower Kings - Disk 3

Used drive : Optiarc DVD RW AD-7203S Adapter: 3 ID: 0

Read mode : Secure
Utilize accurate stream : Yes
Defeat audio cache : Yes
Make use of C2 pointers : No

Read offset correction : 48
Overread into Lead-In and Lead-Out : No
Fill up missing offset samples with silence : Yes
Delete leading and trailing silent blocks : No
Null samples used in CRC calculations : Yes
Used interface : Native Win32 interface for Win NT & 2000

Used output format : User Defined Encoder
Selected bitrate : 896 kBit/s
Quality : High
Add ID3 tag : Yes
Command line compressor : D:\EAC\Flac\flac.exe
Additional command line options : -V -8 -T "Date=%year%" -T "Genre=%genre%" %source%

TOC of the extracted CD

Track | Start | Length | Start sector | End sector
---------------------------------------------------------
1 | 0:00.00 | 5:27.00 | 0 | 24524
2 | 5:27.00 | 4:46.00 | 24525 | 45974
3 | 10:13.00 | 9:52.00 | 45975 | 90374
4 | 20:05.00 | 10:24.00 | 90375 | 137174
5 | 30:29.00 | 7:00.00 | 137175 | 168674
6 | 37:29.00 | 6:36.00 | 168675 | 198374
7 | 44:05.00 | 8:12.00 | 198375 | 235274
8 | 52:17.00 | 8:28.00 | 235275 | 273374

Range status and errors

Selected range

Filename E:\Tribute\A Flower Full of Stars - A Tribute to The Flower Kings - Disk 3.wav

Peak level 96.6 %
Extraction speed 3.9 X
Range quality 100.0 %
Test CRC 3A191A74
Copy CRC 3A191A74
Copy OK

No errors occurred

AccurateRip summary

Track 1 not present in database
Track 2 not present in database
Track 3 not present in database
Track 4 not present in database
Track 5 not present in database
Track 6 not present in database
Track 7 not present in database
Track 8 not present in database

None of the tracks are present in the AccurateRip database

End of status report

---- CUETools DB Plugin V2.1.3

[CTDB TOCID: sAwprGi_PEdW3Ns6H_I3BwpPRk4-] found, Submit result: already submitted
[05f5ce33] (1/1) Accurately ripped

==== Log checksum 429007BB66CB92742D6014BA0F14F8C0DBE7B141DFAAD02042604A414F84D9F4 ====
1. Soniq Circus - Sword of God (6:59)
2. Spoton - Don't Let the d'Evil In (3:18)
3. Supernal Endgame - The Flower King (11:51)
4. Tabula Smaragdina - Devil's Playground - The Scars of Evil (4:53)
5. The Samurai of Prog - World of Adventures (9:51)
6. Tinyfish - Jealousy (6:35)
7. Unitopia - The Way the Waters Are Moving (3:17)
8. Vanilla Project - Serious Dreamers (9:24)
9. Yesterdays - Cosmic Lover (I. My Lover From Outer Space/II. My Cosmic Lounge) (7:11)
Exact Audio Copy V1.0 beta 3 from 29. August 2011

EAC extraction logfile from 26. July 2012, 10:28

Various artists / A Flower Full of Stars - A tribute to The Flower Kings - Disk 4

Used drive : Optiarc DVD RW AD-7203S Adapter: 3 ID: 0

Read mode : Secure
Utilize accurate stream : Yes
Defeat audio cache : Yes
Make use of C2 pointers : No

Read offset correction : 48
Overread into Lead-In and Lead-Out : No
Fill up missing offset samples with silence : Yes
Delete leading and trailing silent blocks : No
Null samples used in CRC calculations : Yes
Used interface : Native Win32 interface for Win NT & 2000

Used output format : User Defined Encoder
Selected bitrate : 896 kBit/s
Quality : High
Add ID3 tag : Yes
Command line compressor : D:\EAC\Flac\flac.exe
Additional command line options : -V -8 -T "Date=%year%" -T "Genre=%genre%" %source%

TOC of the extracted CD

Track | Start | Length | Start sector | End sector
---------------------------------------------------------
1 | 0:00.00 | 7:00.00 | 0 | 31499
2 | 7:00.00 | 3:19.00 | 31500 | 46424
3 | 10:19.00 | 11:52.00 | 46425 | 99824
4 | 22:11.00 | 4:54.00 | 99825 | 121874
5 | 27:05.00 | 9:52.00 | 121875 | 166274
6 | 36:57.00 | 4:02.00 | 166275 | 184424
7 | 40:59.00 | 3:18.00 | 184425 | 199274
8 | 44:17.00 | 9:25.00 | 199275 | 241649
9 | 53:42.00 | 7:12.00 | 241650 | 274049

Range status and errors

Selected range

Filename E:\Tribute\Various artists - A Flower Full of Stars - A tribute to The Flower Kings - Disk 4.wav

Peak level 96.6 %
Extraction speed 3.9 X
Range quality 99.9 %
Test CRC CDD810B9
Copy CRC CDD810B9
Copy OK

No errors occurred

AccurateRip summary

Track 1 not present in database
Track 2 not present in database
Track 3 not present in database
Track 4 not present in database
Track 5 not present in database
Track 6 not present in database
Track 7 not present in database
Track 8 not present in database
Track 9 not present in database

None of the tracks are present in the AccurateRip database

End of status report

---- CUETools DB Plugin V2.1.3

[CTDB TOCID: FxZ3gA7ITdIOfDYioWC.LYC_UEo-] disk not present in database, Submit result: FxZ3gA7ITdIOfDYioWC.LYC_UEo- has been uploaded

==== Log checksum C4932169299B989027E8B162D898D8F6079F2771ABE931A0B8FF3B61DAAE08F8 ====


Трекер:  [ 28-Июл-2012 07:50 ]

  

Скачать .torrent

Размер .torrent файла 17 KB


Размер: 1.54 GB
Хэш (hash) релиза: 18a4ce5fdc6cd88ef4e4c5d2bd4096821295249f

Еще никто не оставлял запись к записи скачать торрент ▪ A Flower Full Of Stars - A Tribute To The Flower Kings ▪ 2011 ▪ . Будь первым!

!Обратная связь