Скачать через торрент Split Enz - True Colours - 1980 ALAC, lossless бесплатно русская версия torrent активатор

Если у вас наблюдаются проблемы со скриншотами, переходом по ссылками, скачиванием торрентов - проблемы в блокировщике рекламы AdBlock. #хорошегоДня!


Статистика раздачи
Размер:  331 MB   |    Зарегистрирован:  5 лет 2 месяца   |    .torrent скачан:  35 раз   |   
Раздают:  1  
   
Загрузка...
 
Автор Сообщение

Galfimbul

avatar Galfimbul


Split Enz - True Colours

Год: 1980
Страна: New Zealand
Жанр: New Wave, Power Pop
Продолжительность: 46:25
Тексты: вшиты
Кодек: ALAC
Программа-риповщик : foobar2000 + iTunes (lossless)
Битрейт: lossless
Треклист:
01 Shark Attack 3:00
02 I Got You 3:29
03 What's The Matter With You 3:09
04 Double Happy 3:27
05 I Wouldn't Dream Of It 3:22
06 I Hope I Never 4:34
07 Nobody Takes Me Seriously 3:30
08 Missing Person 3:39
09 Poor Boy 3:28
10 How Can I Resist Her 3:33
11 The Choral Sea 4:51
12 Things (Bonus Track) 2:48
13 Two Of A Kind (Bonus Track) 3:41
  
Exact Audio Copy V0.99 prebeta 5 from 4. May 2009

EAC extraction logfile from 8. August 2010, 14:50

Split Enz / True Colours (Remastered and Expanded)

Used drive : HL-DT-STDVD-ROM GDR8162B Adapter: 0 ID: 0

Read mode : SecureUtilize accurate stream : YesDefeat audio cache : YesMake use of C2 pointers : No

Read offset correction : 102Overread into Lead-In and Lead-Out : NoFill up missing offset samples with silence : YesDelete leading and trailing silent blocks : NoNull samples used in CRC calculations : NoUsed interface : Native Win32 interface for Win NT & 2000Gap handling : Appended to previous track

Used output format : User Defined EncoderSelected bitrate : 1024 kBit/sQuality : HighAdd ID3 tag : NoCommand line compressor : C:\Program Files (x86)\Exact Audio Copy\FLAC\FLAC.EXEAdditional command line options : -6 -V -T "ARTIST=%a" -T "TITLE=%t" -T "ALBUM=%g" -T "DATE=%y" -T "TRACKNUMBER=%n" -T "GENRE=%m" -T "COMMENT=%e" %s -o %d

TOC of the extracted CD

Track | Start | Length | Start sector | End sector --------------------------------------------------------- 1 | 0:00.00 | 3:00.05 | 0 | 13504 2 | 3:00.05 | 3:29.26 | 13505 | 29205 3 | 6:29.31 | 3:08.43 | 29206 | 43348 4 | 9:37.74 | 3:27.10 | 43349 | 58883 5 | 13:05.09 | 3:22.03 | 58884 | 74036 6 | 16:27.12 | 4:34.28 | 74037 | 94614 7 | 21:01.40 | 3:30.09 | 94615 | 110373 8 | 24:31.49 | 3:38.64 | 110374 | 126787 9 | 28:10.38 | 3:27.38 | 126788 | 142350 10 | 31:38.01 | 3:32.45 | 142351 | 158295 11 | 35:10.46 | 4:50.47 | 158296 | 180092 12 | 40:01.18 | 2:48.30 | 180093 | 192722 13 | 42:49.48 | 3:40.40 | 192723 | 209262

Track 1

Filename C:\Users\Jesse\Documents\01. Split Enz - Shark Attack.wav

Pre-gap length 0:00:02.00

Peak level 94.4 % Track quality 100.0 % Test CRC F60A9712 Copy CRC F60A9712 Accurately ripped (confidence 13) [0166E75A] Copy OK

Track 2

Filename C:\Users\Jesse\Documents\02. Split Enz - I Got You.wav

Pre-gap length 0:00:02.00

Peak level 94.4 % Track quality 100.0 % Test CRC FFF1D118 Copy CRC FFF1D118 Accurately ripped (confidence 13) [D48500F0] Copy OK

Track 3

Filename C:\Users\Jesse\Documents\03. Split Enz - What's The Matter With You.wav

Pre-gap length 0:00:01.31

Peak level 94.4 % Track quality 100.0 % Test CRC ED194D15 Copy CRC ED194D15 Accurately ripped (confidence 13) [1069876D] Copy OK

Track 4

Filename C:\Users\Jesse\Documents\04. Split Enz - Double Happy.wav

Pre-gap length 0:00:02.01

Peak level 94.4 % Track quality 100.0 % Test CRC AB7099D6 Copy CRC AB7099D6 Accurately ripped (confidence 13) [7F73DDCC] Copy OK

Track 5

Filename C:\Users\Jesse\Documents\05. Split Enz - I Wouldn't Dream Of It.wav

Pre-gap length 0:00:02.01

Peak level 94.4 % Track quality 100.0 % Test CRC F90F1EA1 Copy CRC F90F1EA1 Accurately ripped (confidence 13) [86C9F050] Copy OK

Track 6

Filename C:\Users\Jesse\Documents\06. Split Enz - I Hope I Never.wav

Pre-gap length 0:00:02.01

Peak level 94.4 % Track quality 100.0 % Test CRC F63B4E60 Copy CRC F63B4E60 Accurately ripped (confidence 13) [ABA9D477] Copy OK

Track 7

Filename C:\Users\Jesse\Documents\07. Split Enz - Nobody Takes Me Seriously.wav

Pre-gap length 0:00:02.00

Peak level 94.4 % Track quality 100.0 % Test CRC 4431A4C6 Copy CRC 4431A4C6 Accurately ripped (confidence 13) [0C8368D9] Copy OK

Track 8

Filename C:\Users\Jesse\Documents\08. Split Enz - Missing Person.wav

Pre-gap length 0:00:02.01

Peak level 94.4 % Track quality 100.0 % Test CRC 55F64ABB Copy CRC 55F64ABB Accurately ripped (confidence 13) [C29BD792] Copy OK

Track 9

Filename C:\Users\Jesse\Documents\09. Split Enz - Poor Boy.wav

Pre-gap length 0:00:02.01

Peak level 94.4 % Track quality 100.0 % Test CRC 5B17C543 Copy CRC 5B17C543 Accurately ripped (confidence 13) [949AA2D2] Copy OK

Track 10

Filename C:\Users\Jesse\Documents\10. Split Enz - How Can I Resist Her.wav

Pre-gap length 0:00:02.00

Peak level 94.4 % Track quality 100.0 % Test CRC A2A8628C Copy CRC A2A8628C Accurately ripped (confidence 13) [FBC700C0] Copy OK

Track 11

Filename C:\Users\Jesse\Documents\11. Split Enz - The Choral Sea.wav

Pre-gap length 0:00:02.00

Peak level 94.4 % Track quality 100.0 % Test CRC 80768CD0 Copy CRC 80768CD0 Accurately ripped (confidence 13) [7342B102] Copy OK

Track 12

Filename C:\Users\Jesse\Documents\12. Split Enz - Things (Bonus Track).wav

Pre-gap length 0:00:09.64

Peak level 94.4 % Track quality 100.0 % Test CRC D3ADD258 Copy CRC D3ADD258 Accurately ripped (confidence 13) [ED3228D4] Copy OK

Track 13

Filename C:\Users\Jesse\Documents\13. Split Enz - Two Of A Kind (Bonus Track).wav

Pre-gap length 0:00:02.00

Peak level 94.4 % Track quality 100.0 % Test CRC 1155848C Copy CRC 1155848C Accurately ripped (confidence 13) [74785B73] Copy OK

All tracks accurately ripped

No errors occurred

End of status report


Трекер:  [ 30-Июл-2012 13:06 ]

  

Скачать .torrent

Размер .torrent файла 14 KB


Размер: 331 MB
Хэш (hash) релиза: 0e11230102d3fe41aae79e9ddbddb3e178bc3892

Еще никто не оставлял запись к записи скачать торрент Split Enz - True Colours - 1980 ALAC, lossless . Будь первым!

!Обратная связь