Скачать через торрент музыку Mountain Of Power - Mountain Of Power - 2007, бесплатно без регистрации torrent

Если у вас наблюдаются проблемы со скриншотами, переходом по ссылками, скачиванием торрентов - проблемы в блокировщике рекламы AdBlock. #хорошегоДня!


Статистика раздачи
Размер:  486 MB   |    Зарегистрирован:  5 лет 3 месяца   |    .torrent скачан:  70 раз   |   
Раздают:  1  
   
Загрузка...
 
Автор Сообщение

AqvaGen


Mountain Of Power - Mountain Of Power

Жанр: hard rock, heavy metal
Страна-производитель диска: US
Год издания: 2007
Издатель (лейбл): Grooveyard Records
Номер по каталогу: 642023
Страна: US
Аудиокодек: FLAC (*.flac)
Тип рипа: tracks+.cue
Битрейт аудио: lossless
Продолжительность: 1:06:23
Источник (релизер): demonoid
Наличие сканов в содержимом раздачи: да, но мало
Треклист:
1. IN FOR THE KILL (BUDGIE)
2. DREAMS OF MILK & HONEY (MOUNTAIN)
3. BLACK TRAIN (MONTROSE)
4. UNCLE NED (POINT BLANK)
5. BLACK MAGIC (MARCUS)
6. OUT OF THE DARKNESS (MOXY)
7. SITTING BY THE POOL (DERRINGER)
8. FANTASY (CAPTAIN BEYOND)
9. ONE OF A KIND (WIRELESS)
10. CRAZY (STRAY DOG)
11. LET THAT LIZARD LOOSE (GODDO)
12. LOVE ROCK (NEON ROSE)
13. TOMORROW OR YESTERDAY (SAMSON)
14. MOUNTAIN OF POWER (MOUNTAIN OF POWER)
  
Exact Audio Copy V1.0 beta 3 from 29. August 2011

EAC extraction logfile from 6. November 2011, 15:50

Mountain Of Power / Volume One

Used drive : ATAPI iHAS224 A Adapter: 4 ID: 0

Read mode : SecureUtilize accurate stream : YesDefeat audio cache : NoMake use of C2 pointers : No

Read offset correction : 6Overread into Lead-In and Lead-Out : NoFill up missing offset samples with silence : YesDelete leading and trailing silent blocks : NoNull samples used in CRC calculations : YesUsed interface : Native Win32 interface for Win NT & 2000Gap handling : Appended to previous track

Used output format : User Defined EncoderSelected bitrate : 896 kBit/sQuality : HighAdd ID3 tag : NoCommand line compressor : C:\Program Files\FLAC\flac.exeAdditional command line options : -8 -V -T "ARTIST=%artist%" -T "TITLE=%title%" -T "ALBUM=%albumtitle%" -T "DATE=%year%" -T "TRACKNUMBER=%tracknr%" -T "GENRE=%genre%" -T "PERFORMER=%albuminterpret%" -T "COMPOSER=%composer%" %haslyrics%--tag-from-file=LYRICS="%lyricsfile%"%haslyrics% -T "ALBUMARTIST=%albumartist%" -T "DISCNUMBER=%cdnumber%" -T "TOTALDISCS=%totalcds%" -T "TOTALTRACKS=%numtracks%" -T "COMMENT=%comment%" %source% -o %dest%

TOC of the extracted CD

Track | Start | Length | Start sector | End sector --------------------------------------------------------- 1 | 0:00.00 | 6:19.33 | 0 | 28457 2 | 6:19.33 | 3:19.17 | 28458 | 43399 3 | 9:38.50 | 4:17.43 | 43400 | 62717 4 | 13:56.18 | 3:44.28 | 62718 | 79545 5 | 17:40.46 | 5:02.13 | 79546 | 102208 6 | 22:42.59 | 5:41.55 | 102209 | 127838 7 | 28:24.39 | 4:37.66 | 127839 | 148679 8 | 33:02.30 | 5:12.54 | 148680 | 172133 9 | 38:15.09 | 3:27.15 | 172134 | 187673 10 | 41:42.24 | 5:26.60 | 187674 | 212183 11 | 47:09.09 | 3:23.52 | 212184 | 227460 12 | 50:32.61 | 4:38.57 | 227461 | 248367 13 | 55:11.43 | 5:49.04 | 248368 | 274546 14 | 61:00.47 | 5:22.44 | 274547 | 298740

Track 1

Filename C:\Users\MIKE\Desktop\MOUNTAIN OF POWER - VOLUME I\01 In for The Kill.wav

Pre-gap length 0:00:02.00

Peak level 98.1 % Extraction speed 8.4 X Track quality 99.9 % Copy CRC F9DE0ADD Track not present in AccurateRip database Copy OK

Track 2

Filename C:\Users\MIKE\Desktop\MOUNTAIN OF POWER - VOLUME I\02 Dreams & Milk & Honey.wav

Peak level 98.1 % Extraction speed 7.2 X Track quality 100.0 % Copy CRC 7723984A Track not present in AccurateRip database Copy OK

Track 3

Filename C:\Users\MIKE\Desktop\MOUNTAIN OF POWER - VOLUME I\03 Black Train.wav

Peak level 98.1 % Extraction speed 7.9 X Track quality 100.0 % Copy CRC 9AF5649F Track not present in AccurateRip database Copy OK

Track 4

Filename C:\Users\MIKE\Desktop\MOUNTAIN OF POWER - VOLUME I\04 Uncle Neo.wav

Peak level 98.1 % Extraction speed 8.3 X Track quality 100.0 % Copy CRC C8252B70 Track not present in AccurateRip database Copy OK

Track 5

Filename C:\Users\MIKE\Desktop\MOUNTAIN OF POWER - VOLUME I\05 Black Magic.wav

Peak level 98.1 % Extraction speed 8.6 X Track quality 100.0 % Copy CRC 429E98C1 Track not present in AccurateRip database Copy OK

Track 6

Filename C:\Users\MIKE\Desktop\MOUNTAIN OF POWER - VOLUME I\06 Out Of The Darkness.wav

Peak level 98.1 % Extraction speed 9.4 X Track quality 100.0 % Copy CRC 274857B1 Track not present in AccurateRip database Copy OK

Track 7

Filename C:\Users\MIKE\Desktop\MOUNTAIN OF POWER - VOLUME I\07 Sitting By The Pool.wav

Peak level 98.1 % Extraction speed 9.3 X Track quality 99.9 % Copy CRC 3D2B4F86 Track not present in AccurateRip database Copy OK

Track 8

Filename C:\Users\MIKE\Desktop\MOUNTAIN OF POWER - VOLUME I\08 Fantasy.wav

Peak level 98.1 % Extraction speed 9.6 X Track quality 99.9 % Copy CRC D9083C89 Track not present in AccurateRip database Copy OK

Track 9

Filename C:\Users\MIKE\Desktop\MOUNTAIN OF POWER - VOLUME I\09 One Of A Kind.wav

Peak level 98.1 % Extraction speed 10.2 X Track quality 100.0 % Copy CRC 0B43951B Track not present in AccurateRip database Copy OK

Track 10

Filename C:\Users\MIKE\Desktop\MOUNTAIN OF POWER - VOLUME I\10 Crazy.wav

Peak level 98.1 % Extraction speed 11.0 X Track quality 100.0 % Copy CRC 22AB630E Track not present in AccurateRip database Copy OK

Track 11

Filename C:\Users\MIKE\Desktop\MOUNTAIN OF POWER - VOLUME I\11 Let That Lizard Loose.wav

Peak level 98.1 % Extraction speed 11.3 X Track quality 100.0 % Copy CRC 6D6C1667 Track not present in AccurateRip database Copy OK

Track 12

Filename C:\Users\MIKE\Desktop\MOUNTAIN OF POWER - VOLUME I\12 Love Rock.wav

Peak level 98.1 % Extraction speed 11.6 X Track quality 100.0 % Copy CRC 53EFA1D1 Track not present in AccurateRip database Copy OK

Track 13

Filename C:\Users\MIKE\Desktop\MOUNTAIN OF POWER - VOLUME I\13 Tomorrow Or Yesterday.wav

Peak level 98.1 % Extraction speed 12.2 X Track quality 100.0 % Copy CRC F6BCD390 Track not present in AccurateRip database Copy OK

Track 14

Filename C:\Users\MIKE\Desktop\MOUNTAIN OF POWER - VOLUME I\14 Mountain Of Power.wav

Peak level 98.1 % Extraction speed 12.4 X Track quality 100.0 % Copy CRC FECAC0B3 Track not present in AccurateRip database Copy OK

None of the tracks are present in the AccurateRip database

No errors occurred

End of status report

---- CUETools DB Plugin V2.1.3

[CTDB TOCID: cOZ8SDDEZ50T_YQ4hs0e9EobmBo-] disk not present in database, Submit result: cOZ8SDDEZ50T_YQ4hs0e9EobmBo- has been uploaded

==== Log checksum 939637DA80284B40B9B3A6A7A21CB29CC16D806BFC75BB5859C8C97F8FC9FCA4 ====

------------------------------------------------------------

Exact Audio Copy V1.0 beta 3 from 29. August 2011

EAC extraction logfile from 6. November 2011, 15:50

Mountain Of Power / Volume One

Used drive : ATAPI iHAS224 A Adapter: 4 ID: 0

Read mode : SecureUtilize accurate stream : YesDefeat audio cache : NoMake use of C2 pointers : No

Read offset correction : 6Overread into Lead-In and Lead-Out : NoFill up missing offset samples with silence : YesDelete leading and trailing silent blocks : NoNull samples used in CRC calculations : YesUsed interface : Native Win32 interface for Win NT & 2000Gap handling : Appended to previous track

Used output format : User Defined EncoderSelected bitrate : 896 kBit/sQuality : HighAdd ID3 tag : NoCommand line compressor : C:\Program Files\FLAC\flac.exeAdditional command line options : -8 -V -T "ARTIST=%artist%" -T "TITLE=%title%" -T "ALBUM=%albumtitle%" -T "DATE=%year%" -T "TRACKNUMBER=%tracknr%" -T "GENRE=%genre%" -T "PERFORMER=%albuminterpret%" -T "COMPOSER=%composer%" %haslyrics%--tag-from-file=LYRICS="%lyricsfile%"%haslyrics% -T "ALBUMARTIST=%albumartist%" -T "DISCNUMBER=%cdnumber%" -T "TOTALDISCS=%totalcds%" -T "TOTALTRACKS=%numtracks%" -T "COMMENT=%comment%" %source% -o %dest%

TOC of the extracted CD

Track | Start | Length | Start sector | End sector --------------------------------------------------------- 1 | 0:00.00 | 6:19.33 | 0 | 28457 2 | 6:19.33 | 3:19.17 | 28458 | 43399 3 | 9:38.50 | 4:17.43 | 43400 | 62717 4 | 13:56.18 | 3:44.28 | 62718 | 79545 5 | 17:40.46 | 5:02.13 | 79546 | 102208 6 | 22:42.59 | 5:41.55 | 102209 | 127838 7 | 28:24.39 | 4:37.66 | 127839 | 148679 8 | 33:02.30 | 5:12.54 | 148680 | 172133 9 | 38:15.09 | 3:27.15 | 172134 | 187673 10 | 41:42.24 | 5:26.60 | 187674 | 212183 11 | 47:09.09 | 3:23.52 | 212184 | 227460 12 | 50:32.61 | 4:38.57 | 227461 | 248367 13 | 55:11.43 | 5:49.04 | 248368 | 274546 14 | 61:00.47 | 5:22.44 | 274547 | 298740

Track 1

Filename C:\Users\MIKE\Desktop\MOUNTAIN OF POWER - VOLUME I\01 In for The Kill.wav

Pre-gap length 0:00:02.00

Peak level 98.1 % Extraction speed 8.4 X Track quality 99.9 % Copy CRC F9DE0ADD Track not present in AccurateRip database Copy OK

Track 2

Filename C:\Users\MIKE\Desktop\MOUNTAIN OF POWER - VOLUME I\02 Dreams & Milk & Honey.wav

Peak level 98.1 % Extraction speed 7.2 X Track quality 100.0 % Copy CRC 7723984A Track not present in AccurateRip database Copy OK

Track 3

Filename C:\Users\MIKE\Desktop\MOUNTAIN OF POWER - VOLUME I\03 Black Train.wav

Peak level 98.1 % Extraction speed 7.9 X Track quality 100.0 % Copy CRC 9AF5649F Track not present in AccurateRip database Copy OK

Track 4

Filename C:\Users\MIKE\Desktop\MOUNTAIN OF POWER - VOLUME I\04 Uncle Neo.wav

Peak level 98.1 % Extraction speed 8.3 X Track quality 100.0 % Copy CRC C8252B70 Track not present in AccurateRip database Copy OK

Track 5

Filename C:\Users\MIKE\Desktop\MOUNTAIN OF POWER - VOLUME I\05 Black Magic.wav

Peak level 98.1 % Extraction speed 8.6 X Track quality 100.0 % Copy CRC 429E98C1 Track not present in AccurateRip database Copy OK

Track 6

Filename C:\Users\MIKE\Desktop\MOUNTAIN OF POWER - VOLUME I\06 Out Of The Darkness.wav

Peak level 98.1 % Extraction speed 9.4 X Track quality 100.0 % Copy CRC 274857B1 Track not present in AccurateRip database Copy OK

Track 7

Filename C:\Users\MIKE\Desktop\MOUNTAIN OF POWER - VOLUME I\07 Sitting By The Pool.wav

Peak level 98.1 % Extraction speed 9.3 X Track quality 99.9 % Copy CRC 3D2B4F86 Track not present in AccurateRip database Copy OK

Track 8

Filename C:\Users\MIKE\Desktop\MOUNTAIN OF POWER - VOLUME I\08 Fantasy.wav

Peak level 98.1 % Extraction speed 9.6 X Track quality 99.9 % Copy CRC D9083C89 Track not present in AccurateRip database Copy OK

Track 9

Filename C:\Users\MIKE\Desktop\MOUNTAIN OF POWER - VOLUME I\09 One Of A Kind.wav

Peak level 98.1 % Extraction speed 10.2 X Track quality 100.0 % Copy CRC 0B43951B Track not present in AccurateRip database Copy OK

Track 10

Filename C:\Users\MIKE\Desktop\MOUNTAIN OF POWER - VOLUME I\10 Crazy.wav

Peak level 98.1 % Extraction speed 11.0 X Track quality 100.0 % Copy CRC 22AB630E Track not present in AccurateRip database Copy OK

Track 11

Filename C:\Users\MIKE\Desktop\MOUNTAIN OF POWER - VOLUME I\11 Let That Lizard Loose.wav

Peak level 98.1 % Extraction speed 11.3 X Track quality 100.0 % Copy CRC 6D6C1667 Track not present in AccurateRip database Copy OK

Track 12

Filename C:\Users\MIKE\Desktop\MOUNTAIN OF POWER - VOLUME I\12 Love Rock.wav

Peak level 98.1 % Extraction speed 11.6 X Track quality 100.0 % Copy CRC 53EFA1D1 Track not present in AccurateRip database Copy OK

Track 13

Filename C:\Users\MIKE\Desktop\MOUNTAIN OF POWER - VOLUME I\13 Tomorrow Or Yesterday.wav

Peak level 98.1 % Extraction speed 12.2 X Track quality 100.0 % Copy CRC F6BCD390 Track not present in AccurateRip database Copy OK

Track 14

Filename C:\Users\MIKE\Desktop\MOUNTAIN OF POWER - VOLUME I\14 Mountain Of Power.wav

Peak level 98.1 % Extraction speed 12.4 X Track quality 100.0 % Copy CRC FECAC0B3 Track not present in AccurateRip database Copy OK

None of the tracks are present in the AccurateRip database

No errors occurred

End of status report

---- CUETools DB Plugin V2.1.3

[CTDB TOCID: cOZ8SDDEZ50T_YQ4hs0e9EobmBo-] disk not present in database, Submit result: cOZ8SDDEZ50T_YQ4hs0e9EobmBo- has been uploaded

==== Log checksum 939637DA80284B40B9B3A6A7A21CB29CC16D806BFC75BB5859C8C97F8FC9FCA4 ====
  
REM GENRE "Hard Rock"REM DATE 2007REM DISCID BB0F8F0EREM COMMENT "ExactAudioCopy v1.0b3"PERFORMER "Mountain Of Power"TITLE "Volume One"FILE "01 In for The Kill.wav" WAVE TRACK 01 AUDIO TITLE "In for The Kill" PERFORMER "Mountain Of Power" INDEX 01 00:00:00FILE "02 Dreams & Milk & Honey.wav" WAVE TRACK 02 AUDIO TITLE "Dreams & Milk & Honey" PERFORMER "Mountain Of Power" INDEX 01 00:00:00FILE "03 Black Train.wav" WAVE TRACK 03 AUDIO TITLE "Black Train" PERFORMER "Mountain Of Power" INDEX 01 00:00:00FILE "04 Uncle Neo.wav" WAVE TRACK 04 AUDIO TITLE "Uncle Neo" PERFORMER "Mountain Of Power" INDEX 01 00:00:00FILE "05 Black Magic.wav" WAVE TRACK 05 AUDIO TITLE "Black Magic" PERFORMER "Mountain Of Power" INDEX 01 00:00:00FILE "06 Out Of The Darkness.wav" WAVE TRACK 06 AUDIO TITLE "Out Of The Darkness" PERFORMER "Mountain Of Power" INDEX 01 00:00:00FILE "07 Sitting By The Pool.wav" WAVE TRACK 07 AUDIO TITLE "Sitting By The Pool" PERFORMER "Mountain Of Power" INDEX 01 00:00:00FILE "08 Fantasy.wav" WAVE TRACK 08 AUDIO TITLE "Fantasy" PERFORMER "Mountain Of Power" INDEX 01 00:00:00FILE "09 One Of A Kind.wav" WAVE TRACK 09 AUDIO TITLE "One Of A Kind" PERFORMER "Mountain Of Power" INDEX 01 00:00:00FILE "10 Crazy.wav" WAVE TRACK 10 AUDIO TITLE "Crazy" PERFORMER "Mountain Of Power" INDEX 01 00:00:00FILE "11 Let That Lizard Loose.wav" WAVE TRACK 11 AUDIO TITLE "Let That Lizard Loose" PERFORMER "Mountain Of Power" INDEX 01 00:00:00FILE "12 Love Rock.wav" WAVE TRACK 12 AUDIO TITLE "Love Rock" PERFORMER "Mountain Of Power" INDEX 01 00:00:00FILE "13 Tomorrow Or Yesterday.wav" WAVE TRACK 13 AUDIO TITLE "Tomorrow Or Yesterday" PERFORMER "Mountain Of Power" INDEX 01 00:00:00FILE "14 Mountain Of Power.wav" WAVE TRACK 14 AUDIO TITLE "Mountain Of Power" PERFORMER "Mountain Of Power" INDEX 01 00:00:00
  
AUDIOCHECKER v2.0 beta (build 457) - by Dester - <a href="mailto:opdester@freemail.hu" class="postLink">opdester@freemail.hu</a>~~~~~~~~~~~~~~~~~~~~~~~~~~~~~~~~~~-=== НЕ РЕДАКТИРУЙТЕ ЭТОТ ФАЙЛ! ===-

Путь: ...\Mountain Of Power - Volume 1

01 -=- 01 In for The Kill.flac -=- CDDA (100%)02 -=- 02 Dreams & Milk & Honey.flac -=- CDDA (100%)03 -=- 03 Black Train.flac -=- CDDA (100%)04 -=- 04 Uncle Ned.flac -=- CDDA (99%)05 -=- 05 Black Magic.flac -=- CDDA (100%)06 -=- 06 Out Of The Darkness.flac -=- CDDA (100%)07 -=- 07 Sitting By The Pool.flac -=- CDDA (100%)08 -=- 08 Fantasy.flac -=- CDDA (99%)09 -=- 09 One Of A Kind.flac -=- CDDA (99%)10 -=- 10 Crazy.flac -=- CDDA (100%)11 -=- 11 Let That Lizard Loose.flac -=- CDDA (100%)12 -=- 12 Love Rock.flac -=- CDDA (100%)13 -=- 13 Tomorrow Or Yesterday.flac -=- CDDA (100%)14 -=- 14 Mountain Of Power.flac -=- CDDA (100%)

Сводка 99,79% CDDA

109063540
Об альбоме: Это первый из двух альбомов шведской группы Mountain Of Power.

Трекер:  [ 27-Июл-2012 06:24 ]

  

Скачать .torrent

Размер .torrent файла 20 KB


Размер: 486 MB
Хэш (hash) релиза: 297880f50e93ddafe583aa574b105e3a0a8edf3d

Торренты, похожие на Mountain Of Power - Mountain Of Power - 2007, скачать торрент

Форум Название Автор Размер S L Добавлен
Зарубежный Rock ·· (Hard Rock) Mountain Of Power - Mountain Of Power - 2007, MP3, 320 kbps Galfimbul 159859188152 MB 0 0 1343496420

20:27

28-Июл-12

Rосk | Mеtаl | Аltеrnаtivе, Рunk, Indереndеnt (mр3) ·· (Hard Rock/Heavy Metal) Mountain Of Power - Discography (3 Albums) - 2007 - 2015, MP3, 320 kbps Galfimbul 533359670509 MB 0 0 1453639827

15:50

24-Янв-16

Еще никто не оставлял запись к записи скачать торрент Mountain Of Power - Mountain Of Power - 2007, . Будь первым!

!Обратная связь