Скачать через торрент музыку Stalk-Forrest Group - St. Cecilia: The Elektra Recordings бесплатно без регистрации torrent

Если у вас наблюдаются проблемы со скриншотами, переходом по ссылками, скачиванием торрентов - проблемы в блокировщике рекламы AdBlock. #хорошегоДня!


Статистика раздачи
Размер:  446 MB   |    Зарегистрирован:  5 лет   |    .torrent скачан:  104 раза   |   
Раздают:  1  
   
Загрузка...
 
Автор Сообщение

AqvaGen


Stalk-Forrest Group / St. Cecilia: The Elektra Recordings (1969-70)

Жанр: Classic Rock, Psychedelic Rock
Страна-производитель диска: USA
Год издания: 2001
Издатель (лейбл): Rhino
Номер по каталогу: RHM2 7716
Страна: USA
Аудиокодек: FLAC (*.flac)
Тип рипа: tracks+.cue
Битрейт аудио: lossless
Продолжительность: 1:13:56
Источник (релизер): what.cd()
Наличие сканов в содержимом раздачи: да
Треклист:
01. What Is Quicksand? (3:20)
02. I'm On The Lamb (3:01)
03. Gil Blanco County (3:37)
04. Donovan's Monkey (3:44)
05. Ragamuffin Dumplin' (5:13)
06. Curse Of The Hidden Mirrors (3:17)
07. Arthur Comics (3:11)
08. A Fact About Sneakers (7:53)
09. St. Cecilia (6:49)
10. Ragamuffin Dumplin' (Original Version) (5:19)
11. I'm On The Lamb (Original Version) (2:54)
12. Curse Of The Hidden Mirrors (Original Version) (3:17)
13. Bonomo's Turkish Taffy (2:15)
14. Gil Blanco County (Original Version) (3:38)
15. St. Cecilia (Original Version) (6:47)
16. A Fact About Sneakers (Original Version) (3:10)
17. What Is Quicksand? (Mono Single Version) (3:21)
18. Arthur Comics (Mono Single Version) (3:10)
  
Exact Audio Copy V1.0 beta 3 from 29. August 2011

EAC extraction logfile from 24. July 2012, 17:24

Stalk-Forrest Group / St. Cecilia: The Elektra Recordings

Used drive : hp DVD A DH16ABSH Adapter: 0 ID: 0

Read mode : SecureUtilize accurate stream : YesDefeat audio cache : YesMake use of C2 pointers : No

Read offset correction : 6Overread into Lead-In and Lead-Out : NoFill up missing offset samples with silence : YesDelete leading and trailing silent blocks : NoNull samples used in CRC calculations : YesUsed interface : Native Win32 interface for Win NT & 2000Gap handling : Appended to previous track

Used output format : User Defined EncoderSelected bitrate : 1024 kBit/sQuality : HighAdd ID3 tag : NoCommand line compressor : C:\Program Files (x86)\Exact Audio Copy\Flac\flac.exeAdditional command line options : -8 -V -T "ARTIST=%artist%" -T "TITLE=%title%" -T "ALBUM=%albumtitle%" -T "DATE=%year%" -T "TRACKNUMBER=%tracknr%" -T "GENRE=%genre%" -T "PERFORMER=%albuminterpret%" -T "COMPOSER=%composer%" %haslyrics%--tag-from-file=LYRICS="%lyricsfile%"%haslyrics% -T "ALBUMARTIST=%albumartist%" -T "DISCNUMBER=%cdnumber%" -T "TOTALDISCS=%totalcds%" -T "TOTALTRACKS=%numtracks%" -T "COMMENT=%comment%" %source% -o %dest%

TOC of the extracted CD

Track | Start | Length | Start sector | End sector --------------------------------------------------------- 1 | 0:00.32 | 3:19.48 | 32 | 15004 2 | 3:20.05 | 3:00.50 | 15005 | 28554 3 | 6:20.55 | 3:37.00 | 28555 | 44829 4 | 9:57.55 | 3:44.12 | 44830 | 61641 5 | 13:41.67 | 5:12.68 | 61642 | 85109 6 | 18:54.60 | 3:17.22 | 85110 | 99906 7 | 22:12.07 | 3:11.28 | 99907 | 114259 8 | 25:23.35 | 7:53.02 | 114260 | 149736 9 | 33:16.37 | 6:48.43 | 149737 | 180379 10 | 40:05.05 | 5:19.20 | 180380 | 204324 11 | 45:24.25 | 2:54.20 | 204325 | 217394 12 | 48:18.45 | 3:17.32 | 217395 | 232201 13 | 51:36.02 | 2:14.63 | 232202 | 242314 14 | 53:50.65 | 3:37.47 | 242315 | 258636 15 | 57:28.37 | 6:47.10 | 258637 | 289171 16 | 64:15.47 | 3:10.05 | 289172 | 303426 17 | 67:25.52 | 3:21.20 | 303427 | 318521 18 | 70:46.72 | 3:10.18 | 318522 | 332789

Track 1

Filename C:\Rips\Stalk-Forrest Group - St. Cecilia - The Elektra Recordings (2001) [FLAC]\01 - What Is Quicksand.wav

Pre-gap length 0:00:02.42

Peak level 97.2 % Extraction speed 3.7 X Track quality 100.0 % Test CRC 193E019D Copy CRC 193E019D Accurately ripped (confidence 6) [C8833CEC] (AR v1) Copy OK

Track 2

Filename C:\Rips\Stalk-Forrest Group - St. Cecilia - The Elektra Recordings (2001) [FLAC]\02 - I'm On The Lamb.wav

Peak level 97.2 % Extraction speed 4.0 X Track quality 100.0 % Test CRC D2E4ED65 Copy CRC D2E4ED65 Accurately ripped (confidence 6) [940EEFA1] (AR v1) Copy OK

Track 3

Filename C:\Rips\Stalk-Forrest Group - St. Cecilia - The Elektra Recordings (2001) [FLAC]\03 - Gil Blanco County.wav

Peak level 97.2 % Extraction speed 4.4 X Track quality 100.0 % Test CRC 4871071C Copy CRC 4871071C Accurately ripped (confidence 6) [91014D75] (AR v1) Copy OK

Track 4

Filename C:\Rips\Stalk-Forrest Group - St. Cecilia - The Elektra Recordings (2001) [FLAC]\04 - Donovan's Monkey.wav

Peak level 97.2 % Extraction speed 4.7 X Track quality 100.0 % Test CRC D3937F7E Copy CRC D3937F7E Accurately ripped (confidence 6) [EE50AF9D] (AR v1) Copy OK

Track 5

Filename C:\Rips\Stalk-Forrest Group - St. Cecilia - The Elektra Recordings (2001) [FLAC]\05 - Ragamuffin Dumplin'.wav

Peak level 97.2 % Extraction speed 5.2 X Track quality 100.0 % Test CRC BE704FBA Copy CRC BE704FBA Accurately ripped (confidence 6) [9EBD5F16] (AR v1) Copy OK

Track 6

Filename C:\Rips\Stalk-Forrest Group - St. Cecilia - The Elektra Recordings (2001) [FLAC]\06 - Curse Of The Hidden Mirrors.wav

Peak level 97.2 % Extraction speed 5.2 X Track quality 100.0 % Test CRC 2CE24683 Copy CRC 2CE24683 Accurately ripped (confidence 6) [F193A8F1] (AR v1) Copy OK

Track 7

Filename C:\Rips\Stalk-Forrest Group - St. Cecilia - The Elektra Recordings (2001) [FLAC]\07 - Arthur Comics.wav

Peak level 97.2 % Extraction speed 5.4 X Track quality 100.0 % Test CRC 4B8F9602 Copy CRC 4B8F9602 Accurately ripped (confidence 6) [E6A9FBC4] (AR v1) Copy OK

Track 8

Filename C:\Rips\Stalk-Forrest Group - St. Cecilia - The Elektra Recordings (2001) [FLAC]\08 - A Fact About Sneakers.wav

Pre-gap length 0:00:01.06

Peak level 97.2 % Extraction speed 6.3 X Track quality 100.0 % Test CRC 1A7DE1C5 Copy CRC 1A7DE1C5 Accurately ripped (confidence 6) [BEC049E1] (AR v1) Copy OK

Track 9

Filename C:\Rips\Stalk-Forrest Group - St. Cecilia - The Elektra Recordings (2001) [FLAC]\09 - St. Cecilia.wav

Peak level 97.2 % Extraction speed 6.7 X Track quality 100.0 % Test CRC 8123C252 Copy CRC 8123C252 Accurately ripped (confidence 6) [832457A8] (AR v1) Copy OK

Track 10

Filename C:\Rips\Stalk-Forrest Group - St. Cecilia - The Elektra Recordings (2001) [FLAC]\10 - Ragamuffin Dumplin' (Original Version).wav

Pre-gap length 0:00:04.53

Peak level 97.2 % Extraction speed 6.9 X Track quality 100.0 % Test CRC A6141B6A Copy CRC A6141B6A Accurately ripped (confidence 6) [73CF5929] (AR v1) Copy OK

Track 11

Filename C:\Rips\Stalk-Forrest Group - St. Cecilia - The Elektra Recordings (2001) [FLAC]\11 - I'm On The Lamb (Original Version).wav

Peak level 97.2 % Extraction speed 4.9 X Track quality 99.9 % Test CRC 1E816461 Copy CRC 1E816461 Accurately ripped (confidence 6) [2FE68E68] (AR v1) Copy OK

Track 12

Filename C:\Rips\Stalk-Forrest Group - St. Cecilia - The Elektra Recordings (2001) [FLAC]\12 - Curse Of The Hidden Mirrors (Original Version).wav

Pre-gap length 0:00:01.97

Peak level 97.2 % Extraction speed 6.8 X Track quality 100.0 % Test CRC 0E0A70BB Copy CRC 0E0A70BB Accurately ripped (confidence 6) [13AAB3A3] (AR v1) Copy OK

Track 13

Filename C:\Rips\Stalk-Forrest Group - St. Cecilia - The Elektra Recordings (2001) [FLAC]\13 - Bonomo's Turkish Taffy.wav

Pre-gap length 0:00:01.00

Peak level 97.2 % Extraction speed 6.4 X Track quality 100.0 % Test CRC 25294CCF Copy CRC 25294CCF Accurately ripped (confidence 6) [639A7221] (AR v1) Copy OK

Track 14

Filename C:\Rips\Stalk-Forrest Group - St. Cecilia - The Elektra Recordings (2001) [FLAC]\14 - Gil Blanco County (Original Version).wav

Pre-gap length 0:00:01.17

Peak level 97.2 % Extraction speed 7.1 X Track quality 100.0 % Test CRC 49BB04C5 Copy CRC 49BB04C5 Accurately ripped (confidence 6) [B87A839E] (AR v1) Copy OK

Track 15

Filename C:\Rips\Stalk-Forrest Group - St. Cecilia - The Elektra Recordings (2001) [FLAC]\15 - St. Cecilia (Original Version).wav

Peak level 97.2 % Extraction speed 7.9 X Track quality 100.0 % Test CRC 68499C15 Copy CRC 68499C15 Accurately ripped (confidence 6) [C3DD8B4D] (AR v1) Copy OK

Track 16

Filename C:\Rips\Stalk-Forrest Group - St. Cecilia - The Elektra Recordings (2001) [FLAC]\16 - A Fact About Sneakers (Original Version).wav

Pre-gap length 0:00:01.33

Peak level 97.2 % Extraction speed 7.4 X Track quality 100.0 % Test CRC B4487BCE Copy CRC B4487BCE Accurately ripped (confidence 6) [CDBF5C77] (AR v1) Copy OK

Track 17

Filename C:\Rips\Stalk-Forrest Group - St. Cecilia - The Elektra Recordings (2001) [FLAC]\17 - What Is Quicksand (Mono Single Version).wav

Pre-gap length 0:00:02.80

Peak level 97.2 % Extraction speed 7.5 X Track quality 100.0 % Test CRC 0EDDD2D4 Copy CRC 0EDDD2D4 Accurately ripped (confidence 6) [7D8FBB3E] (AR v1) Copy OK

Track 18

Filename C:\Rips\Stalk-Forrest Group - St. Cecilia - The Elektra Recordings (2001) [FLAC]\18 - Arthur Comics (Mono Single Version).wav

Pre-gap length 0:00:01.46

Peak level 97.2 % Extraction speed 5.9 X Track quality 99.9 % Test CRC EDC51972 Copy CRC EDC51972 Accurately ripped (confidence 6) [B8BEB89E] (AR v1) Copy OK

All tracks accurately ripped

No errors occurred

End of status report

==== Log checksum 80C074BF7774BC8DC54F5B4E6D3D861C6E46D637B0BD360250CD6FBE4A642D95 ====
  
REM GENRE RockREM DATE 2001REM DISCID 01115512REM COMMENT "ExactAudioCopy v1.0b3"FILE "01 - What Is Quicksand.wav" WAVE TRACK 01 AUDIO PREGAP 00:00:32 INDEX 01 00:00:00FILE "02 - I'm On The Lamb.wav" WAVE TRACK 02 AUDIO INDEX 01 00:00:00FILE "03 - Gil Blanco County.wav" WAVE TRACK 03 AUDIO INDEX 01 00:00:00FILE "04 - Donovan's Monkey.wav" WAVE TRACK 04 AUDIO INDEX 01 00:00:00FILE "05 - Ragamuffin Dumplin'.wav" WAVE TRACK 05 AUDIO INDEX 01 00:00:00FILE "06 - Curse Of The Hidden Mirrors.wav" WAVE TRACK 06 AUDIO INDEX 01 00:00:00FILE "07 - Arthur Comics.wav" WAVE TRACK 07 AUDIO INDEX 01 00:00:00 TRACK 08 AUDIO INDEX 00 03:10:23FILE "08 - A Fact About Sneakers.wav" WAVE INDEX 01 00:00:00FILE "09 - St. Cecilia.wav" WAVE TRACK 09 AUDIO INDEX 01 00:00:00 TRACK 10 AUDIO INDEX 00 06:44:03FILE "10 - Ragamuffin Dumplin' (Original Version).wav" WAVE INDEX 01 00:00:00FILE "11 - I'm On The Lamb (Original Version).wav" WAVE TRACK 11 AUDIO INDEX 01 00:00:00 TRACK 12 AUDIO INDEX 00 02:52:22FILE "12 - Curse Of The Hidden Mirrors (Original Version).wav" WAVE INDEX 01 00:00:00 TRACK 13 AUDIO INDEX 00 03:16:32FILE "13 - Bonomo's Turkish Taffy.wav" WAVE INDEX 01 00:00:00 TRACK 14 AUDIO INDEX 00 02:13:50FILE "14 - Gil Blanco County (Original Version).wav" WAVE INDEX 01 00:00:00FILE "15 - St. Cecilia (Original Version).wav" WAVE TRACK 15 AUDIO INDEX 01 00:00:00 TRACK 16 AUDIO INDEX 00 06:45:60FILE "16 - A Fact About Sneakers (Original Version).wav" WAVE INDEX 01 00:00:00 TRACK 17 AUDIO INDEX 00 03:07:20FILE "17 - What Is Quicksand (Mono Single Version).wav" WAVE INDEX 01 00:00:00 TRACK 18 AUDIO INDEX 00 03:19:60FILE "18 - Arthur Comics (Mono Single Version).wav" WAVE INDEX 01 00:00:00
St. Cecilia: The Elektra Recordings is an album by the American rock band Stalk-Forrest Group, which would later become the successful hard rock band Blue Öyster Cult. It was recorded in 1970, but it was not officially released until 2001.

The band (originally known as 'Soft White Underbelly') had recorded demos for Elektra Records in 1969. When original vocalist Les Braunstein left the band, Elektra decided not to put out the recordings and ended their recording contract. Four of the 1969 tracks eventually surfaced as bonus tracks on the re-mastered version of the first Blue Öyster Cult album in 2001.

Manager Sandy Pearlman convinced Elektra Records to give the band — now fronted by vocalist Eric Bloom — another shot. Meanwhile, the band had changed its name to Oaxaca, and would soon change it again to Stalk-Forrest Group. Ultimately, after being presented with two different versions of the album, Elektra decided not to release it, and dropped the band from the label. Those recordings finally surfaced in a bootleg in the late 1990s. Confusingly enough, the bootleg was titled Curse of the Hidden Mirrors, after a song on the Elektra album, but Curse of the Hidden Mirror was also the title of a Blue Öyster Cult studio album from 2001.

Bass player Andrew Winters was fired from the band not long after the St. Cecilia sessions. He was replaced by Joe Bouchard, brother of drummer Albert Bouchard.

St. Cecilia was finally released in 2001 by Rhino Entertainment under the supervision of Roland Worthington Hand as RHM2 7716, in a limited, numbered edition of 5000 copies. It is now out of print. Radioactive Records have since reissued the album as St. Cecilia: The California Album.
Personnel

Eric Bloom aka "Jesse Python" - lead vocals, guitars
Donald Roeser aka "Buck Dharma" - lead guitar, vocals
Andrew Winters aka "Andy Panda" - bass, acoustic guitar on "St. Cecilia"
Allen Lanier aka "La Verne" - keyboards, guitar
Albert Bouchard aka "Prince Omega" - drums, vocals

The nicknames in quotes were given to the band members by manager Sandy Pearlman. Nearly all of the members hated the nicknames, with the exception of Donald Roeser, who continues to use "Buck Dharma" as his stage name.


Трекер:  [ 27-Июл-2012 06:21 ]

  

Скачать .torrent

Размер .torrent файла 20 KB


Размер: 446 MB
Хэш (hash) релиза: 3d42e13914f2a5f27edfe86f29cbc512e11cb3d6

Еще никто не оставлял запись к записи скачать торрент Stalk-Forrest Group - St. Cecilia: The Elektra Recordings . Будь первым!

!Обратная связь