Скачать через торрент музыку Roger Chapman & The Short List - A Turn Unstoned - 1998, APE бесплатно без регистрации torrent

Если у вас наблюдаются проблемы со скриншотами, переходом по ссылками, скачиванием торрентов - проблемы в блокировщике рекламы AdBlock. #хорошегоДня!


Статистика раздачи
Размер:  418 MB   |    Зарегистрирован:  5 лет   |    .torrent скачан:  64 раза   |   
Раздают:  1  
   
Загрузка...
 
Автор Сообщение

AqvaGen


Roger Chapman & The Short List / A Turn Unstoned

Жанр: Rock
Страна-производитель диска: Germany
Год издания: 1998
Издатель (лейбл): SPV Recordimgs
Номер по каталогу: SPV 085-18952 CD
Страна: England
Аудиокодек: APE (*.ape)
Тип рипа: image+.cue
Битрейт аудио: lossless
Продолжительность: 53:29

Наличие сканов в содержимом раздачи: да
Треклист:
01 Riot On The Western Front
02 Wicked World
03 The Same Old Rock 'N' Roll
04 'X' -Town
05 Do I Leave A Stone Unturned?
06 Ready For You
07 Glory Ride
08 Vapour Trails
09 City Of Souls
10 Toucan Play
11 Drive
  
Exact Audio Copy V0.99 prebeta 5 from 4. May 2009

Отчёт EAC об извлечении, выполненном 24. июля 2012, 21:37

Roger Chapman And The Shortlist / A Turn Unstoned?

Дисковод: Optiarc DVD RW AD-7280S Adapter: 2 ID: 0

Режим чтения : ДостоверностьИспользование точного потока : ДаОтключение кэша аудио : ДаИспользование указателей C2 : Нет

Коррекция смещения при чтении : 48Способность читать области Lead-in и Lead-out : НетЗаполнение пропущенных сэмплов тишиной : ДаУдаление блоков с тишиной в начале и конце : НетПри вычислениях CRC использовались нулевые сэмплы : ДаИнтерфейс : Установленный внешний ASPI-интерфейс

Выходной формат : Внутренние WAV-операцииФормат сэмплов : 44.100 Гц; 16 бит; стерео

TOC извлечённого CD

Трек | Старт | Длительность | Начальный сектор | Конечный сектор --------------------------------------------------------------------- 1 | 0:00.00 | 4:32.02 | 0 | 20401 2 | 4:32.02 | 4:06.37 | 20402 | 38888 3 | 8:38.39 | 4:34.30 | 38889 | 59468 4 | 13:12.69 | 4:11.62 | 59469 | 78355 5 | 17:24.56 | 5:37.55 | 78356 | 103685 6 | 23:02.36 | 5:52.45 | 103686 | 130130 7 | 28:55.06 | 5:54.51 | 130131 | 156731 8 | 34:49.57 | 5:03.07 | 156732 | 179463 9 | 39:52.64 | 4:50.53 | 179464 | 201266 10 | 44:43.42 | 4:04.08 | 201267 | 219574 11 | 48:47.50 | 4:40.69 | 219575 | 240643

Характеристики диапазона извлечения и сообщения об ошибках

Выбранный диапазон

Имя файла H:\Раздачи\Roger Chapman & The Short List - A Turn Unstoned 1998\Roger Chapman And The Shortlist - A Turn Unstoned.wav

Пиковый уровень 95.5 % Качество диапазона 100.0 % CRC теста C38BC659 CRC копии C38BC659 Копирование... OK

Ошибок не произошло

AccurateRip: сводка

Трек 1 точное извлечение (доверие 6) [9BCDFF01]Трек 2 точное извлечение (доверие 6) [4B856FE7]Трек 3 точное извлечение (доверие 6) [0B5ED5AC]Трек 4 точное извлечение (доверие 6) [8E41FD28]Трек 5 точное извлечение (доверие 6) [535D3E82]Трек 6 точное извлечение (доверие 6) [2DE7962F]Трек 7 точное извлечение (доверие 6) [19B62DCD]Трек 8 точное извлечение (доверие 6) [E5C382D3]Трек 9 точное извлечение (доверие 6) [DFCC54DD]Трек 10 точное извлечение (доверие 6) [38B37A2F]Трек 11 точное извлечение (доверие 6) [647DBAD2]

Все треки извлечены точно

Конец отчёта
  
REM GENRE RockREM DATE 1998REM DISCID A00C880BREM COMMENT "ExactAudioCopy v0.99pb5"PERFORMER "Roger Chapman And The Shortlist"TITLE "A Turn Unstoned?"FILE "Roger Chapman And The Shortlist - A Turn Unstoned.wav" WAVE TRACK 01 AUDIO TITLE "Riot On The Western Front" PERFORMER "Roger Chapman And The Shortlist" INDEX 01 00:00:00 TRACK 02 AUDIO TITLE "Wicked World" PERFORMER "Roger Chapman And The Shortlist" INDEX 00 04:32:00 INDEX 01 04:32:02 TRACK 03 AUDIO TITLE "The Same Old Rock 'N' Roll" PERFORMER "Roger Chapman And The Shortlist" INDEX 01 08:38:39 TRACK 04 AUDIO TITLE "'X' -Town" PERFORMER "Roger Chapman And The Shortlist" INDEX 01 13:12:69 TRACK 05 AUDIO TITLE "Do I Leave A Stone Unturned?" PERFORMER "Roger Chapman And The Shortlist" INDEX 00 17:24:54 INDEX 01 17:24:56 TRACK 06 AUDIO TITLE "Ready For You" PERFORMER "Roger Chapman And The Shortlist" INDEX 01 23:02:36 TRACK 07 AUDIO TITLE "Glory Ride" PERFORMER "Roger Chapman And The Shortlist" INDEX 01 28:55:06 TRACK 08 AUDIO TITLE "Vapour Trails" PERFORMER "Roger Chapman And The Shortlist" INDEX 01 34:49:57 TRACK 09 AUDIO TITLE "City Of Souls" PERFORMER "Roger Chapman And The Shortlist" INDEX 00 39:52:63 INDEX 01 39:52:64 TRACK 10 AUDIO TITLE "Toucan Play" PERFORMER "Roger Chapman And The Shortlist" INDEX 00 44:43:40 INDEX 01 44:43:42 TRACK 11 AUDIO TITLE "Drive" PERFORMER "Roger Chapman And The Shortlist" INDEX 00 48:47:49 INDEX 01 48:47:50
  


Трекер:  [ 27-Июл-2012 06:21 ]

  

Скачать .torrent

Размер .torrent файла 17 KB


Размер: 418 MB
Хэш (hash) релиза: 315a1346ea57a1befb1d3931756af494ffcfb062

Еще никто не оставлял запись к записи скачать торрент Roger Chapman & The Short List - A Turn Unstoned - 1998, APE . Будь первым!

!Обратная связь