Скачать через торрент музыку Streetwalkers - Downtown Flyers 1975 - 2002, APE бесплатно без регистрации torrent

Если у вас наблюдаются проблемы со скриншотами, переходом по ссылками, скачиванием торрентов - проблемы в блокировщике рекламы AdBlock. #хорошегоДня!


Статистика раздачи
Размер:  251 MB   |    Зарегистрирован:  5 лет 3 месяца   |    .torrent скачан:  59 раз   |   
Раздают:  1  
   
Загрузка...
 
Автор Сообщение

AqvaGen


Streetwalkers / Downtown Flyers 1975

Жанр: Rock
Страна-производитель диска: Great Britain
Год издания: 2002
Издатель (лейбл): BGO Records
Номер по каталогу: BGOCD542
Страна: England
Аудиокодек: APE (*.ape)
Тип рипа: image+.cue
Битрейт аудио: lossless
Продолжительность: 41:05

Наличие сканов в содержимом раздачи: да
Треклист:
01 Downtown Flyers
02 Toenail Draggin'
03 Raingame
04 Miller
05 Crawfish
06 Walking on Waters
07 Gypsy Moon
08 Burn It Down
09 Ace O'Spades
  
Exact Audio Copy V0.99 prebeta 5 from 4. May 2009

Отчёт EAC об извлечении, выполненном 25. июля 2012, 6:58

Streetwalkers / Downtown Flyers

Дисковод: Optiarc DVD RW AD-7280S Adapter: 2 ID: 0

Режим чтения : ДостоверностьИспользование точного потока : ДаОтключение кэша аудио : ДаИспользование указателей C2 : Нет

Коррекция смещения при чтении : 48Способность читать области Lead-in и Lead-out : НетЗаполнение пропущенных сэмплов тишиной : ДаУдаление блоков с тишиной в начале и конце : НетПри вычислениях CRC использовались нулевые сэмплы : ДаИнтерфейс : Установленный внешний ASPI-интерфейс

Выходной формат : Внутренние WAV-операцииФормат сэмплов : 44.100 Гц; 16 бит; стерео

TOC извлечённого CD

Трек | Старт | Длительность | Начальный сектор | Конечный сектор --------------------------------------------------------------------- 1 | 0:00.00 | 3:58.68 | 0 | 17917 2 | 3:58.68 | 4:17.67 | 17918 | 37259 3 | 8:16.60 | 3:03.52 | 37260 | 51036 4 | 11:20.37 | 3:55.57 | 51037 | 68718 5 | 15:16.19 | 4:34.59 | 68719 | 89327 6 | 19:51.03 | 5:56.46 | 89328 | 116073 7 | 25:47.49 | 4:42.34 | 116074 | 137257 8 | 30:30.08 | 7:59.16 | 137258 | 173198 9 | 38:29.24 | 2:35.19 | 173199 | 184842

Характеристики диапазона извлечения и сообщения об ошибках

Выбранный диапазон

Имя файла H:\Раздачи\Streetwalkers - Downtown Flyers 1975\Streetwalkers - Downtown Flyers.wav

Пиковый уровень 96.6 % Качество диапазона 99.9 % CRC теста FADDE60D CRC копии FADDE60D Копирование... OK

Ошибок не произошло

AccurateRip: сводка

Трек 1 точное извлечение (доверие 3) [E8039D35]Трек 2 точное извлечение (доверие 3) [C38D05B8]Трек 3 точное извлечение (доверие 3) [EA5AA6B1]Трек 4 точное извлечение (доверие 3) [47A1C74A]Трек 5 точное извлечение (доверие 3) [95C9B7B4]Трек 6 точное извлечение (доверие 3) [6E362420]Трек 7 точное извлечение (доверие 3) [38F78E68]Трек 8 точное извлечение (доверие 3) [1A84DFAD]Трек 9 точное извлечение (доверие 3) [8529D206]

Все треки извлечены точно

Конец отчёта
  
REM GENRE RockREM DATE 1975REM DISCID 7509A009REM COMMENT "ExactAudioCopy v0.99pb5"PERFORMER "Streetwalkers"TITLE "Downtown Flyers"FILE "Streetwalkers - Downtown Flyers.wav" WAVE TRACK 01 AUDIO TITLE "Downtown Flyers" PERFORMER "Streetwalkers" INDEX 01 00:00:00 TRACK 02 AUDIO TITLE "Toenail Draggin'" PERFORMER "Streetwalkers" INDEX 01 03:58:68 TRACK 03 AUDIO TITLE "Raingame" PERFORMER "Streetwalkers" INDEX 01 08:16:60 TRACK 04 AUDIO TITLE "Miller" PERFORMER "Streetwalkers" INDEX 01 11:20:37 TRACK 05 AUDIO TITLE "Crawfish" PERFORMER "Streetwalkers" INDEX 01 15:16:19 TRACK 06 AUDIO TITLE "Walking on Waters" PERFORMER "Streetwalkers" INDEX 01 19:51:03 TRACK 07 AUDIO TITLE "Gypsy Moon" PERFORMER "Streetwalkers" INDEX 01 25:47:49 TRACK 08 AUDIO TITLE "Burn It Down" PERFORMER "Streetwalkers" INDEX 01 30:30:08 TRACK 09 AUDIO TITLE "Ace O'Spades" PERFORMER "Streetwalkers" INDEX 01 38:29:24
  


Трекер:  [ 27-Июл-2012 06:20 ]

  

Скачать .torrent

Размер .torrent файла 21 KB


Размер: 251 MB
Хэш (hash) релиза: f9183b6c465ea47f7f111bb4337df7537819522d

Еще никто не оставлял запись к записи скачать торрент Streetwalkers - Downtown Flyers 1975 - 2002, APE . Будь первым!

!Обратная связь