Скачать через торрент музыку Episode Six - The Complete Episode Six: The Roots of Deep Purple бесплатно без регистрации torrent

Если у вас наблюдаются проблемы со скриншотами, переходом по ссылками, скачиванием торрентов - проблемы в блокировщике рекламы AdBlock. #хорошегоДня!


Статистика раздачи
Размер:  466 MB   |    Зарегистрирован:  5 лет   |    .torrent скачан:  138 раз   |   
Раздают:  1  
   
Загрузка...
 
Автор Сообщение

AqvaGen


Episode Six / The Roots of Deep Purple - The Complete Episode Six (1965-1969)

Жанр: Rock
Страна-производитель диска: UK
Год издания: 1991
Издатель (лейбл): Sequel Records
Номер по каталогу: NEX CD 156
Страна: UK
Аудиокодек: FLAC (*.flac)
Тип рипа: tracks+.cue
Битрейт аудио: lossless
Продолжительность: 1:18:14
Источник (релизер): what.cd()
Наличие сканов в содержимом раздачи: нет
Треклист:
01. My Babe (Previously Unissued) (2:54)
02. Put Yourself In My Place (1966) (2:32)
03. That's All I Want (1966) (2:33)
04. I Hear Trumpets Blow (1966) (2:31)
05. True Love Is Funny That Way (1966) (2:34)
06. Here There And Everywhere (1966) (2:13)
07. Mighty Morris Ten (1966) (2:25)
08. I Will Warm Your Heart (1966) (2:55)
09. Incense (1966) (2:44)
10. Love Hate Revenge (1967) (2:56)
11. Baby Baby Baby (1967) (2:55)
12. Morning Dew (1967) (2:58)
13. Sunshine Girl (1967) (2:55)
14. I Won't Hurt You (1967) (2:33)
15. U.F.O. (1967) (2:51)
16. I Can See Through You (1967) (3:26)
17. When I Fall In Love (1967) (1:58)
18. The Way You Look Tonight (Previously Unissued) (2:22)
19. My Little Red Book (Previously Unissued) (2:31)
20. Plastic Love (Previously Unissued) (2:31)
21. Time And Motion Man (Previously Unissued) (2:37)
22. Only Lonely People (Previously Unissued) (3:18)
23. Little One (1968) (2:46)
24. Wide Smiles (1968) (1:52)
25. Lucky Sunday (1968) (3:45)
26. Mr. Universe (1968) (4:20)
27. Mozart vs The Rest (1969) (3:02)
28. Jack D'Or (1969) (3:17)
  
Exact Audio Copy V1.0 beta 3 from 29. August 2011

EAC extraction logfile from 24. July 2012, 6:32

Episode Six / The Roots Of Deep Purple - The Complete Episode Six

Used drive : hp DVD A DH16ABSH Adapter: 0 ID: 0

Read mode : SecureUtilize accurate stream : YesDefeat audio cache : YesMake use of C2 pointers : No

Read offset correction : 6Overread into Lead-In and Lead-Out : NoFill up missing offset samples with silence : YesDelete leading and trailing silent blocks : NoNull samples used in CRC calculations : YesUsed interface : Native Win32 interface for Win NT & 2000Gap handling : Appended to previous track

Used output format : User Defined EncoderSelected bitrate : 1024 kBit/sQuality : HighAdd ID3 tag : NoCommand line compressor : C:\Program Files (x86)\Exact Audio Copy\Flac\flac.exeAdditional command line options : -8 -V -T "ARTIST=%artist%" -T "TITLE=%title%" -T "ALBUM=%albumtitle%" -T "DATE=%year%" -T "TRACKNUMBER=%tracknr%" -T "GENRE=%genre%" -T "PERFORMER=%albuminterpret%" -T "COMPOSER=%composer%" %haslyrics%--tag-from-file=LYRICS="%lyricsfile%"%haslyrics% -T "ALBUMARTIST=%albumartist%" -T "DISCNUMBER=%cdnumber%" -T "TOTALDISCS=%totalcds%" -T "TOTALTRACKS=%numtracks%" -T "COMMENT=%comment%" %source% -o %dest%

TOC of the extracted CD

Track | Start | Length | Start sector | End sector --------------------------------------------------------- 1 | 0:00.00 | 2:54.20 | 0 | 13069 2 | 2:54.20 | 2:32.20 | 13070 | 24489 3 | 5:26.40 | 2:33.00 | 24490 | 35964 4 | 7:59.40 | 2:30.70 | 35965 | 47284 5 | 10:30.35 | 2:33.47 | 47285 | 58806 6 | 13:04.07 | 2:12.58 | 58807 | 68764 7 | 15:16.65 | 2:24.57 | 68765 | 79621 8 | 17:41.47 | 2:54.63 | 79622 | 92734 9 | 20:36.35 | 2:44.12 | 92735 | 105046 10 | 23:20.47 | 2:56.18 | 105047 | 118264 11 | 26:16.65 | 2:54.67 | 118265 | 131381 12 | 29:11.57 | 2:58.23 | 131382 | 144754 13 | 32:10.05 | 2:54.40 | 144755 | 157844 14 | 35:04.45 | 2:33.22 | 157845 | 169341 15 | 37:37.67 | 2:51.28 | 169342 | 182194 16 | 40:29.20 | 3:26.37 | 182195 | 197681 17 | 43:55.57 | 1:57.73 | 197682 | 206529 18 | 45:53.55 | 2:21.62 | 206530 | 217166 19 | 48:15.42 | 2:31.08 | 217167 | 228499 20 | 50:46.50 | 2:31.00 | 228500 | 239824 21 | 53:17.50 | 2:37.02 | 239825 | 251601 22 | 55:54.52 | 3:18.08 | 251602 | 266459 23 | 59:12.60 | 2:45.57 | 266460 | 278891 24 | 61:58.42 | 1:51.43 | 278892 | 287259 25 | 63:50.10 | 3:44.70 | 287260 | 304129 26 | 67:35.05 | 4:20.32 | 304130 | 323661 27 | 71:55.37 | 3:02.05 | 323662 | 337316 28 | 74:57.42 | 3:16.63 | 337317 | 352079

Track 1

Filename C:\Rips\The Roots Of Deep Purple - The Complete Episode Six (1991) [FLAC]\01 - My Babe (Previously Unissued).wav

Pre-gap length 0:00:02.00

Peak level 97.8 % Extraction speed 2.7 X Track quality 99.9 % Test CRC BA246C4A Copy CRC BA246C4A Accurately ripped (confidence 7) [6D3E9003] (AR v1) Copy OK

Track 2

Filename C:\Rips\The Roots Of Deep Purple - The Complete Episode Six (1991) [FLAC]\02 - Put Yourself In My Place (1966).wav

Pre-gap length 0:00:02.80

Peak level 93.4 % Extraction speed 3.7 X Track quality 100.0 % Test CRC 2FF16C01 Copy CRC 2FF16C01 Accurately ripped (confidence 7) [59B4742A] (AR v1) Copy OK

Track 3

Filename C:\Rips\The Roots Of Deep Purple - The Complete Episode Six (1991) [FLAC]\03 - That's All I Want (1966).wav

Pre-gap length 0:00:02.90

Peak level 95.1 % Extraction speed 4.0 X Track quality 100.0 % Test CRC AE00F109 Copy CRC AE00F109 Accurately ripped (confidence 7) [F33AF03E] (AR v1) Copy OK

Track 4

Filename C:\Rips\The Roots Of Deep Purple - The Complete Episode Six (1991) [FLAC]\04 - I Hear Trumpets Blow (1966).wav

Pre-gap length 0:00:01.77

Peak level 99.8 % Extraction speed 4.1 X Track quality 100.0 % Test CRC 4650283C Copy CRC 4650283C Accurately ripped (confidence 7) [AD15F4E1] (AR v1) Copy OK

Track 5

Filename C:\Rips\The Roots Of Deep Purple - The Complete Episode Six (1991) [FLAC]\05 - True Love Is Funny That Way (1966).wav

Pre-gap length 0:00:01.66

Peak level 98.7 % Extraction speed 4.2 X Track quality 100.0 % Test CRC DC552E59 Copy CRC DC552E59 Accurately ripped (confidence 7) [B2128E71] (AR v1) Copy OK

Track 6

Filename C:\Rips\The Roots Of Deep Purple - The Complete Episode Six (1991) [FLAC]\06 - Here There And Everywhere (1966).wav

Pre-gap length 0:00:03.00

Peak level 93.4 % Extraction speed 3.1 X Track quality 99.9 % Test CRC 2482A78E Copy CRC 2482A78E Accurately ripped (confidence 7) [7054E9AA] (AR v1) Copy OK

Track 7

Filename C:\Rips\The Roots Of Deep Purple - The Complete Episode Six (1991) [FLAC]\07 - Mighty Morris Ten (1966).wav

Pre-gap length 0:00:02.84

Peak level 95.0 % Extraction speed 3.3 X Track quality 99.9 % Test CRC 991AF0AF Copy CRC 991AF0AF Accurately ripped (confidence 7) [2AC66A6A] (AR v1) Copy OK

Track 8

Filename C:\Rips\The Roots Of Deep Purple - The Complete Episode Six (1991) [FLAC]\08 - I Will Warm Your Heart (1966).wav

Pre-gap length 0:00:02.69

Peak level 95.6 % Extraction speed 4.9 X Track quality 100.0 % Test CRC 3487F7BB Copy CRC 3487F7BB Accurately ripped (confidence 7) [6137F8CA] (AR v1) Copy OK

Track 9

Filename C:\Rips\The Roots Of Deep Purple - The Complete Episode Six (1991) [FLAC]\09 - Incense (1966).wav

Pre-gap length 0:00:01.77

Peak level 93.8 % Extraction speed 5.0 X Track quality 100.0 % Test CRC 43EEEBB4 Copy CRC 43EEEBB4 Accurately ripped (confidence 7) [C9B202D0] (AR v1) Copy OK

Track 10

Filename C:\Rips\The Roots Of Deep Purple - The Complete Episode Six (1991) [FLAC]\10 - Love Hate Revenge (1967).wav

Pre-gap length 0:00:01.53

Peak level 88.8 % Extraction speed 5.2 X Track quality 100.0 % Test CRC 14EA42C4 Copy CRC 14EA42C4 Accurately ripped (confidence 7) [CE95B5CA] (AR v1) Copy OK

Track 11

Filename C:\Rips\The Roots Of Deep Purple - The Complete Episode Six (1991) [FLAC]\11 - Baby Baby Baby (1967).wav

Pre-gap length 0:00:02.13

Peak level 97.7 % Extraction speed 5.3 X Track quality 100.0 % Test CRC E099C11E Copy CRC E099C11E Accurately ripped (confidence 7) [C1308B83] (AR v1) Copy OK

Track 12

Filename C:\Rips\The Roots Of Deep Purple - The Complete Episode Six (1991) [FLAC]\12 - Morning Dew (1967).wav

Pre-gap length 0:00:01.68

Peak level 93.8 % Extraction speed 4.2 X Track quality 99.9 % Test CRC F2B2DE4F Copy CRC F2B2DE4F Accurately ripped (confidence 7) [9C3B0F3F] (AR v1) Copy OK

Track 13

Filename C:\Rips\The Roots Of Deep Purple - The Complete Episode Six (1991) [FLAC]\13 - Sunshine Girl (1967).wav

Pre-gap length 0:00:02.33

Peak level 99.6 % Extraction speed 5.7 X Track quality 100.0 % Test CRC AD435B1F Copy CRC AD435B1F Accurately ripped (confidence 7) [B4FA6804] (AR v1) Copy OK

Track 14

Filename C:\Rips\The Roots Of Deep Purple - The Complete Episode Six (1991) [FLAC]\14 - I Won't Hurt You (1967).wav

Pre-gap length 0:00:01.93

Peak level 99.8 % Extraction speed 5.7 X Track quality 100.0 % Test CRC FC2B86D7 Copy CRC FC2B86D7 Accurately ripped (confidence 6) [EB1B6BC3] (AR v1) Copy OK

Track 15

Filename C:\Rips\The Roots Of Deep Purple - The Complete Episode Six (1991) [FLAC]\15 - U.F.O. (1967).wav

Pre-gap length 0:00:02.73

Peak level 99.7 % Extraction speed 6.0 X Track quality 100.0 % Test CRC 1715AD39 Copy CRC 1715AD39 Accurately ripped (confidence 7) [8DAF1667] (AR v1) Copy OK

Track 16

Filename C:\Rips\The Roots Of Deep Purple - The Complete Episode Six (1991) [FLAC]\16 - I Can See Through You (1967).wav

Pre-gap length 0:00:02.00

Peak level 97.9 % Extraction speed 4.8 X Track quality 99.9 % Test CRC 827064CD Copy CRC 827064CD Accurately ripped (confidence 7) [DBA6CB4F] (AR v1) Copy OK

Track 17

Filename C:\Rips\The Roots Of Deep Purple - The Complete Episode Six (1991) [FLAC]\17 - When I Fall In Love (1967).wav

Pre-gap length 0:00:02.22

Peak level 90.8 % Extraction speed 5.8 X Track quality 100.0 % Test CRC D1CF6270 Copy CRC D1CF6270 Accurately ripped (confidence 7) [BAC2F9CC] (AR v1) Copy OK

Track 18

Filename C:\Rips\The Roots Of Deep Purple - The Complete Episode Six (1991) [FLAC]\18 - The Way You Look Tonight (Previously Unissued).wav

Pre-gap length 0:00:02.86

Peak level 97.6 % Extraction speed 6.0 X Track quality 100.0 % Test CRC 7C5D5EA2 Copy CRC 7C5D5EA2 Accurately ripped (confidence 7) [C2212F9D] (AR v1) Copy OK

Track 19

Filename C:\Rips\The Roots Of Deep Purple - The Complete Episode Six (1991) [FLAC]\19 - My Little Red Book (Previously Unissued).wav

Pre-gap length 0:00:02.60

Peak level 97.0 % Extraction speed 6.4 X Track quality 100.0 % Test CRC 3788FF83 Copy CRC 3788FF83 Accurately ripped (confidence 7) [805B70EC] (AR v1) Copy OK

Track 20

Filename C:\Rips\The Roots Of Deep Purple - The Complete Episode Six (1991) [FLAC]\20 - Plastic Love (Previously Unissued).wav

Pre-gap length 0:00:02.86

Peak level 85.3 % Extraction speed 6.3 X Track quality 100.0 % Test CRC 8C0B5964 Copy CRC 8C0B5964 Accurately ripped (confidence 7) [393213D5] (AR v1) Copy OK

Track 21

Filename C:\Rips\The Roots Of Deep Purple - The Complete Episode Six (1991) [FLAC]\21 - Time And Motion Man (Previously Unissued).wav

Pre-gap length 0:00:02.17

Peak level 85.2 % Extraction speed 4.9 X Track quality 99.9 % Test CRC 1CDE712C Copy CRC 1CDE712C Accurately ripped (confidence 6) [B382FF08] (AR v1) Copy OK

Track 22

Filename C:\Rips\The Roots Of Deep Purple - The Complete Episode Six (1991) [FLAC]\22 - Only Lonely People (Previously Unissued).wav

Pre-gap length 0:00:02.49

Peak level 95.5 % Extraction speed 6.9 X Track quality 100.0 % Test CRC 85E10490 Copy CRC 85E10490 Accurately ripped (confidence 7) [40C0E655] (AR v1) Copy OK

Track 23

Filename C:\Rips\The Roots Of Deep Purple - The Complete Episode Six (1991) [FLAC]\23 - Little One (1968).wav

Pre-gap length 0:00:02.60

Peak level 94.2 % Extraction speed 7.0 X Track quality 100.0 % Test CRC E6B988A3 Copy CRC E6B988A3 Accurately ripped (confidence 7) [7E981DEA] (AR v1) Copy OK

Track 24

Filename C:\Rips\The Roots Of Deep Purple - The Complete Episode Six (1991) [FLAC]\24 - Wide Smiles (1968).wav

Pre-gap length 0:00:03.13

Peak level 92.0 % Extraction speed 4.2 X Track quality 99.9 % Test CRC 29801425 Copy CRC 29801425 Accurately ripped (confidence 7) [F2860ABE] (AR v1) Copy OK

Track 25

Filename C:\Rips\The Roots Of Deep Purple - The Complete Episode Six (1991) [FLAC]\25 - Lucky Sunday (1968).wav

Pre-gap length 0:00:02.84

Peak level 91.6 % Extraction speed 7.4 X Track quality 100.0 % Test CRC 7C89EF69 Copy CRC 7C89EF69 Accurately ripped (confidence 6) [EB95A3C6] (AR v1) Copy OK

Track 26

Filename C:\Rips\The Roots Of Deep Purple - The Complete Episode Six (1991) [FLAC]\26 - Mr. Universe (1968).wav

Pre-gap length 0:00:02.50

Peak level 100.0 % Extraction speed 7.7 X Track quality 100.0 % Test CRC 592B97EE Copy CRC 592B97EE Accurately ripped (confidence 6) [1D15CE41] (AR v1) Copy OK

Track 27

Filename C:\Rips\The Roots Of Deep Purple - The Complete Episode Six (1991) [FLAC]\27 - Mozart vs The Rest (1969).wav

Pre-gap length 0:00:02.02

Peak level 97.7 % Extraction speed 7.5 X Track quality 100.0 % Test CRC 93B780D2 Copy CRC 93B780D2 Accurately ripped (confidence 7) [38DDEAFB] (AR v1) Copy OK

Track 28

Filename C:\Rips\The Roots Of Deep Purple - The Complete Episode Six (1991) [FLAC]\28 - Jack D'Or (1969).wav

Pre-gap length 0:00:02.53

Peak level 100.0 % Extraction speed 7.7 X Track quality 100.0 % Test CRC AB9F19C7 Copy CRC AB9F19C7 Accurately ripped (confidence 5) [64B2380D] (AR v1) Copy OK

All tracks accurately ripped

No errors occurred

End of status report

---- CUETools DB Plugin V2.1.3

[CTDB TOCID: k3bqOxsgGoyE722t805D6OuXOOk-] found, Submit result: k3bqOxsgGoyE722t805D6OuXOOk- has been confirmed[b8fd1f6e] (3/4) No match[12ad8b9f] (1/4) Accurately ripped

==== Log checksum 60761D838AAFBC8378DFC2CFF50EA936C01FE109AFD8B1B031C66B14EA7AB7F2 ====
  
REM GENRE RockREM DATE 1991REM DISCID B012561CREM COMMENT "ExactAudioCopy v1.0b3"FILE "01 - My Babe (Previously Unissued).wav" WAVE TRACK 01 AUDIO INDEX 01 00:00:00 TRACK 02 AUDIO INDEX 00 02:51:35FILE "02 - Put Yourself In My Place (1966).wav" WAVE INDEX 01 00:00:00 TRACK 03 AUDIO INDEX 00 02:29:27FILE "03 - That's All I Want (1966).wav" WAVE INDEX 01 00:00:00 TRACK 04 AUDIO INDEX 00 02:31:17FILE "04 - I Hear Trumpets Blow (1966).wav" WAVE INDEX 01 00:00:00 TRACK 05 AUDIO INDEX 00 02:29:20FILE "05 - True Love Is Funny That Way (1966).wav" WAVE INDEX 01 00:00:00 TRACK 06 AUDIO INDEX 00 02:30:47FILE "06 - Here There And Everywhere (1966).wav" WAVE INDEX 01 00:00:00 TRACK 07 AUDIO INDEX 00 02:09:70FILE "07 - Mighty Morris Ten (1966).wav" WAVE INDEX 01 00:00:00 TRACK 08 AUDIO INDEX 00 02:22:05FILE "08 - I Will Warm Your Heart (1966).wav" WAVE INDEX 01 00:00:00 TRACK 09 AUDIO INDEX 00 02:53:05FILE "09 - Incense (1966).wav" WAVE INDEX 01 00:00:00 TRACK 10 AUDIO INDEX 00 02:42:47FILE "10 - Love Hate Revenge (1967).wav" WAVE INDEX 01 00:00:00 TRACK 11 AUDIO INDEX 00 02:54:08FILE "11 - Baby Baby Baby (1967).wav" WAVE INDEX 01 00:00:00 TRACK 12 AUDIO INDEX 00 02:53:16FILE "12 - Morning Dew (1967).wav" WAVE INDEX 01 00:00:00 TRACK 13 AUDIO INDEX 00 02:55:73FILE "13 - Sunshine Girl (1967).wav" WAVE INDEX 01 00:00:00 TRACK 14 AUDIO INDEX 00 02:52:45FILE "14 - I Won't Hurt You (1967).wav" WAVE INDEX 01 00:00:00 TRACK 15 AUDIO INDEX 00 02:30:42FILE "15 - U.F.O. (1967).wav" WAVE INDEX 01 00:00:00 TRACK 16 AUDIO INDEX 00 02:49:28FILE "16 - I Can See Through You (1967).wav" WAVE INDEX 01 00:00:00 TRACK 17 AUDIO INDEX 00 03:24:20FILE "17 - When I Fall In Love (1967).wav" WAVE INDEX 01 00:00:00 TRACK 18 AUDIO INDEX 00 01:55:08FILE "18 - The Way You Look Tonight (Previously Unissued).wav" WAVE INDEX 01 00:00:00 TRACK 19 AUDIO INDEX 00 02:19:17FILE "19 - My Little Red Book (Previously Unissued).wav" WAVE INDEX 01 00:00:00 TRACK 20 AUDIO INDEX 00 02:28:18FILE "20 - Plastic Love (Previously Unissued).wav" WAVE INDEX 01 00:00:00 TRACK 21 AUDIO INDEX 00 02:28:62FILE "21 - Time And Motion Man (Previously Unissued).wav" WAVE INDEX 01 00:00:00 TRACK 22 AUDIO INDEX 00 02:34:40FILE "22 - Only Lonely People (Previously Unissued).wav" WAVE INDEX 01 00:00:00 TRACK 23 AUDIO INDEX 00 03:15:38FILE "23 - Little One (1968).wav" WAVE INDEX 01 00:00:00 TRACK 24 AUDIO INDEX 00 02:42:47FILE "24 - Wide Smiles (1968).wav" WAVE INDEX 01 00:00:00 TRACK 25 AUDIO INDEX 00 01:48:55FILE "25 - Lucky Sunday (1968).wav" WAVE INDEX 01 00:00:00 TRACK 26 AUDIO INDEX 00 03:42:32FILE "26 - Mr. Universe (1968).wav" WAVE INDEX 01 00:00:00 TRACK 27 AUDIO INDEX 00 04:18:30FILE "27 - Mozart vs The Rest (1969).wav" WAVE INDEX 01 00:00:00 TRACK 28 AUDIO INDEX 00 02:59:40FILE "28 - Jack D'Or (1969).wav" WAVE INDEX 01 00:00:00
In early 1964 they got an agency and more work came in, though they could only play shows on Friday, Saturday and Sunday as Harvey Shield was still at school (Lawry Geller would sometimes stand in for him), and the others had college and work. Prompted by their agency, they decided to choose a new name and rechristened themselves Episode Six, inspired by a novel called Danish Episode (though they sometimes used both names where people knew the old one).
They rehearsed at the Carter family home twice a week - without amplifiers - and Sheila's father drove them to gigs. The band all (except Sheila) wore smart white shirts and Beatles-style leather waistcoats, and via their booking agents there was soon plenty of work further afield. They could have done more, but because Harvey wanted to finish at school they held off. Nevertheless, they soon started doing demos for a record deal, and then did a season in Germany in early 1965, after which Andy Ross left.
The band had already checked out Ian Gillan in a group called Wainwright's Gentlemen and now asked him to join. Prior to this he'd been with The Javelins, a popular local group, from 1961. Ian Gillan's arrival coincided with the band getting a record deal with Pye Records and in July they turned professional, giving up college and jobs. They were doing an average of twenty shows a month from July '65 onwards and cut their first single, The Hollies' "Put Yourself In My Place" before the end of the year. It was released in early 1966.
The band were booked by Radio London to appear at one of their big open-air summer shows in May 1966 alongside David Bowie and issued more singles during the year, all of which failed to chart. In September 1966 the group played on the Dusty Springfield package tour and did a weekly residency at the Marquee Club during October. There was also the first solo single from Sheila; "I Will Warm Your Heart" in November 1966. The year climaxed with a long Christmas season in Beirut (where they topped the local chart) through December and January.
The group had by now built up an impressive repertoire of covers and originals and would vary their sets according to the audiences. They were also beginning to do sessions for the BBC. They did a mini tour of London parks (organised by the Greater London Council) in mid-June 1967, performing two 45 minute sets, and played for four weeks in Germany. On their return Harvey left the group as the touring was telling on his health.
New drummer John Kerrison had previously been in The Pirates (with Nick Simper). With him onboard Episode Six were soon back in Germany doing clubs, and returned there early in the new year.
The group got a new record deal with MGM Records and shortened their name to The Episode, releasing "Little One" in May 1968 (their only single under the new name). They did three UK TV shows to promote this and recorded dozens of tracks for radio sessions over the year, including the new Radio 1 Club. However they were not getting along with their new drummer, who was eventually fired. A replacement had already been chosen: ex-Outlaws drummer Mick Underwood.
Their September 1968 single 'Lucky Sunday' became their eighth chart miss, despite some good reviews. "Mozart Vs The Rest" followed in February 1969. This was issued in response to hundreds of calls to BBC Radio 1 after the band performed it on air. Sadly this happened too late for it to chart.
The band made a start on a début album but it was never finished. In June 1969 Ritchie Blackmore and Jon Lord came to see Episode Six play live in London, and then offered Ian Gillan a job in Deep Purple. Roger Glover helped Deep Purple out on a studio session and was also asked to join them. The pair helped Episode Six fulfil existing bookings while rehearsing with Deep Purple.
Episode Six carried on for a time with John Gustafson on bass and vocals. Sheila rehearsed with Pete Robinson, John Gustafson and Mick Underwood as a quartet, before they formed the trio Quatermass. Episode Six then played for a while with Sheila, Tony Lander, Dave Lawson (later of Greenslade) and Tony Dangerfield on bass. By the end of the year they were billed as Episode Six with Sheila Carter and then The Sheila Carter Band, and this continued off and on (mostly with gigs abroad) until 1974 with Sheila as the constant, before she went into session work.
A couple of singles recorded by Episode Six for Pye Records have been produced by Tony Reeves, a renowned bassist and one of founder members of Colosseum.
Episode Six personnel
(1964–1965)
Andy Ross – vocals
Sheila Carter-Dimmock – vocals, keyboard
Graham Carter-Dimmock – vocals, guitar
Tony Lander - guitar
Roger Glover - bass guitar
Harvey Shield - drums
(1965–1967)
Ian Gillan - vocals
Sheila Carter-Dimmock – vocals, keyboard
Graham Carter-Dimmock – vocals, guitar
Tony Lander - guitar
Roger Glover - bass guitar
Harvey Shield - drums
(1967–1968)
Ian Gillan - vocals
Sheila Carter-Dimmock – vocals, keyboard
Graham Carter-Dimmock – vocals, guitar
Tony Lander - guitar
Roger Glover - bass guitar
John Kerrison - drums
(1968–1969)
Sheila Carter-Dimmock – vocals, keyboard
Graham Carter-Dimmock – vocals, guitar
Tony Lander - guitar
Mick Underwood - drums
(1969–1972)
Sheila Carter-Dimmock – vocals, keyboard
Tony Lander - guitar
John Gustafson - bass guitar, vocals
Mick Underwood - drums
(1972–1974)
Sheila Carter-Dimmock – vocals, keyboard
Tony Lander - guitar
Tony Dangerfield - bass guitar
Dave Lawson - drums


Трекер:  [ 27-Июл-2012 06:20 ]

  

Скачать .torrent

Размер .torrent файла 21 KB


Размер: 466 MB
Хэш (hash) релиза: 4e1fbea488a688d12050a26035d7956979183b74

Еще никто не оставлял запись к записи скачать торрент Episode Six - The Complete Episode Six: The Roots of Deep Purple . Будь первым!

!Обратная связь