Скачать через торрент музыку Aldo Nova - Subject......Aldo Nova - 1983 бесплатно без регистрации torrent

Если у вас наблюдаются проблемы со скриншотами, переходом по ссылками, скачиванием торрентов - проблемы в блокировщике рекламы AdBlock. #хорошегоДня!


Статистика раздачи
Размер:  324 MB   |    Зарегистрирован:  5 лет 2 месяца   |    .torrent скачан:  96 раз   |   
Раздают:  1  
   
Загрузка...
 
Автор Сообщение

AqvaGen


Aldo Nova - Subject......Aldo Nova

Жанр: Hard Rock, AOR
Страна-производитель диска: USA
Год издания диска: 2009
Издатель (лейбл): Wounded Bird Records
Номер по каталогу: WOU 8721
Страна: Canada
Аудио кодек: FLAC (*.flac)
Тип рипа: image+.cue
Битрейт аудио: lossless
Продолжительность: 00:41:27
Источник (релизер): Victor
Наличие сканов в содержимом раздачи: да

Треклист:

01. Subject's Theme 01:36
02. Armageddon (Race Cars) 00:25
03. Armageddon 02:41
04. Monkey On Your Back 04:35
05. Hey Operator 03:54
06. Cry Baby Cry 04:17
07. Victim Of A Broken Heart 04:18
08. Africa (Primal Love) 00:39
09. Hold Back The Night 04:48
10. Always Be Mine 04:11
11. All Night Long 03:41
12. War Suite 01:26
13. Prelude To Paradise 01:35
14. Paradise 03:14
  
Exact Audio Copy V0.99 prebeta 4 from 23. January 2008

EAC extraction logfile from 23. July 2012, 1:06

Aldo Nova / Subject.....Aldo Nova

Used drive : ATAPI iHAP122 W Adapter: 1 ID: 0

Read mode : SecureUtilize accurate stream : YesDefeat audio cache : YesMake use of C2 pointers : No

Read offset correction : 6Overread into Lead-In and Lead-Out : NoFill up missing offset samples with silence : YesDelete leading and trailing silent blocks : NoNull samples used in CRC calculations : YesUsed interface : Native Win32 interface for Win NT & 2000

Used output format : Internal WAV RoutinesSample format : 44.100 Hz; 16 Bit; Stereo

TOC of the extracted CD

Track | Start | Length | Start sector | End sector --------------------------------------------------------------------- 1 | 0:00.00 | 1:36.40 | 0 | 7239 2 | 1:36.40 | 0:25.32 | 7240 | 9146 3 | 2:01.72 | 2:41.53 | 9147 | 21274 4 | 4:43.50 | 4:35.60 | 21275 | 41959 5 | 9:19.35 | 3:54.67 | 41960 | 59576 6 | 13:14.27 | 4:17.05 | 59577 | 78856 7 | 17:31.32 | 4:18.40 | 78857 | 98246 8 | 21:49.72 | 0:39.38 | 98247 | 101209 9 | 22:29.35 | 4:48.42 | 101210 | 122851 10 | 27:18.02 | 4:11.05 | 122852 | 141681 11 | 31:29.07 | 3:41.50 | 141682 | 158306 12 | 35:10.57 | 1:26.43 | 158307 | 164799 13 | 36:37.25 | 1:35.12 | 164800 | 171936 14 | 38:12.37 | 3:14.45 | 171937 | 186531

Range status and errors

Selected range

Filename C:\MusBox\Aldo Nova - Subject.....Aldo Nova.wav

Peak level 98.8 % Extraction speed 1.2 X Range quality 100.0 % Copy CRC 34E43190 Copy OK

No errors occurred

End of status report
  
REM DISCID AD09B70EREM COMMENT "ExactAudioCopy v0.99pb4"PERFORMER "Aldo Nova"TITLE "Subject.....Aldo Nova"FILE "Aldo Nova - Subject.....Aldo Nova.wav" WAVE TRACK 01 AUDIO TITLE "Subject's Theme" PERFORMER "Aldo Nova" INDEX 01 00:00:00 TRACK 02 AUDIO TITLE "Armageddon (Race Cars)" PERFORMER "Aldo Nova" INDEX 01 01:36:40 TRACK 03 AUDIO TITLE "Armageddon" PERFORMER "Aldo Nova" INDEX 01 02:01:72 TRACK 04 AUDIO TITLE "Monkey On Your Back" PERFORMER "Aldo Nova" INDEX 01 04:43:50 TRACK 05 AUDIO TITLE "Hey Operator" PERFORMER "Aldo Nova" INDEX 01 09:19:35 TRACK 06 AUDIO TITLE "Cry Baby Cry" PERFORMER "Aldo Nova" INDEX 01 13:14:27 TRACK 07 AUDIO TITLE "Victim Of A Broken Heart" PERFORMER "Aldo Nova" INDEX 01 17:31:32 TRACK 08 AUDIO TITLE "Africa (Primal Love)" PERFORMER "Aldo Nova" INDEX 01 21:49:72 TRACK 09 AUDIO TITLE "Hold Back The Night" PERFORMER "Aldo Nova" INDEX 01 22:29:35 TRACK 10 AUDIO TITLE "Always Be Mine" PERFORMER "Aldo Nova" INDEX 01 27:18:02 TRACK 11 AUDIO TITLE "All Night Long" PERFORMER "Aldo Nova" INDEX 01 31:29:07 TRACK 12 AUDIO TITLE "War Suite" PERFORMER "Aldo Nova" INDEX 01 35:10:57 TRACK 13 AUDIO TITLE "Prelude To Paradise" PERFORMER "Aldo Nova" INDEX 01 36:37:25 TRACK 14 AUDIO TITLE "Paradise" PERFORMER "Aldo Nova" INDEX 01 38:12:37
  
-----------------------

DON'T MODIFY THIS FILE

-----------------------

PERFORMER: auCDtect Task Manager, ver. 1.5.1RC4 build 1.5.1.5Copyright (c) 2008-2010 y-soft. All rights reservedhttp://y-soft.org

ANALYZER: auCDtect: CD records authenticity detector, version 0.8.2Copyright (c) 2004 Oleg Berngardt. All rights reserved.Copyright (c) 2004 Alexander Djourik. All rights reserved.

FILE: Aldo Nova - Subject.....Aldo Nova.flac Size: 324092504 Hash: 67E7B14C3F1106E3B6DC799D3CC638C2 Accuracy: -m8 Conclusion: CDDA 99% Signature: 3F7D9C20E0B86E1A1F5CA5661DEB101F51E71A7D
Доп. информация:
Второй диск "Subject...Aldo Nova" оказался работой более запутанной и сложной, чем дебют. Альдо записал концептуальную пластинку-детектив, с сюжетом в духе сериала "Полиция Майами". Музыкальная составляющая осталась все тем же хард-роком, правда, добавилось довольно много электроники и более витиеватых аранжировок. Крепкие боевики типа "Armageddon" удачно смешаны с утяжеленным AOR "Victim of a Broken Heart" или "All Night Long". Однако в отличие от дебютника, что стал платиновым, второй диск Новы дотянул до "золота" в США спустя лишь долгое время. Запутанный концепт, множество интерлюдий и неровность материала все таки сказались негативно. Тем не менее - это весьма приличный альбом. Американские (да и канадские) хард-рокеры нового поколения уже вовсю поднимали головы и конкурировали с гитарным талантом Альдо, однако данный альбом по прежнему смотрится весьма привлекательно.


Трекер:  [ 27-Июл-2012 06:19 ]

  

Скачать .torrent

Размер .torrent файла 13 KB


Размер: 324 MB
Хэш (hash) релиза: 8b2183bcbc11ac15e9ac6ba94e3110e185b87006

Еще никто не оставлял запись к записи скачать торрент Aldo Nova - Subject......Aldo Nova - 1983 . Будь первым!

!Обратная связь