..."/> ...">

Скачать через торрент музыку Peter Criss - One For All - 2007, FLAC бесплатно без регистрации torrent

Если у вас наблюдаются проблемы со скриншотами, переходом по ссылками, скачиванием торрентов - проблемы в блокировщике рекламы AdBlock. #хорошегоДня!


Статистика раздачи
Размер:  334 MB   |    Зарегистрирован:  5 лет 3 месяца   |    .torrent скачан:  67 раз   |   
Раздают:  1  
   
Загрузка...
 
Автор Сообщение

AqvaGen


Peter Criss / One For All

Жанр: rock
Страна-производитель диска: USA
Год издания: 2007
Издатель (лейбл): Silvercat Records
Страна: USA
Аудиокодек: FLAC (*.flac)
Тип рипа: tracks+.cue
Битрейт аудио: lossless
Продолжительность: 50:40

Наличие сканов в содержимом раздачи: да
Треклист:
01."One for All" – 4:47
02."Doesn't Get Better Than This" (Charles Kipps; Mike McLaughlin; Peter Criss) – 5:08
03."Last Night" – 4:27
04."What a Difference a Day Makes" (Stanley Adams, María Grever) – 4:25
05."Hope" – 2:47
06."Faces in the Crowd" – 3:36
07."Send in the Clowns" (Stephen Sondheim) – 3:52
08."Falling All Over Again" – 4:42
09."Whisper" – 4:16
10."Heart Behind These Hands" (Mark Schoenfeld, Barri McPherson) – 3:39
11."Memories" – 3:48
12."Space Ace" – 5:10
  
Exact Audio Copy V1.0 beta 3 from 29. August 2011

EAC extraction logfile from 26. July 2012, 16:25

Peter Criss / One For All

Used drive : Optiarc DVD RW AD-5240S Adapter: 1 ID: 1

Read mode : SecureUtilize accurate stream : YesDefeat audio cache : YesMake use of C2 pointers : No

Read offset correction : 48Overread into Lead-In and Lead-Out : NoFill up missing offset samples with silence : YesDelete leading and trailing silent blocks : NoNull samples used in CRC calculations : YesUsed interface : Native Win32 interface for Win NT & 2000Gap handling : Appended to previous track

Used output format : User Defined EncoderSelected bitrate : 896 kBit/sQuality : HighAdd ID3 tag : NoCommand line compressor : C:\Program Files\Exact Audio Copy\Flac\flac.exeAdditional command line options : -V -8 -T "Genre=%genre%" -T "Artist=%artist%" -T "Title=%title%" -T "Album=%albumtitle%" -T "Date=%year%" -T "Tracknumber=%tracknr%" -T "Comment=%comment%" %source%

TOC of the extracted CD

Track | Start | Length | Start sector | End sector --------------------------------------------------------- 1 | 0:00.00 | 4:47.46 | 0 | 21570 2 | 4:47.46 | 5:08.40 | 21571 | 44710 3 | 9:56.11 | 4:27.39 | 44711 | 64774 4 | 14:23.50 | 4:24.65 | 64775 | 84639 5 | 18:48.40 | 2:47.42 | 84640 | 97206 6 | 21:36.07 | 3:36.12 | 97207 | 113418 7 | 25:12.19 | 3:51.66 | 113419 | 130809 8 | 29:04.10 | 4:42.07 | 130810 | 151966 9 | 33:46.17 | 4:16.31 | 151967 | 171197 10 | 38:02.48 | 3:39.26 | 171198 | 187648 11 | 41:41.74 | 3:48.61 | 187649 | 204809 12 | 45:30.60 | 5:09.70 | 204810 | 228054

Track 1

Filename J:\Музыка\01 One for All.wav

Pre-gap length 0:00:02.00

Peak level 100.0 % Extraction speed 2.4 X Track quality 100.0 % Test CRC FBEE957A Copy CRC FBEE957A Cannot be verified as accurate (confidence 3) [45EFB1F5], AccurateRip returned [5E2BC142] (AR v2) Copy OK

Track 2

Filename J:\Музыка\02 Doesn't Get Better Than This.wav

Peak level 100.0 % Extraction speed 2.8 X Track quality 100.0 % Test CRC 20AC07C1 Copy CRC 20AC07C1 Cannot be verified as accurate (confidence 3) [715AD95A], AccurateRip returned [9BB57A1A] (AR v2) Copy OK

Track 3

Filename J:\Музыка\03 Last Night.wav

Peak level 100.0 % Extraction speed 3.0 X Track quality 100.0 % Test CRC 1D33D6A7 Copy CRC 1D33D6A7 Cannot be verified as accurate (confidence 3) [A198A1B4], AccurateRip returned [F7B17D73] (AR v2) Copy OK

Track 4

Filename J:\Музыка\04 What a Difference a Day Makes.wav

Peak level 100.0 % Extraction speed 3.2 X Track quality 100.0 % Test CRC 07AB7271 Copy CRC 07AB7271 Cannot be verified as accurate (confidence 3) [0C216A5C], AccurateRip returned [6D70FA00] (AR v2) Copy OK

Track 5

Filename J:\Музыка\05 Hope.wav

Peak level 100.0 % Extraction speed 3.1 X Track quality 100.0 % Test CRC 2E017785 Copy CRC 2E017785 Cannot be verified as accurate (confidence 3) [6FA51968], AccurateRip returned [A8E4D09C] (AR v2) Copy OK

Track 6

Filename J:\Музыка\06 Face in The Crowed.wav

Peak level 100.0 % Extraction speed 3.4 X Track quality 100.0 % Test CRC 54A7602C Copy CRC 54A7602C Cannot be verified as accurate (confidence 3) [543DEF47], AccurateRip returned [1BCC4CFD] (AR v2) Copy OK

Track 7

Filename J:\Музыка\07 Send in The Clowns.wav

Peak level 100.0 % Extraction speed 3.7 X Track quality 100.0 % Test CRC 71C27847 Copy CRC 71C27847 Cannot be verified as accurate (confidence 3) [4CF58511], AccurateRip returned [E7E2F9A9] (AR v2) Copy OK

Track 8

Filename J:\Музыка\08 Falling Over Again.wav

Peak level 100.0 % Extraction speed 3.9 X Track quality 100.0 % Test CRC D351594E Copy CRC D351594E Cannot be verified as accurate (confidence 3) [B4F53857], AccurateRip returned [856B77EB] (AR v2) Copy OK

Track 9

Filename J:\Музыка\09 Whisper.wav

Peak level 100.0 % Extraction speed 4.1 X Track quality 100.0 % Test CRC EA14157C Copy CRC EA14157C Cannot be verified as accurate (confidence 3) [1A9C6B05], AccurateRip returned [F39B9E55] (AR v2) Copy OK

Track 10

Filename J:\Музыка\10 Heart Behind These Hands.wav

Peak level 100.0 % Extraction speed 4.1 X Track quality 100.0 % Test CRC 1F583772 Copy CRC 1F583772 Cannot be verified as accurate (confidence 3) [69CC5647], AccurateRip returned [CB424E6A] (AR v2) Copy OK

Track 11

Filename J:\Музыка\11 Memories.wav

Peak level 100.0 % Extraction speed 4.0 X Track quality 100.0 % Test CRC 4DA69B3C Copy CRC 4DA69B3C Cannot be verified as accurate (confidence 3) [89EB9865], AccurateRip returned [007DDE0C] (AR v2) Copy OK

Track 12

Filename J:\Музыка\12 Space Ace.wav

Pre-gap length 0:00:01.08

Peak level 100.0 % Extraction speed 4.6 X Track quality 100.0 % Test CRC B3A37ED6 Copy CRC B3A37ED6 Cannot be verified as accurate (confidence 3) [7607C649], AccurateRip returned [40AE319F] (AR v2) Copy OK

No tracks could be verified as accurateYou may have a different pressing from the one(s) in the database

No errors occurred

End of status report

==== Log checksum 1C8150AACF3DCC618763CA80717D6F9D09EF17B2798E0AC37CBA4DEFA43C4DC2 ====
  
REM GENRE RockREM DATE 2007REM DISCID A80BE00CREM COMMENT "ExactAudioCopy v1.0b3"PERFORMER "Peter Criss"TITLE "One For All"FILE "01 One for All.wav" WAVE TRACK 01 AUDIO TITLE "One for All" PERFORMER "Peter Criss" ISRC USME30700053 FLAGS DCP INDEX 01 00:00:00FILE "02 Doesn't Get Better Than This.wav" WAVE TRACK 02 AUDIO TITLE "Doesn't Get Better Than This" PERFORMER "Peter Criss" ISRC USME30700054 FLAGS DCP INDEX 01 00:00:00FILE "03 Last Night.wav" WAVE TRACK 03 AUDIO TITLE "Last Night" PERFORMER "Peter Criss" ISRC USME30700055 FLAGS DCP INDEX 01 00:00:00FILE "04 What a Difference a Day Makes.wav" WAVE TRACK 04 AUDIO TITLE "What a Difference a Day Makes" PERFORMER "Peter Criss" ISRC USME30700056 FLAGS DCP INDEX 01 00:00:00FILE "05 Hope.wav" WAVE TRACK 05 AUDIO TITLE "Hope" PERFORMER "Peter Criss" ISRC USME30700057 FLAGS DCP INDEX 01 00:00:00FILE "06 Face in The Crowed.wav" WAVE TRACK 06 AUDIO TITLE "Face in The Crowed" PERFORMER "Peter Criss" ISRC USME30700058 FLAGS DCP INDEX 01 00:00:00FILE "07 Send in The Clowns.wav" WAVE TRACK 07 AUDIO TITLE "Send in The Clowns" PERFORMER "Peter Criss" ISRC USME30700059 FLAGS DCP INDEX 01 00:00:00FILE "08 Falling Over Again.wav" WAVE TRACK 08 AUDIO TITLE "Falling Over Again" PERFORMER "Peter Criss" ISRC USME30700060 FLAGS DCP INDEX 01 00:00:00FILE "09 Whisper.wav" WAVE TRACK 09 AUDIO TITLE "Whisper" PERFORMER "Peter Criss" ISRC USME30700061 FLAGS DCP INDEX 01 00:00:00FILE "10 Heart Behind These Hands.wav" WAVE TRACK 10 AUDIO TITLE "Heart Behind These Hands" PERFORMER "Peter Criss" ISRC USME30700062 FLAGS DCP INDEX 01 00:00:00FILE "11 Memories.wav" WAVE TRACK 11 AUDIO TITLE "Memories" PERFORMER "Peter Criss" ISRC USME30700063 FLAGS DCP INDEX 01 00:00:00 TRACK 12 AUDIO TITLE "Space Ace" PERFORMER "Peter Criss" ISRC USME30700064 FLAGS DCP INDEX 00 03:47:53FILE "12 Space Ace.wav" WAVE INDEX 01 00:00:00
Peter Criss – vocals, drums, percussion
Paul Shaffer, Mike McLaughlin - guitars, back vocals
Will Lee – bass
Mark Montague - bass, back vocals
Clifford Carter - keyboards


Трекер:  [ 27-Июл-2012 06:18 ]

  

Скачать .torrent

Размер .torrent файла 15 KB


Размер: 334 MB
Хэш (hash) релиза: 58039f27e8c712b67664fba22ea7ae4ecac97f36

Еще никто не оставлял запись к записи скачать торрент Peter Criss - One For All - 2007, FLAC . Будь первым!

!Обратная связь