Скачать через торрент музыку Hot Tuna - Pair A Dice Found - 1990, FLAC бесплатно без регистрации torrent

Если у вас наблюдаются проблемы со скриншотами, переходом по ссылками, скачиванием торрентов - проблемы в блокировщике рекламы AdBlock. #хорошегоДня!


Статистика раздачи
Размер:  407 MB   |    Зарегистрирован:  5 лет 3 месяца   |    .torrent скачан:  105 раз   |   
Раздают:  1  
   
Загрузка...
 
Автор Сообщение

AqvaGen


Hot Tuna / Pair A Dice Found

Жанр: Rock, Blues-rock
Страна-производитель диска: US
Год издания: 1990
Издатель (лейбл): Epic
Номер по каталогу: EK 46831
Аудиокодек: FLAC (*.flac)
Тип рипа: tracks+.cue
Битрейт аудио: lossless
Продолжительность: 01:04:13
Источник (релизер): Ослосеть
Наличие сканов в содержимом раздачи: да
1.It's Alright With Me 3:31
Drums – Harvey Sorgen Guitar [Rhythm] – Michael Falzarano Vocals, Guitar [Lead & Rhythm] – Jorma Kaukonen Written-By – J. Kaukonen

2.Parchman Farm 5:12
Backing Vocals – Rick Danko Drums – Harvey Sorgen Guitar [Rhythm] – Michael Falzarano Vocals, Guitar [Lead & Rhythm] – Jorma Kaukonen Written-By – M. Allison

3.Urban Moon 6:45
Backing Vocals – Charlie Staxx, Jane Violette, Joe Violette Drums – Harvey Sorgen Guitar [4 & 5 Strings & Fretless] – Jack Casady Keyboards, Guitar [Rhythm], Sequenced By [Percussion] – Galen Underwood Vocals, Guitar [Lap Steele & Lead] – Jorma Kaukonen Written-By – R. Bramblett

4.Eve Of Destruction 4:23
Backing Vocals – Rick Danko Drums – Harvey Sorgen Guitar [Lead & Rhythm, 6 & 12 Strings] – Jorma Kaukonen Guitar [Rhythm] – Michael Falzarano Written-By – P.F. Sloan

5.AK-47 4:34
Drums – Harvey Sorgen Guitar [Rhythm] – Michael Falzarano Guitar [Rhythm], Organ [Hammond B3] – Galen Underwood Vocals, Guitar [Lead / Rhythm & Lap Steele] – Jorma Kaukonen Written-By – M. Falzarano

6.Shot In The Act 4:46
Backing Vocals – Jack Casady Drums – Harvey Sorgen Keyboards, Backing Vocals – Galen Underwood Vocals, Guitar [Lead & Lap Steele] – Jorma Kaukonen Written-By – R. Nagle*, S. Mathews

7.Brand New Toy 4:13
Backing Vocals – Charlie Staxx, Jane Violette, Joe Violette Drums – Harvey Sorgen Guitar [Rhythm] – Michael Falzarano Vocals, Guitar [Lead & Rhythm] – Jorma Kaukonen Written-By – M. Falzarano

8.To Be With You 4:35
Acoustic Guitar, Vocals, Guitar [Lead & Rhythm] – Jorma Kaukonen Backing Vocals – Charlie Staxx, Jane Violette, Joe Violette Drums – Harvey Sorgen Guitar [Rhythm], Acoustic Guitar – Michael Falzarano Keyboards – Galen Underwood Written-By – M. Falzarano

9.Flying In The Face Of Mr. Blue 4:51
Backing Vocals – Charlie Staxx, Jane Violette, Joe Violette Drums – Harvey Sorgen Guitar [4 & 5 String] – Jack Casady Keyboards, Sequenced By [Percussion] – Galen Underwood Vocals, Guitar [Lead & Lap Steel] – Jorma Kaukonen Written-By – B. Jones, D. Causey, R. Bramblett

10.Love Gone Flat 3:50
Drums – Harvey Sorgen Keyboards – Galen Underwood Vocals, Guitar [Lead & Rhythm] – Jorma Kaukonen Written-By – M. Falzarano

11.Bulletproof Vest 4:14
Backing Vocals – Ginger "Mt. Tremper Wildfire" Lee*, Jack "Tuff Enuff" Casady*, Rick "Big Mex" Sanchez*, Vanessa "Lockness" Lillian* Drums – Harvey Sorgen Guitar [Rhythm] – Michael Falzarano Keyboards – Galen Underwood Vocals, Guitar [Lead & Rhythm] – Jorma Kaukonen Written-By – M. Falzarano

12.Ken Takes A Lude 4:51
Drums – Harvey Sorgen Guitar [Lap Steele, Lead & Rhythm], Vocals – Jorma Kaukonen Guitar [Rhythm] – Michael Falzarano Keyboards – Galen Underwood Written-By – J. Kaukonen

13.San Francisco Bay Blues 4:16
Piano [Steinway Concert Grand Piano] – Galen Underwood Vocals, Acoustic Guitar [12 Strings] – Jorma Kaukonen Written-By – J. Fuller

14.Happy Turtle Song 4:15
Acoustic Guitar [6 Sting & Dobro] – Jorma Kaukonen Written-By – J. Kaukonen
  
Exact Audio Copy V1.0 beta 1 from 15. November 2010

EAC extraction logfile from 7. June 2011, 20:25

Hot Tuna / Pair A Dice Found

Used drive : hp DVD A DH16ABLH Adapter: 0 ID: 0

Read mode : SecureUtilize accurate stream : YesDefeat audio cache : YesMake use of C2 pointers : No

Read offset correction : 6Overread into Lead-In and Lead-Out : NoFill up missing offset samples with silence : YesDelete leading and trailing silent blocks : NoNull samples used in CRC calculations : YesUsed interface : Native Win32 interface for Win NT & 2000Gap handling : Appended to previous track

Used output format : User Defined EncoderSelected bitrate : 1024 kBit/sQuality : HighAdd ID3 tag : NoCommand line compressor : C:\Program Files (x86)\Exact Audio Copy\Flac\flac.exeAdditional command line options : -8 -V -T "ARTIST=%a" -T "TITLE=%t" -T "ALBUM=%g" -T "DATE=%y" -T "TRACKNUMBER=%n" -T "GENRE=%m" -T "COMMENT=%e" %j--picture="%i"%j %s -o %d

TOC of the extracted CD

Track | Start | Length | Start sector | End sector --------------------------------------------------------- 1 | 0:00.00 | 3:31.65 | 0 | 15889 2 | 3:31.65 | 5:12.45 | 15890 | 39334 3 | 8:44.35 | 6:45.17 | 39335 | 69726 4 | 15:29.52 | 4:23.40 | 69727 | 89491 5 | 19:53.17 | 4:33.38 | 89492 | 110004 6 | 24:26.55 | 4:46.15 | 110005 | 131469 7 | 29:12.70 | 4:12.67 | 131470 | 150436 8 | 33:25.62 | 4:34.68 | 150437 | 171054 9 | 38:00.55 | 4:51.10 | 171055 | 192889 10 | 42:51.65 | 3:51.02 | 192890 | 210216 11 | 46:42.67 | 4:14.68 | 210217 | 229334 12 | 50:57.60 | 4:51.45 | 229335 | 251204 13 | 55:49.30 | 4:16.42 | 251205 | 270446 14 | 60:05.72 | 4:14.40 | 270447 | 289536

Track 1

Filename C:\Share1\Hot Tuna\Pair A Dice Found\01. It's Alright with Me.wav

Pre-gap length 0:00:02.00

Peak level 99.4 % Extraction speed 3.0 X Track quality 99.9 % Test CRC 2970D620 Copy CRC 2970D620 Accurately ripped (confidence 5) [5A1E0C21] Copy OK

Track 2

Filename C:\Share1\Hot Tuna\Pair A Dice Found\02. Parchman Farm.wav

Pre-gap length 0:00:00.28

Peak level 99.0 % Extraction speed 4.4 X Track quality 100.0 % Test CRC 98B64781 Copy CRC 98B64781 Accurately ripped (confidence 5) [92C099B2] Copy OK

Track 3

Filename C:\Share1\Hot Tuna\Pair A Dice Found\03. Urban Moon.wav

Pre-gap length 0:00:00.10

Peak level 78.7 % Extraction speed 5.0 X Track quality 100.0 % Test CRC D78C523F Copy CRC D78C523F Accurately ripped (confidence 5) [335830A7] Copy OK

Track 4

Filename C:\Share1\Hot Tuna\Pair A Dice Found\04. Eve of Destruction.wav

Pre-gap length 0:00:00.27

Peak level 97.3 % Extraction speed 5.2 X Track quality 100.0 % Test CRC 1590563E Copy CRC 1590563E Accurately ripped (confidence 5) [3FF8A3DF] Copy OK

Track 5

Filename C:\Share1\Hot Tuna\Pair A Dice Found\05. AK-47.wav

Pre-gap length 0:00:00.02

Peak level 100.0 % Extraction speed 5.5 X Track quality 100.0 % Test CRC 2AF50250 Copy CRC 2AF50250 Accurately ripped (confidence 5) [FA19A414] Copy OK

Track 6

Filename C:\Share1\Hot Tuna\Pair A Dice Found\06. Shot in the Act.wav

Pre-gap length 0:00:00.03

Peak level 99.7 % Extraction speed 5.9 X Track quality 100.0 % Test CRC F9D50655 Copy CRC F9D50655 Accurately ripped (confidence 5) [21F19397] Copy OK

Track 7

Filename C:\Share1\Hot Tuna\Pair A Dice Found\07. Brand New Toy.wav

Pre-gap length 0:00:00.03

Peak level 86.9 % Extraction speed 6.1 X Track quality 100.0 % Test CRC 8DCEEB79 Copy CRC 8DCEEB79 Accurately ripped (confidence 5) [00DEB845] Copy OK

Track 8

Filename C:\Share1\Hot Tuna\Pair A Dice Found\08. To Be with You.wav

Pre-gap length 0:00:00.17

Peak level 89.1 % Extraction speed 6.4 X Track quality 100.0 % Test CRC 9822A06A Copy CRC 9822A06A Accurately ripped (confidence 5) [41B40DD7] Copy OK

Track 9

Filename C:\Share1\Hot Tuna\Pair A Dice Found\09. Flying in the Face of Mr. Blue.wav

Pre-gap length 0:00:00.23

Peak level 90.2 % Extraction speed 6.7 X Track quality 100.0 % Test CRC 5D1AE1B7 Copy CRC 5D1AE1B7 Accurately ripped (confidence 5) [DD93F258] Copy OK

Track 10

Filename C:\Share1\Hot Tuna\Pair A Dice Found\10. Love Gone Flat.wav

Pre-gap length 0:00:00.03

Peak level 94.6 % Extraction speed 6.7 X Track quality 100.0 % Test CRC 5DD2C2CD Copy CRC 5DD2C2CD Accurately ripped (confidence 5) [A99E236B] Copy OK

Track 11

Filename C:\Share1\Hot Tuna\Pair A Dice Found\11. Bulletproof Vest.wav

Pre-gap length 0:00:00.40

Peak level 88.1 % Extraction speed 7.1 X Track quality 100.0 % Test CRC 76AF80D1 Copy CRC 76AF80D1 Accurately ripped (confidence 5) [C413DDA7] Copy OK

Track 12

Filename C:\Share1\Hot Tuna\Pair A Dice Found\12. Ken Takes a Lude.wav

Pre-gap length 0:00:00.49

Peak level 90.9 % Extraction speed 7.5 X Track quality 100.0 % Test CRC 6C50EBF5 Copy CRC 6C50EBF5 Accurately ripped (confidence 5) [62C1A3DB] Copy OK

Track 13

Filename C:\Share1\Hot Tuna\Pair A Dice Found\13. San Francisco Bay Blues.wav

Pre-gap length 0:00:00.15

Peak level 79.1 % Extraction speed 7.6 X Track quality 100.0 % Test CRC 94C5C494 Copy CRC 94C5C494 Accurately ripped (confidence 3) [BA579F17] Copy OK

Track 14

Filename C:\Share1\Hot Tuna\Pair A Dice Found\14. Happy Turtle Song.wav

Pre-gap length 0:00:00.02

Peak level 47.4 % Extraction speed 7.7 X Track quality 100.0 % Test CRC 152EC3FD Copy CRC 152EC3FD Accurately ripped (confidence 3) [12DAC660] Copy OK

All tracks accurately ripped

No errors occurred

End of status report

==== Log checksum 09056D0FEDDC7808EF65EC01045537AF187513C6ABF1BDD39C402E0774C4EAC8 ====
  
REM GENRE RockREM DATE 1990REM DISCID B90F140EREM RELEASE "1990 Epic EK46831"REM COMMENT "ExactAudioCopy v1.0b1"PERFORMER "Hot Tuna"TITLE "Pair A Dice Found"FILE "01. It's Alright with Me.wav" WAVE TRACK 01 AUDIO TITLE "It's Alright with Me" PERFORMER "Hot Tuna" INDEX 01 00:00:00 TRACK 02 AUDIO TITLE "Parchman Farm" PERFORMER "Hot Tuna" INDEX 00 03:31:37FILE "02. Parchman Farm.wav" WAVE INDEX 01 00:00:00 TRACK 03 AUDIO TITLE "Urban Moon" PERFORMER "Hot Tuna" INDEX 00 05:12:35FILE "03. Urban Moon.wav" WAVE INDEX 01 00:00:00 TRACK 04 AUDIO TITLE "Eve of Destruction" PERFORMER "Hot Tuna" INDEX 00 06:44:65FILE "04. Eve of Destruction.wav" WAVE INDEX 01 00:00:00 TRACK 05 AUDIO TITLE "AK-47" PERFORMER "Hot Tuna" INDEX 00 04:23:38FILE "05. AK-47.wav" WAVE INDEX 01 00:00:00 TRACK 06 AUDIO TITLE "Shot in the Act" PERFORMER "Hot Tuna" INDEX 00 04:33:35FILE "06. Shot in the Act.wav" WAVE INDEX 01 00:00:00 TRACK 07 AUDIO TITLE "Brand New Toy" PERFORMER "Hot Tuna" INDEX 00 04:46:12FILE "07. Brand New Toy.wav" WAVE INDEX 01 00:00:00 TRACK 08 AUDIO TITLE "To Be with You" PERFORMER "Hot Tuna" INDEX 00 04:12:50FILE "08. To Be with You.wav" WAVE INDEX 01 00:00:00 TRACK 09 AUDIO TITLE "Flying in the Face of Mr. Blue" PERFORMER "Hot Tuna" INDEX 00 04:34:45FILE "09. Flying in the Face of Mr. Blue.wav" WAVE INDEX 01 00:00:00 TRACK 10 AUDIO TITLE "Love Gone Flat" PERFORMER "Hot Tuna" INDEX 00 04:51:07FILE "10. Love Gone Flat.wav" WAVE INDEX 01 00:00:00 TRACK 11 AUDIO TITLE "Bulletproof Vest" PERFORMER "Hot Tuna" INDEX 00 03:50:37FILE "11. Bulletproof Vest.wav" WAVE INDEX 01 00:00:00 TRACK 12 AUDIO TITLE "Ken Takes a Lude" PERFORMER "Hot Tuna" INDEX 00 04:14:19FILE "12. Ken Takes a Lude.wav" WAVE INDEX 01 00:00:00 TRACK 13 AUDIO TITLE "San Francisco Bay Blues" PERFORMER "Hot Tuna" INDEX 00 04:51:30FILE "13. San Francisco Bay Blues.wav" WAVE INDEX 01 00:00:00 TRACK 14 AUDIO TITLE "Happy Turtle Song" PERFORMER "Hot Tuna" INDEX 00 04:16:40FILE "14. Happy Turtle Song.wav" WAVE INDEX 01 00:00:00
  
AUDIOCHECKER v2.0 beta (build 457) - by Dester - <a href="mailto:opdester@freemail.hu" class="postLink">opdester@freemail.hu</a>~~~~~~~~~~~~~~~~~~~~~~~~~~~~~~~~~~-=== НЕ РЕДАКТИРУЙТЕ ЭТОТ ФАЙЛ! ===-

Путь: ...\Hot Tuna - Pair A Dice Found (1990)

01 -=- 01. It's Alright with Me.flac -=- CDDA (100%)02 -=- 02. Parchman Farm.flac -=- CDDA (100%)03 -=- 03. Urban Moon.flac -=- CDDA (100%)04 -=- 04. Eve of Destruction.flac -=- CDDA (100%)05 -=- 05. AK-47.flac -=- CDDA (100%)06 -=- 06. Shot in the Act.flac -=- CDDA (100%)07 -=- 07. Brand New Toy.flac -=- CDDA (100%)08 -=- 08. To Be with You.flac -=- CDDA (100%)09 -=- 09. Flying in the Face of Mr. Blue.flac -=- CDDA (100%)10 -=- 10. Love Gone Flat.flac -=- CDDA (100%)11 -=- 11. Bulletproof Vest.flac -=- CDDA (100%)12 -=- 12. Ken Takes a Lude.flac -=- CDDA (99%)13 -=- 13. San Francisco Bay Blues.flac -=- CDDA (100%)14 -=- 14. Happy Turtle Song.flac -=- CDDA (100%)

Сводка 99,93% CDDA

177727380
Jorma Kaukonen - guitar, vocal
Jack Casady - bass
Michael Falzarano - guitar
Harvey Sorgen - drums


Трекер:  [ 27-Июл-2012 06:16 ]

  

Скачать .torrent

Размер .torrent файла 17 KB


Размер: 407 MB
Хэш (hash) релиза: 593593f17cb68a8450c2e218f227c27931511e92

Еще никто не оставлял запись к записи скачать торрент Hot Tuna - Pair A Dice Found - 1990, FLAC . Будь первым!

!Обратная связь