Скачать через торрент музыку Sunrise Avenue - Out Of Style бесплатно без регистрации torrent

Если у вас наблюдаются проблемы со скриншотами, переходом по ссылками, скачиванием торрентов - проблемы в блокировщике рекламы AdBlock. #хорошегоДня!


Статистика раздачи
Размер:  531 MB   |    Зарегистрирован:  5 лет 3 месяца   |    .torrent скачан:  40 раз   |   
Раздают:  1  
   
Загрузка...
 
Автор Сообщение

Galfimbul

avatar Galfimbul


Sunrise Avenue / Out Of Style (Live Edition)

Жанр: Pop-Rock
Страна-производитель диска: Germany
Год издания: 2012
Издатель (лейбл): EMI
Номер по каталогу: #50999 644985 2 2
Страна: Finland
Аудиокодек: FLAC (*.flac)
Тип рипа: tracks+.cue
Битрейт аудио: lossless
Продолжительность: 01:06:56
Источник (релизер): Собственный рип
Наличие сканов в содержимом раздачи: да

Треклист:
01. Damn silence (Live in Berlin) [03:41] - 975 kbps
02. I gotta go (Live in Berlin) [04:12] - 1006 kbps
03. I don't dance (Live in Berlin) [04:28] - 1063 kbps
04. Somebody help me (Live in Berlin) [04:37] - 940 kbps
05. Fairytale gone bad (Live in Berlin) [05:40] - 1072 kbps
06. Angels on a rampage (Live in Vienna) [06:09] - 908 kbps
07. Only (Live in Berlin) [04:00] - 1065 kbps
08. Wonderland (Live in Berlin) [06:19] - 987 kbps
09. Stormy end (Live in Berlin) [05:20] - 864 kbps
10. Welcome to my life (Live in Berlin) [05:54] - 979 kbps
11. Sweet symphony (Live in Vienna) [06:16] - 953 kbps
12. Hollywood hills (Live in Vienna) [04:38] - 964 kbps
13. Out of tune (Live in Vienna) [05:35] - 1032 kbps
  
Exact Audio Copy V0.99 prebeta 5 from 4. May 2009

Отчёт EAC об извлечении, выполненном 19. июля 2012, 8:55

Sunrise Avenue / Out of style (Live Edition)

Дисковод: HL-DT-STBD-RE UH10LS20 Adapter: 3 ID: 0

Режим чтения : ДостоверностьИспользование точного потока : ДаОтключение кэша аудио : ДаИспользование указателей C2 : Нет

Коррекция смещения при чтении : 667Способность читать области Lead-in и Lead-out : НетЗаполнение пропущенных сэмплов тишиной : ДаУдаление блоков с тишиной в начале и конце : НетПри вычислениях CRC использовались нулевые сэмплы : ДаИнтерфейс : Установленный внешний ASPI-интерфейсОбработка зазоров : Добавлено к предыдущему треку

Выходной формат : Пользовательский кодировщикВыбранный битрейт : 768 kBit/sКачество : ВысокийДобавление ID3-тэга : НетУтилита сжатия : C:\Program Files\Exact Audio Copy\FLAC\FLAC.EXEДополнительные параметры : -6 -V -T "ARTIST=%a" -T "TITLE=%t" -T "ALBUM=%g" -T "DATE=%y" -T "TRACKNUMBER=%n" -T "GENRE=%m" -T "COMMENT=%e" %s -o %d

TOC извлечённого CD

Трек | Старт | Длительность | Начальный сектор | Конечный сектор --------------------------------------------------------------------- 1 | 0:00.00 | 3:41.22 | 0 | 16596 2 | 3:41.22 | 4:12.44 | 16597 | 35540 3 | 7:53.66 | 4:28.65 | 35541 | 55705 4 | 12:22.56 | 4:37.55 | 55706 | 76535 5 | 17:00.36 | 5:40.68 | 76536 | 102103 6 | 22:41.29 | 6:09.09 | 102104 | 129787 7 | 28:50.38 | 4:00.38 | 129788 | 147825 8 | 32:51.01 | 6:19.74 | 147826 | 176324 9 | 39:11.00 | 5:20.46 | 176325 | 200370 10 | 44:31.46 | 5:54.14 | 200371 | 226934 11 | 50:25.60 | 6:16.44 | 226935 | 255178 12 | 56:42.29 | 4:38.11 | 255179 | 276039 13 | 61:20.40 | 5:35.44 | 276040 | 301208

Трек 1

Имя файла F:\Sunrise Avenue - Out Of Style (Live Edition) [CD, flac]\01. Sunrise Avenue - Damn silence (Live in Berlin).wav

Длина предзазора 0:00:02.00

Пиковый уровень 99.8 % Качество трека 100.0 % CRC теста 0B4BD6B4 CRC копии 0B4BD6B4 Трек не обнаружен в базе AccurateRip Копирование... OK

Трек 2

Имя файла F:\Sunrise Avenue - Out Of Style (Live Edition) [CD, flac]\02. Sunrise Avenue - I gotta go (Live in Berlin).wav

Пиковый уровень 99.8 % Качество трека 100.0 % CRC теста 3914C8F7 CRC копии 3914C8F7 Трек не обнаружен в базе AccurateRip Копирование... OK

Трек 3

Имя файла F:\Sunrise Avenue - Out Of Style (Live Edition) [CD, flac]\03. Sunrise Avenue - I don't dance (Live in Berlin).wav

Пиковый уровень 99.8 % Качество трека 100.0 % CRC теста 1D2CEC57 CRC копии 1D2CEC57 Трек не обнаружен в базе AccurateRip Копирование... OK

Трек 4

Имя файла F:\Sunrise Avenue - Out Of Style (Live Edition) [CD, flac]\04. Sunrise Avenue - Somebody help me (Live in Berlin).wav

Пиковый уровень 99.6 % Качество трека 100.0 % CRC теста D46DBFBB CRC копии D46DBFBB Трек не обнаружен в базе AccurateRip Копирование... OK

Трек 5

Имя файла F:\Sunrise Avenue - Out Of Style (Live Edition) [CD, flac]\05. Sunrise Avenue - Fairytale gone bad (Live in Berlin).wav

Пиковый уровень 99.8 % Качество трека 100.0 % CRC теста 8DFE72C0 CRC копии 8DFE72C0 Трек не обнаружен в базе AccurateRip Копирование... OK

Трек 6

Имя файла F:\Sunrise Avenue - Out Of Style (Live Edition) [CD, flac]\06. Sunrise Avenue - Angels on a rampage (Live in Vienna).wav

Пиковый уровень 99.8 % Качество трека 100.0 % CRC теста FF754F19 CRC копии FF754F19 Трек не обнаружен в базе AccurateRip Копирование... OK

Трек 7

Имя файла F:\Sunrise Avenue - Out Of Style (Live Edition) [CD, flac]\07. Sunrise Avenue - Only (Live in Berlin).wav

Пиковый уровень 99.8 % Качество трека 100.0 % CRC теста 68EE59B5 CRC копии 68EE59B5 Трек не обнаружен в базе AccurateRip Копирование... OK

Трек 8

Имя файла F:\Sunrise Avenue - Out Of Style (Live Edition) [CD, flac]\08. Sunrise Avenue - Wonderland (Live in Berlin).wav

Пиковый уровень 99.8 % Качество трека 100.0 % CRC теста F204F513 CRC копии F204F513 Трек не обнаружен в базе AccurateRip Копирование... OK

Трек 9

Имя файла F:\Sunrise Avenue - Out Of Style (Live Edition) [CD, flac]\09. Sunrise Avenue - Stormy end (Live in Berlin).wav

Пиковый уровень 99.8 % Качество трека 100.0 % CRC теста 2732AEDD CRC копии 2732AEDD Трек не обнаружен в базе AccurateRip Копирование... OK

Трек 10

Имя файла F:\Sunrise Avenue - Out Of Style (Live Edition) [CD, flac]\10. Sunrise Avenue - Welcome to my life (Live in Berlin).wav

Пиковый уровень 99.8 % Качество трека 100.0 % CRC теста A5B2CFA5 CRC копии A5B2CFA5 Трек не обнаружен в базе AccurateRip Копирование... OK

Трек 11

Имя файла F:\Sunrise Avenue - Out Of Style (Live Edition) [CD, flac]\11. Sunrise Avenue - Sweet symphony (Live in Vienna).wav

Пиковый уровень 99.8 % Качество трека 100.0 % CRC теста 83AC383C CRC копии 83AC383C Трек не обнаружен в базе AccurateRip Копирование... OK

Трек 12

Имя файла F:\Sunrise Avenue - Out Of Style (Live Edition) [CD, flac]\12. Sunrise Avenue - Hollywood hills (Live in Vienna).wav

Пиковый уровень 99.8 % Качество трека 100.0 % CRC теста DDE38ED7 CRC копии DDE38ED7 Трек не обнаружен в базе AccurateRip Копирование... OK

Трек 13

Имя файла F:\Sunrise Avenue - Out Of Style (Live Edition) [CD, flac]\13. Sunrise Avenue - Out of tune (Live in Vienna).wav

Пиковый уровень 99.8 % Качество трека 100.0 % CRC теста 51CE75A2 CRC копии 51CE75A2 Трек не обнаружен в базе AccurateRip Копирование... OK

Ни одного трека нет в базе AccurateRip

Ошибок не произошло

Конец отчёта
  
REM GENRE PopREM DATE 2012REM DISCID A40FB00DREM COMMENT "ExactAudioCopy v0.99pb5"PERFORMER "Sunrise Avenue"TITLE "Out of style (Live Edition)"FILE "01. Sunrise Avenue - Damn silence (Live in Berlin).wav" WAVE TRACK 01 AUDIO TITLE "Damn silence (Live in Berlin)" PERFORMER "Sunrise Avenue" FLAGS DCP INDEX 01 00:00:00FILE "02. Sunrise Avenue - I gotta go (Live in Berlin).wav" WAVE TRACK 02 AUDIO TITLE "I gotta go (Live in Berlin)" PERFORMER "Sunrise Avenue" FLAGS DCP INDEX 01 00:00:00FILE "03. Sunrise Avenue - I don't dance (Live in Berlin).wav" WAVE TRACK 03 AUDIO TITLE "I don't dance (Live in Berlin)" PERFORMER "Sunrise Avenue" FLAGS DCP INDEX 01 00:00:00FILE "04. Sunrise Avenue - Somebody help me (Live in Berlin).wav" WAVE TRACK 04 AUDIO TITLE "Somebody help me (Live in Berlin)" PERFORMER "Sunrise Avenue" FLAGS DCP INDEX 01 00:00:00FILE "05. Sunrise Avenue - Fairytale gone bad (Live in Berlin).wav" WAVE TRACK 05 AUDIO TITLE "Fairytale gone bad (Live in Berlin)" PERFORMER "Sunrise Avenue" FLAGS DCP INDEX 01 00:00:00FILE "06. Sunrise Avenue - Angels on a rampage (Live in Vienna).wav" WAVE TRACK 06 AUDIO TITLE "Angels on a rampage (Live in Vienna)" PERFORMER "Sunrise Avenue" FLAGS DCP INDEX 01 00:00:00FILE "07. Sunrise Avenue - Only (Live in Berlin).wav" WAVE TRACK 07 AUDIO TITLE "Only (Live in Berlin)" PERFORMER "Sunrise Avenue" FLAGS DCP INDEX 01 00:00:00FILE "08. Sunrise Avenue - Wonderland (Live in Berlin).wav" WAVE TRACK 08 AUDIO TITLE "Wonderland (Live in Berlin)" PERFORMER "Sunrise Avenue" FLAGS DCP INDEX 01 00:00:00FILE "09. Sunrise Avenue - Stormy end (Live in Berlin).wav" WAVE TRACK 09 AUDIO TITLE "Stormy end (Live in Berlin)" PERFORMER "Sunrise Avenue" FLAGS DCP INDEX 01 00:00:00FILE "10. Sunrise Avenue - Welcome to my life (Live in Berlin).wav" WAVE TRACK 10 AUDIO TITLE "Welcome to my life (Live in Berlin)" PERFORMER "Sunrise Avenue" FLAGS DCP INDEX 01 00:00:00FILE "11. Sunrise Avenue - Sweet symphony (Live in Vienna).wav" WAVE TRACK 11 AUDIO TITLE "Sweet symphony (Live in Vienna)" PERFORMER "Sunrise Avenue" FLAGS DCP INDEX 01 00:00:00FILE "12. Sunrise Avenue - Hollywood hills (Live in Vienna).wav" WAVE TRACK 12 AUDIO TITLE "Hollywood hills (Live in Vienna)" PERFORMER "Sunrise Avenue" FLAGS DCP INDEX 01 00:00:00FILE "13. Sunrise Avenue - Out of tune (Live in Vienna).wav" WAVE TRACK 13 AUDIO TITLE "Out of tune (Live in Vienna)" PERFORMER "Sunrise Avenue" FLAGS DCP INDEX 01 00:00:00


Трекер:  [ 20-Июл-2012 00:33 ]

  

Скачать .torrent

Размер .torrent файла 13 KB


Размер: 531 MB
Хэш (hash) релиза: cb4d06634337fd9ca01aaaed82db178f8a7d28ba

Торренты, похожие на Sunrise Avenue - Out Of Style скачать торрент

Форум Название Автор Размер S L Добавлен
Rосk | Mеtаl | Аltеrnаtivе, Рunk, Indереndеnt (mр3) ·· (Pop-Rock) Sunrise Avenue - Out Of Style (Special Edition) 2CD - [scene] - 2011, MP3 (tracks), VBR-V0 new, 240-320 kbps Devil_Black 148895245142 MB 0 0 1324247001

01:23

19-Дек-11

Rосk | Mеtаl | Аltеrnаtivе, Рunk, Indереndеnt (mр3) ·· (Pop-Rock) Sunrise Avenue - Out Of Style - 2011, MP3, CBR 320 kbps Солнышко 155046105148 MB 0 0 1302804873

21:14

14-Апр-11

Еще никто не оставлял запись к записи скачать торрент Sunrise Avenue - Out Of Style . Будь первым!

!Обратная связь