Скачать через торрент музыку The Beautiful South - Solid Bronze бесплатно без регистрации torrent

Если у вас наблюдаются проблемы со скриншотами, переходом по ссылками, скачиванием торрентов - проблемы в блокировщике рекламы AdBlock. #хорошегоДня!


Статистика раздачи
Размер:  401 MB   |    Зарегистрирован:  5 лет 1 месяц   |    .torrent скачан:  6 раз   |   
Раздают:  1  
   
Загрузка...
 
Автор Сообщение

Galfimbul

avatar Galfimbul


The Beautiful South / Solid Bronze (Great Hits)

Жанр: Pop Rock
Год издания: 2001
Аудиокодек: FLAC (*.flac)
Тип рипа: image+.cue
Битрейт аудио: lossless
Продолжительность: 58:51
Источник (релизер): my disc
Наличие сканов в содержимом раздачи: да
Треклист:
01. Rotterdam [0:03:38.47]
02. Perfect 10 [0:03:39.26]
03. You Keep It All In [0:02:54.50]
04. Don't Marry Her [0:03:24.10]
05. A Little Time [0:03:00.37]
06. Everybody's Talkin' [0:02:38.48]
07. Good As Gold (Stupid As Mud) [0:03:49.58]
08. Dream A Little Dream [0:03:35.50]
09. Song For Whoever [0:04:06.29]
10. Old Red Eyes Is Back [0:03:35.49]
11. The Root Of All Evil [0:02:39.48]
12. One Last Love Song [0:03:33.18]
13. Dumb [0:03:47.29]
14. How Long's A Tear Take To Dry ? [0:03:18.64]
15. The River [0:04:12.26]
16. Pretenders To The Throne [0:03:14.24]
17. The Mediterranean (Morcheeba Mix) [0:03:42.17]
  
Exact Audio Copy V0.99 prebeta 4 from 23. January 2008

Отчёт EAC об извлечении, выполненном 19. июля 2012, 6:34

The Beautiful South / Great Hits

Дисковод: ASUS DRW-1814BL Adapter: 1 ID: 0

Режим чтения : ДостоверностьИспользование точного потока : ДаОтключение кэша аудио : ДаИспользование указателей C2 : Нет

Коррекция смещения при чтении : 6Способность читать области Lead-in и Lead-out : НетЗаполнение пропущенных сэмплов тишиной : ДаУдаление блоков с тишиной в начале и конце : НетПри вычислениях CRC использовались нулевые сэмплы : ДаИнтерфейс : Установленный внешний ASPI-интерфейс

Выходной формат : Пользовательский кодировщикВыбранный битрейт : 1024 kBit/sКачество : ВысокийДобавление ID3-тэга : НетУтилита сжатия : C:\Program Files\Exact Audio Copy\FLAC\FLAC.EXEДополнительные параметры : -6 -V -T "ARTIST=%a" -T "TITLE=%t" -T "ALBUM=%g" -T "DATE=%y" -T "TRACKNUMBER=%n" -T "GENRE=%m" -T "COMMENT=%e" %s -o %d

TOC извлечённого CD

Трек | Старт | Длительность | Начальный сектор | Конечный сектор --------------------------------------------------------------------- 1 | 0:00.00 | 3:38.47 | 0 | 16396 2 | 3:38.47 | 3:39.26 | 16397 | 32847 3 | 7:17.73 | 2:54.50 | 32848 | 45947 4 | 10:12.48 | 3:24.10 | 45948 | 61257 5 | 13:36.58 | 3:00.37 | 61258 | 74794 6 | 16:37.20 | 2:38.48 | 74795 | 86692 7 | 19:15.68 | 3:49.58 | 86693 | 103925 8 | 23:05.51 | 3:35.50 | 103926 | 120100 9 | 26:41.26 | 4:06.29 | 120101 | 138579 10 | 30:47.55 | 3:35.49 | 138580 | 154753 11 | 34:23.29 | 2:39.48 | 154754 | 166726 12 | 37:03.02 | 3:33.18 | 166727 | 182719 13 | 40:36.20 | 3:47.29 | 182720 | 199773 14 | 44:23.49 | 3:18.64 | 199774 | 214687 15 | 47:42.38 | 4:12.26 | 214688 | 233613 16 | 51:54.64 | 3:14.24 | 233614 | 248187 17 | 55:09.13 | 3:42.17 | 248188 | 264854

Характеристики диапазона извлечения и сообщения об ошибках

Выбранный диапазон

Имя файла H:\loSSleSS\beautiful south'01\The Beautiful South - Great Hits.wav

Пиковый уровень 100.0 % Качество диапазона 100.0 % CRC теста 1248A19D CRC копии 1248A19D Копирование... OK

Ошибок не произошло

AccurateRip: сводка

Трек 1 точное извлечение (доверие 11) [3F4D5FC0]Трек 2 точное извлечение (доверие 12) [A0B8F04B]Трек 3 точное извлечение (доверие 12) [28B68C0C]Трек 4 точное извлечение (доверие 12) [C61D99C7]Трек 5 точное извлечение (доверие 12) [C482A7FC]Трек 6 точное извлечение (доверие 12) [154B2BA9]Трек 7 точное извлечение (доверие 12) [D2D4C319]Трек 8 точное извлечение (доверие 12) [19B4F5F7]Трек 9 точное извлечение (доверие 12) [26C201E2]Трек 10 точное извлечение (доверие 12) [B770FE44]Трек 11 точное извлечение (доверие 12) [7140CEB9]Трек 12 точное извлечение (доверие 12) [17E14A45]Трек 13 точное извлечение (доверие 12) [8F473148]Трек 14 точное извлечение (доверие 12) [377EFF6D]Трек 15 точное извлечение (доверие 12) [F5DC940D]Трек 16 точное извлечение (доверие 12) [CB3529CB]Трек 17 точное извлечение (доверие 12) [5B5E3FAD]

Все треки извлечены точно

Конец отчёта
Доп. информация: Хочу предложить послушать,как немцы записали данный сборник.
The Beautiful South - английская альтернативная поп-рок-группа. Была образована на основе группы HOUSEMARTINS в 1989 в Халле, графство Йоркшир. Состав: вокалист Пол Хитон (Paul Heaton, р. 9 мая 1962, Беркенхед, Мерсисайд), ударник и вокалист Дэвид Хемингуэй (David Hemingway), басист Шон Уэлч (Sean Welch), вокалистка Брайана Корриган (Briana Corrigan), ударник Дэвид Стид (David Stead) и гитарист Дэвид Ротерей (David Rotheray). Популярность группа завоевала благодаря дуэту Корриган и Хэмингуэя, который исполнял песни в ироничной и искаженной форме. Свой первый контракт с рекорд-компанией Go! Discs группа подписала уже в 1989, в том же году увидел свет и первый сингл Song For Whoever. Песня достигла второго места престижного британского синглового чарта и мгновенно принесла новой группе популярность. В октябре 1989 появился дебютный альбом «Welcome То The Beautiful South», который встретил неоднозначную реакцию у музыкальных критиков, однако обрел коммерческий успех, попав на первые места чартов. Впоследствии многие синглы, выпускаемые The Beautiful South, пользовались умеренной популярностью, однако все альбомы группы попадали на высшие строчки хит-парадов. Весной 1990 следующий сингл с первого альбома A Little Time возглавил британский чарт, а в 2001 видеоклип на эту песню удостоился премии Brit Awards в номинации «Лучшее британское видео». В последующие годы успех имели такие синглы The Beautiful South, как Old Red Eyes Is Back, Rotterdam и Dream A Little Dream. Но все предыдущие достижения группы затмил оглушительный успех сборника лучших хитов «Carry Up The Charts — The Beautiful South»: пластинка, вышедшая в 1994, достигла первой строчки альбомного чарта, оставалась там до конца 1994 и весь 1995, став самым быстро распродаваемым британским альбомом года. Тираж диска составил только в Великобритании 3 млн. экземпляров. Альбом «Painting It Red» стал третьим альбомом группы, занявшим первую строчку британского чарта, однако его коммерческий успех был ниже, чем у предыдущих альбомов The Beautiful South. Диск «Gaze», вышедший в октябре 2003, был записан группой в следующем составе: Пол Хитон, Элисон Уилер, Дэвид Хемингуэй, Дэвид Ротерей, Шон Уэлч, Дэвид Стид и Дэймон Батчер.
Paul Heaton-vocals
Dave Hemingway-vocals
David Rotheray-guitar
Sean Welch-bass
David Stead-drums
with:
Jacqueline Abbott-vocals
Briana Corrigan-vocals
Damon Butcher-keyboards


Трекер:  [ 20-Июл-2012 00:33 ]

  

Скачать .torrent

Размер .torrent файла 17 KB


Размер: 401 MB
Хэш (hash) релиза: 2a4843c89bd7aa6629b2abca13e1461be7bdc345

Еще никто не оставлял запись к записи скачать торрент The Beautiful South - Solid Bronze . Будь первым!

!Обратная связь