Скачать через торрент VA - Запретные вершины. Часть I, II, III бесплатно русская версия torrent активатор

Если у вас наблюдаются проблемы со скриншотами, переходом по ссылками, скачиванием торрентов - проблемы в блокировщике рекламы AdBlock. #хорошегоДня!


Статистика раздачи
Размер:  1.66 GB   |    Зарегистрирован:  5 лет 2 месяца   |    .torrent скачан:  44 раза   |   
Раздают:  1  
   
Загрузка...
 
Автор Сообщение

Galfimbul

avatar Galfimbul


VA - Запретные вершины. Часть I, II, III (Любимые пластинки фрау Райнхольд)



Год: 2003
Страна: Германия
Страна-производитель диска: Россия
Жанр: Retro/March
Тип издания: сборник
Наличие сканов в содержимом раздачи: да
Продолжительность: 03:41:30
Тексты: не требуются
Кодек: ALAC
Программа-риповщик : foobar2000 + iTunes (lossless)
Битрейт: lossless
Треклист:
01. Hermann Goring Marsch
02. Wir Deutschen stehen marschbereit
03. Als die gold'ne Abendsonne
04. Die graue Kompanie
05. Markische Heide
06. Wildganse rauschen durch die Nacht
07. Der Tod in Flandern
08. Weichsel und Warthe
09. Prasentier Marsch
10. Kein Tod der Welt ist uns zu hoch
11. Es donnern uns're Motoren
12. Wir sind die schwarzen Husaren der Luft
13. Leibstandarten Marsch
14. Lied der Junkers Flug - und Motorenwerke
15. Flieg, deutsche Fahne, flieg!
16. Volk ans Gewehr
17. Mein Regiment, mein Heimatland
18. Lufthansa Marsch
19. Lied der Panzergruppe Kleist
20. Es blitzen die stahlernen Schwingen
21. Rot scheint die Sonne
22. Ju-88 Lied
23. Bombenfliegermarsch der Legion Condor
24. Flieger empor!
25. Revere Marsch
26. Graf Zeppelin Marsch
  
Exact Audio Copy V0.99 prebeta 5 from 4. May 2009

Отчёт EAC об извлечении, выполненном 16. июля 2012, 18:14

- / Запретные вершины. Часть первая

Дисковод: _NEC DVD_RW ND-3550A Adapter: 0 ID: 0

Режим чтения : ДостоверностьИспользование точного потока : ДаОтключение кэша аудио : ДаИспользование указателей C2 : Нет

Коррекция смещения при чтении : 48Способность читать области Lead-in и Lead-out : НетЗаполнение пропущенных сэмплов тишиной : ДаУдаление блоков с тишиной в начале и конце : НетПри вычислениях CRC использовались нулевые сэмплы : ДаИнтерфейс : Установленный внешний ASPI-интерфейс

Выходной формат : Внутренние WAV-операцииФормат сэмплов : 44.100 Гц; 16 бит; стерео

TOC извлечённого CD

Трек | Старт | Длительность | Начальный сектор | Конечный сектор --------------------------------------------------------------------- 1 | 0:00.00 | 2:57.10 | 0 | 13284 2 | 2:57.10 | 3:29.28 | 13285 | 28987 3 | 6:26.38 | 2:51.12 | 28988 | 41824 4 | 9:17.50 | 2:18.51 | 41825 | 52225 5 | 11:36.26 | 2:52.42 | 52226 | 65167 6 | 14:28.68 | 3:02.65 | 65168 | 78882 7 | 17:31.58 | 2:54.58 | 78883 | 91990 8 | 20:26.41 | 2:08.18 | 91991 | 101608 9 | 22:34.59 | 2:39.35 | 101609 | 113568 10 | 25:14.19 | 1:54.64 | 113569 | 122182 11 | 27:09.08 | 3:06.04 | 122183 | 136136 12 | 30:15.12 | 3:54.69 | 136137 | 153755 13 | 34:10.06 | 2:43.56 | 153756 | 166036 14 | 36:53.62 | 3:21.55 | 166037 | 181166 15 | 40:15.42 | 3:21.10 | 181167 | 196251 16 | 43:36.52 | 2:38.23 | 196252 | 208124 17 | 46:15.00 | 2:57.58 | 208125 | 221457 18 | 49:12.58 | 3:07.47 | 221458 | 235529 19 | 52:20.30 | 2:00.65 | 235530 | 244594 20 | 54:21.20 | 3:11.17 | 244595 | 258936 21 | 57:32.37 | 2:44.27 | 258937 | 271263 22 | 60:16.64 | 3:08.19 | 271264 | 285382 23 | 63:25.08 | 2:55.58 | 285383 | 298565 24 | 66:20.66 | 2:55.44 | 298566 | 311734 25 | 69:16.35 | 2:48.68 | 311735 | 324402 26 | 72:05.28 | 2:46.73 | 324403 | 336925

Характеристики диапазона извлечения и сообщения об ошибках

Выбранный диапазон

Имя файла F:\Music lossless\Запретные вершины. Часть первая.wav

Пиковый уровень 100.0 % Качество диапазона 99.9 % CRC теста E308EF45 CRC копии E308EF45 Копирование... OK

Ошибок не произошло

AccurateRip: сводка

Трек 1 нет в базе данныхТрек 2 нет в базе данныхТрек 3 нет в базе данныхТрек 4 нет в базе данныхТрек 5 нет в базе данныхТрек 6 нет в базе данныхТрек 7 нет в базе данныхТрек 8 нет в базе данныхТрек 9 нет в базе данныхТрек 10 нет в базе данныхТрек 11 нет в базе данныхТрек 12 нет в базе данныхТрек 13 нет в базе данныхТрек 14 нет в базе данныхТрек 15 нет в базе данныхТрек 16 нет в базе данныхТрек 17 нет в базе данныхТрек 18 нет в базе данныхТрек 19 нет в базе данныхТрек 20 нет в базе данныхТрек 21 нет в базе данныхТрек 22 нет в базе данныхТрек 23 нет в базе данныхТрек 24 нет в базе данныхТрек 25 нет в базе данныхТрек 26 нет в базе данных

Ни одного трека нет в базе AccurateRip

Конец отчёта
01. Jagdgeschwander 'Richthofen'
02. Argonnerwald
03. An der Front im Westen
04. Ruber uber den Kanal
05. Soldaten sind immer Soldaten
06. Aufwarts zur Sonne
07. Fliegerkameraden
08. Flieger sind Sieger
09. Lied der Balloniere
10. Fallschirmjager
11. Westfalischer Sturmmarsch
12. Horst Wessel Lied
13. Huhnlein Marsch
14. Panzerlied
15. Schlesierlandlied (volksweise)
16. Hohe Tannen
17. Auf, hebt unsere Fahnen in den Fris
18. Jugend will marschieren
19. Flieger Fanfare
20. Uns kann keiner
21. Wir kommen wieder
22. Stuka vor!
23. Fliegermarsch
24. Steiger-Marsch
25. Fliegersturm
  
Exact Audio Copy V0.99 prebeta 5 from 4. May 2009

Отчёт EAC об извлечении, выполненном 16. июля 2012, 21:43

- / Запретные вершины. Часть вторая

Дисковод: _NEC DVD_RW ND-3550A Adapter: 0 ID: 0

Режим чтения : ДостоверностьИспользование точного потока : ДаОтключение кэша аудио : ДаИспользование указателей C2 : Нет

Коррекция смещения при чтении : 48Способность читать области Lead-in и Lead-out : НетЗаполнение пропущенных сэмплов тишиной : ДаУдаление блоков с тишиной в начале и конце : НетПри вычислениях CRC использовались нулевые сэмплы : ДаИнтерфейс : Установленный внешний ASPI-интерфейс

Выходной формат : Внутренние WAV-операцииФормат сэмплов : 44.100 Гц; 16 бит; стерео

TOC извлечённого CD

Трек | Старт | Длительность | Начальный сектор | Конечный сектор --------------------------------------------------------------------- 1 | 0:00.00 | 3:14.74 | 0 | 14623 2 | 3:14.74 | 3:00.61 | 14624 | 28184 3 | 6:15.60 | 3:11.20 | 28185 | 42529 4 | 9:27.05 | 2:36.20 | 42530 | 54249 5 | 12:03.25 | 2:00.27 | 54250 | 63276 6 | 14:03.52 | 3:04.43 | 63277 | 77119 7 | 17:08.20 | 3:02.33 | 77120 | 90802 8 | 20:10.53 | 3:06.48 | 90803 | 104800 9 | 23:17.26 | 2:59.23 | 104801 | 118248 10 | 26:16.49 | 2:47.00 | 118249 | 130773 11 | 29:03.49 | 2:36.01 | 130774 | 142474 12 | 31:39.50 | 3:20.36 | 142475 | 157510 13 | 35:00.11 | 2:47.05 | 157511 | 170040 14 | 37:47.16 | 2:24.07 | 170041 | 180847 15 | 40:11.23 | 4:03.12 | 180848 | 199084 16 | 44:14.35 | 2:20.57 | 199085 | 209641 17 | 46:35.17 | 1:52.02 | 209642 | 218043 18 | 48:27.19 | 1:57.09 | 218044 | 226827 19 | 50:24.28 | 2:19.56 | 226828 | 237308 20 | 52:44.09 | 3:17.28 | 237309 | 252111 21 | 56:01.37 | 2:43.06 | 252112 | 264342 22 | 58:44.43 | 2:59.20 | 264343 | 277787 23 | 61:43.63 | 2:49.17 | 277788 | 290479 24 | 64:33.05 | 3:03.58 | 290480 | 304262 25 | 67:36.63 | 3:05.16 | 304263 | 318153

Характеристики диапазона извлечения и сообщения об ошибках

Выбранный диапазон

Имя файла F:\Music lossless\Запретные вершины. Часть вторая.wav

Пиковый уровень 100.0 % Качество диапазона 99.9 % CRC теста 6CABCEE1 CRC копии 6CABCEE1 Копирование... OK

Ошибок не произошло

AccurateRip: сводка

Трек 1 нет в базе данныхТрек 2 нет в базе данныхТрек 3 нет в базе данныхТрек 4 нет в базе данныхТрек 5 нет в базе данныхТрек 6 нет в базе данныхТрек 7 нет в базе данныхТрек 8 нет в базе данныхТрек 9 нет в базе данныхТрек 10 нет в базе данныхТрек 11 нет в базе данныхТрек 12 нет в базе данныхТрек 13 нет в базе данныхТрек 14 нет в базе данныхТрек 15 нет в базе данныхТрек 16 нет в базе данныхТрек 17 нет в базе данныхТрек 18 нет в базе данныхТрек 19 нет в базе данныхТрек 20 нет в базе данныхТрек 21 нет в базе данныхТрек 22 нет в базе данныхТрек 23 нет в базе данныхТрек 24 нет в базе данныхТрек 25 нет в базе данных

Ни одного трека нет в базе AccurateRip

Конец отчёта
01. Laura
02. Die Soldaten
03. Ein Heller und ein Batzen
04. Westerwald
05. Alte Kameraden
06. Erika (Heer Arr.)
07. Am Westwall bluht ein Rosenstrauch
08. Dorothee
09. Marie-Helen
10. Schon bluh'n die Heckenrosen
11. Heidemarie, wenn wir am Rhein marschieren
12. Sie hiess Marie
13. Es war ein Edelweiss
14. Wenn ich Urlaub hab'
15. Marsch der Gebirgsjager
16. Die ganze Kompanie
17. Veronika
18. Hannelore
19. Marschlied der Propaganda-Kompanien
20. Ruck-Zuck!
21. Marie-Mara-Maruschkaka
22. Kameraden auf See
23. Wir Kameraden den weissen Berge
24. Rosemarie
25. Schwarzbraun ist die Haselnuss
26. Ich geh' auf gross Fahrt
27. Heut' stechen wir ins blaue Meer!
  
Exact Audio Copy V0.99 prebeta 5 from 4. May 2009

Отчёт EAC об извлечении, выполненном 17. июля 2012, 13:16

- / Запретные вершины. Часть третья. Любимые пластинки фрау Райнхольд

Дисковод: _NEC DVD_RW ND-3550A Adapter: 0 ID: 0

Режим чтения : ДостоверностьИспользование точного потока : ДаОтключение кэша аудио : ДаИспользование указателей C2 : Нет

Коррекция смещения при чтении : 48Способность читать области Lead-in и Lead-out : НетЗаполнение пропущенных сэмплов тишиной : ДаУдаление блоков с тишиной в начале и конце : НетПри вычислениях CRC использовались нулевые сэмплы : ДаИнтерфейс : Установленный внешний ASPI-интерфейс

Выходной формат : Внутренние WAV-операцииФормат сэмплов : 44.100 Гц; 16 бит; стерео

TOC извлечённого CD

Трек | Старт | Длительность | Начальный сектор | Конечный сектор --------------------------------------------------------------------- 1 | 0:00.00 | 2:27.42 | 0 | 11066 2 | 2:27.42 | 2:59.18 | 11067 | 24509 3 | 5:26.60 | 2:51.68 | 24510 | 37402 4 | 8:18.53 | 2:31.17 | 37403 | 48744 5 | 10:49.70 | 2:21.03 | 48745 | 59322 6 | 13:10.73 | 3:02.58 | 59323 | 73030 7 | 16:13.56 | 2:39.64 | 73031 | 85019 8 | 18:53.45 | 2:50.24 | 85020 | 97793 9 | 21:43.69 | 2:56.64 | 97794 | 111057 10 | 24:40.58 | 3:02.32 | 111058 | 124739 11 | 27:43.15 | 2:37.67 | 124740 | 136581 12 | 30:21.07 | 3:03.05 | 136582 | 150311 13 | 33:24.12 | 2:56.09 | 150312 | 163520 14 | 36:20.21 | 2:44.47 | 163521 | 175867 15 | 39:04.68 | 2:53.43 | 175868 | 188885 16 | 41:58.36 | 2:56.56 | 188886 | 202141 17 | 44:55.17 | 2:50.36 | 202142 | 214927 18 | 47:45.53 | 2:57.39 | 214928 | 228241 19 | 50:43.17 | 2:49.28 | 228242 | 240944 20 | 53:32.45 | 2:52.03 | 240945 | 253847 21 | 56:24.48 | 2:40.20 | 253848 | 265867 22 | 59:04.68 | 2:55.49 | 265868 | 279041 23 | 62:00.42 | 2:48.63 | 279042 | 291704 24 | 64:49.30 | 2:47.68 | 291705 | 304297 25 | 67:37.23 | 2:53.26 | 304298 | 317298 26 | 70:30.49 | 2:36.11 | 317299 | 329009 27 | 73:06.60 | 2:49.33 | 329010 | 341717

Характеристики диапазона извлечения и сообщения об ошибках

Выбранный диапазон

Имя файла F:\Music lossless\Запретные вершины. Часть третья. Любимые пластинки фрау Райнхольд.wav

Пиковый уровень 100.0 % Качество диапазона 99.9 % CRC теста 3ACCE2BA CRC копии 3ACCE2BA Копирование... OK

Ошибок не произошло

AccurateRip: сводка

Трек 1 нет в базе данныхТрек 2 нет в базе данныхТрек 3 нет в базе данныхТрек 4 нет в базе данныхТрек 5 нет в базе данныхТрек 6 нет в базе данныхТрек 7 нет в базе данныхТрек 8 нет в базе данныхТрек 9 нет в базе данныхТрек 10 нет в базе данныхТрек 11 нет в базе данныхТрек 12 нет в базе данныхТрек 13 нет в базе данныхТрек 14 нет в базе данныхТрек 15 нет в базе данныхТрек 16 нет в базе данныхТрек 17 нет в базе данныхТрек 18 нет в базе данныхТрек 19 нет в базе данныхТрек 20 нет в базе данныхТрек 21 нет в базе данныхТрек 22 нет в базе данныхТрек 23 нет в базе данныхТрек 24 нет в базе данныхТрек 25 нет в базе данныхТрек 26 нет в базе данныхТрек 27 нет в базе данных

Ни одного трека нет в базе AccurateRip

Конец отчёта

  
Started at: четверг, 19. 07. 2012. - 1:34.113 files found

1 -===- F:\Music lossless\1\Запретные вершины lossless\Часть I\Запретные вершины. Часть первая.flac Extracted successfully Conclusion: this track is CDDA with probability 99% Tempfile successfully deleted.

2 -===- F:\Music lossless\1\Запретные вершины lossless\Часть II\Запретные вершины. Часть вторая.flac Extracted successfully Conclusion: this track is CDDA with probability 99% Tempfile successfully deleted.

3 -===- F:\Music lossless\1\Запретные вершины lossless\Часть III\Запретные вершины. Часть третья. Любимые пластинки фрау Райнхольд.flac Extracted successfully Conclusion: this track is CDDA with probability 100% Tempfile successfully deleted.

Finished at: четверг, 19. 07. 2012. - 1:47.46 (operation time: 0:13.34)



Трекер:  [ 30-Июл-2012 13:51 ]

  

Скачать .torrent

Размер .torrent файла 24 KB


Размер: 1.66 GB
Хэш (hash) релиза: f15062b7a8f8b8bb432e98106cc62c2d2ca5db9b

Еще никто не оставлял запись к записи скачать торрент VA - Запретные вершины. Часть I, II, III . Будь первым!

!Обратная связь