Скачать через торрент музыку Yes - Classic Yes - 1981 бесплатно без регистрации torrent

Если у вас наблюдаются проблемы со скриншотами, переходом по ссылками, скачиванием торрентов - проблемы в блокировщике рекламы AdBlock. #хорошегоДня!


Статистика раздачи
Размер:  434 MB   |    Зарегистрирован:  5 лет 2 месяца   |    .torrent скачан:  13 раз   |   
Раздают:  1  
   
Загрузка...
 
Автор Сообщение

Galfimbul

avatar Galfimbul


Yes - Classic Yes

Жанр: Progressive Rock
Страна-производитель диска: USA
Год издания диска: 1994
Издатель (лейбл): Atlantic
Номер по каталогу: SD 19320-2
Страна: UK
Аудио кодек: FLAC (*.flac)
Тип рипа: image+.cue
Битрейт аудио: lossless
Продолжительность: 01:05:17
Источник (релизер): Boris1
Наличие сканов в содержимом раздачи: да

Треклист:

01. Heart Of The Sunrise 10:37
02. Wondrous Stories 03:46
03. Yours Is No Disgrace 09:43
04. Starship Trooper:
a. Life Seeker
b. Disillusion
c. Wurm 09:32
05. Long Distance Runaround 03:29
06. The Fish (Schindleria Praematurus) 02:38
07. And You And I:
a. Cord Of Life
b. Eclipse
c. The Preacher The Teacher
d. The Apocalypse 10:06
08. Roundabout 07:54
09. I've Seen All Good People:
a. Your Move
b. All Good People 07:28
  
Exact Audio Copy V1.0 beta 1 from 15. November 2010

EAC extraction logfile from 12. July 2012, 14:01

Yes / Classic Yes

Used drive : SAMSUNG DVD-ROM SD-616E Adapter: 3 ID: 0

Read mode : SecureUtilize accurate stream : YesDefeat audio cache : YesMake use of C2 pointers : No

Read offset correction : 12Overread into Lead-In and Lead-Out : NoFill up missing offset samples with silence : YesDelete leading and trailing silent blocks : NoNull samples used in CRC calculations : YesUsed interface : Native Win32 interface for Win NT & 2000

Used output format : Internal WAV RoutinesSample format : 44.100 Hz; 16 Bit; Stereo

TOC of the extracted CD

Track | Start | Length | Start sector | End sector --------------------------------------------------------- 1 | 0:00.32 | 10:37.08 | 32 | 47814 2 | 10:37.40 | 3:46.47 | 47815 | 64811 3 | 14:24.12 | 9:43.20 | 64812 | 108556 4 | 24:07.32 | 9:32.65 | 108557 | 151521 5 | 33:40.22 | 3:29.40 | 151522 | 167236 6 | 37:09.62 | 2:38.45 | 167237 | 179131 7 | 39:48.32 | 10:06.00 | 179132 | 224581 8 | 49:54.32 | 7:54.38 | 224582 | 260169 9 | 57:48.70 | 7:28.40 | 260170 | 293809

Range status and errors

Selected range

Filename C:\Documents and Settings\Borya\Desktop\Yecl\Yes - Classic Yes.wav

Peak level 100.0 % Extraction speed 0.4 X Range quality 100.0 % Copy CRC 61E636CE Copy OK

No errors occurred

AccurateRip summary

Track 1 accurately ripped (confidence 21) [5855E39A]Track 2 accurately ripped (confidence 21) [4E200626]Track 3 accurately ripped (confidence 20) [447FC3FA]Track 4 accurately ripped (confidence 20) [1567807D]Track 5 accurately ripped (confidence 21) [1C4F16DD]Track 6 accurately ripped (confidence 20) [C2962E05]Track 7 accurately ripped (confidence 18) [7AC87ECE]Track 8 accurately ripped (confidence 19) [5BBFD2DA]Track 9 accurately ripped (confidence 20) [8FB8257C]

All tracks accurately ripped

End of status report
  
REM GENRE "Progressive Rock"REM DATE 1981REM DISCID 7E0F4D09REM COMMENT "ExactAudioCopy v1.0b1"PERFORMER "Yes"TITLE "Classic Yes"FILE "Yes - Classic Yes.flac" WAVE TRACK 01 AUDIO TITLE "Heart of the Sunrise" PERFORMER "Yes" INDEX 00 00:00:00 INDEX 01 00:00:32 TRACK 02 AUDIO TITLE "Wonderous Stories" PERFORMER "Yes" INDEX 00 10:35:15 INDEX 01 10:37:40 TRACK 03 AUDIO TITLE "Yours Is No Disgrace" PERFORMER "Yes" INDEX 00 14:23:63 INDEX 01 14:24:12 TRACK 04 AUDIO TITLE "Starship Trooper: Life Seeker- Disillusion- Wьrm" PERFORMER "Yes" INDEX 00 24:05:55 INDEX 01 24:07:32 TRACK 05 AUDIO TITLE "Long Distance Runaround" PERFORMER "Yes" INDEX 01 33:40:22 TRACK 06 AUDIO TITLE "The Fish (Schindleria Praematurus)" PERFORMER "Yes" INDEX 01 37:09:62 TRACK 07 AUDIO TITLE "And You and I: Cord of Life- Eclipse- The Preacher the Teacher- The Apocalypse" PERFORMER "Yes" INDEX 00 39:47:22 INDEX 01 39:48:32 TRACK 08 AUDIO TITLE "Roundabout (Live)" PERFORMER "Yes" INDEX 00 49:52:57 INDEX 01 49:54:32 TRACK 09 AUDIO TITLE "I've Seen All Good People: Your Move- All Good People (Live)" PERFORMER "Yes" INDEX 00 57:47:25 INDEX 01 57:48:70
  
-----------------------

DON'T MODIFY THIS FILE

-----------------------

PERFORMER: auCDtect Task Manager, ver. 1.5.1RC4 build 1.5.1.5Copyright (c) 2008-2010 y-soft. All rights reservedhttp://y-soft.org

ANALYZER: auCDtect: CD records authenticity detector, version 0.8.2Copyright (c) 2004 Oleg Berngardt. All rights reserved.Copyright (c) 2004 Alexander Djourik. All rights reserved.

FILE: Yes - Classic Yes.flac Size: 419145420 Hash: FAD8A7B26430C006237EF964111791B1 Accuracy: -m8 Conclusion: CDDA 100% Signature: A92E520C92F37CEAD26C745B6922730C16929072
Доп. информация:

Трекер:  [ 20-Июл-2012 00:31 ]

  

Скачать .torrent

Размер .torrent файла 18 KB


Размер: 434 MB
Хэш (hash) релиза: e3b60bcbf864ff16f32a422d82a6b9d976e533c5

Еще никто не оставлял запись к записи скачать торрент Yes - Classic Yes - 1981 . Будь первым!

!Обратная связь