Скачать через торрент музыку Lauren OConnell - Quitters - 2012, FLAC бесплатно без регистрации torrent

Если у вас наблюдаются проблемы со скриншотами, переходом по ссылками, скачиванием торрентов - проблемы в блокировщике рекламы AdBlock. #хорошегоДня!


Статистика раздачи
Размер:  258 MB   |    Зарегистрирован:  5 лет 3 месяца   |    .torrent скачан:  13 раз   |   
Раздают:  1  
   
Загрузка...
 
Автор Сообщение

Galfimbul

avatar Galfimbul


Lauren O'Connell - «Quitters»

Жанр: Pop, Folk
Стиль: Country, Indie Pop
Страна: USA
Год издания: 2012
Издатель: © Lauren O'Connell
Номер по каталогу: 6793 29
Аудиокодек: FLAC (*.flac)
Тип рипа: tracks+.cue
Битрейт аудио: lossless
Продолжительность: 00:45:29
Источник: eD2k
Изменения: файлы переименованы, уточнены теги, добавлен исправленный .cue - evc
Наличие сканов в содержимом раздачи: нет

Треклист:
01. Every Space (04:20)
02. I Will Burn You Down (04:32)
03. I Belong to You (04:05)
04. Things Are Alright (03:59)
05. If Found / Gravity (07:46)
06. What Breaks (0and What Doesn't) (04:19)
07. Maybe True Stories (03:20)
08. The Same Things (03:53)
09. In the Next Room (04:42)
10. White Noise (04:33)
  
Exact Audio Copy V1.0 beta 3 from 29. August 2011

EAC extraction logfile from 17. March 2012, 17:37

Quitters / Lauren O'Connel

Used drive : Optiarc DVD RW AD-7580S Adapter: 0 ID: 1

Read mode : SecureUtilize accurate stream : YesDefeat audio cache : YesMake use of C2 pointers : No

Read offset correction : 6Overread into Lead-In and Lead-Out : NoFill up missing offset samples with silence : YesDelete leading and trailing silent blocks : NoNull samples used in CRC calculations : YesUsed interface : Native Win32 interface for Win NT & 2000Gap handling : Appended to previous track

Used output format : User Defined EncoderSelected bitrate : 1024 kBit/sQuality : HighAdd ID3 tag : NoCommand line compressor : C:\Program Files (x86)\Exact Audio Copy\FLAC\FLAC.EXEAdditional command line options : -8 -V -T "ARTIST=%artist%" -T "TITLE=%title%" -T "ALBUM=%albumtitle%" -T "DATE=%year%" -T "TRACKNUMBER=%tracknr%" -T "GENRE=%genre%" -T "PERFORMER=%albuminterpret%" -T "COMPOSER=%composer%" %haslyrics%--tag-from-file=LYRICS="%lyricsfile%"%haslyrics% -T "ALBUMARTIST=%albumartist%" -T "DISCNUMBER=%cdnumber%" -T "TOTALDISCS=%totalcds%" -T "TOTALTRACKS=%numtracks%" -T "COMMENT=%comment%" %source% -o %dest%

TOC of the extracted CD

Track | Start | Length | Start sector | End sector --------------------------------------------------------- 1 | 0:00.00 | 4:20.36 | 0 | 19535 2 | 4:20.36 | 4:32.45 | 19536 | 39980 3 | 8:53.06 | 4:05.19 | 39981 | 58374 4 | 12:58.25 | 3:59.61 | 58375 | 76360 5 | 16:58.11 | 7:46.60 | 76361 | 111370 6 | 24:44.71 | 4:19.15 | 111371 | 130810 7 | 29:04.11 | 3:20.67 | 130811 | 145877 8 | 32:25.03 | 3:53.18 | 145878 | 163370 9 | 36:18.21 | 4:42.30 | 163371 | 184550 10 | 41:00.51 | 4:33.01 | 184551 | 205026

Track 1

Filename C:\EAC\Lauren O'Connell - Quitters (2012) [FLAC - CD]\01. Every Space.wav

Pre-gap length 0:00:02.00

Peak level 95.6 % Extraction speed 2.6 X Track quality 100.0 % Test CRC 397BD840 Copy CRC 397BD840 Track not present in AccurateRip database Copy OK

Track 2

Filename C:\EAC\Lauren O'Connell - Quitters (2012) [FLAC - CD]\02. I Will Burn You Down.wav

Peak level 95.6 % Extraction speed 2.6 X Track quality 99.9 % Test CRC 62D40A34 Copy CRC 62D40A34 Track not present in AccurateRip database Copy OK

Track 3

Filename C:\EAC\Lauren O'Connell - Quitters (2012) [FLAC - CD]\03. I Belong to You.wav

Pre-gap length 0:00:01.42

Peak level 95.6 % Extraction speed 3.3 X Track quality 100.0 % Test CRC CAEF4165 Copy CRC CAEF4165 Track not present in AccurateRip database Copy OK

Track 4

Filename C:\EAC\Lauren O'Connell - Quitters (2012) [FLAC - CD]\04. Things Are Alright.wav

Pre-gap length 0:00:01.74

Peak level 95.6 % Extraction speed 3.5 X Track quality 100.0 % Test CRC EC36B097 Copy CRC EC36B097 Track not present in AccurateRip database Copy OK

Track 5

Filename C:\EAC\Lauren O'Connell - Quitters (2012) [FLAC - CD]\05. If Found,Gravity.wav

Peak level 95.6 % Extraction speed 3.6 X Track quality 99.9 % Test CRC E69AC277 Copy CRC E69AC277 Track not present in AccurateRip database Copy OK

Track 6

Filename C:\EAC\Lauren O'Connell - Quitters (2012) [FLAC - CD]\06. What Breaks (and What Doesn't).wav

Pre-gap length 0:00:02.43

Peak level 95.6 % Extraction speed 4.1 X Track quality 100.0 % Test CRC 31CCA350 Copy CRC 31CCA350 Track not present in AccurateRip database Copy OK

Track 7

Filename C:\EAC\Lauren O'Connell - Quitters (2012) [FLAC - CD]\07. Maybe True Stories.wav

Pre-gap length 0:00:01.42

Peak level 95.6 % Extraction speed 4.0 X Track quality 100.0 % Test CRC FF5019EA Copy CRC FF5019EA Track not present in AccurateRip database Copy OK

Track 8

Filename C:\EAC\Lauren O'Connell - Quitters (2012) [FLAC - CD]\08. The Same Things.wav

Pre-gap length 0:00:01.60

Peak level 94.7 % Extraction speed 4.3 X Track quality 100.0 % Test CRC 4FA06181 Copy CRC 4FA06181 Track not present in AccurateRip database Copy OK

Track 9

Filename C:\EAC\Lauren O'Connell - Quitters (2012) [FLAC - CD]\09. In the Next Room.wav

Pre-gap length 0:00:02.07

Peak level 95.6 % Extraction speed 4.6 X Track quality 100.0 % Test CRC 832206D7 Copy CRC 832206D7 Track not present in AccurateRip database Copy OK

Track 10

Filename C:\EAC\Lauren O'Connell - Quitters (2012) [FLAC - CD]\10. White Noise.wav

Pre-gap length 0:00:03.15

Peak level 95.6 % Extraction speed 4.6 X Track quality 100.0 % Test CRC 343638D1 Copy CRC 343638D1 Track not present in AccurateRip database Copy OK

None of the tracks are present in the AccurateRip database

No errors occurred

End of status report

==== Log checksum D1DC8A467E85D9C72C8BC6D29582B7FABE7C2DD0FE6FA35D55B470FD63B00933 ====
  
REM GENRE IndieREM DATE 2012REM DISCID 7E0AAD0AREM COMMENT "ExactAudioCopy v1.0b3"PERFORMER "Quitters"TITLE "Lauren O'Connel"FILE "01. Every Space.wav" WAVE TRACK 01 AUDIO TITLE "Every Space" PERFORMER "Quitters" ISRC EMSAA1200001 INDEX 01 00:00:00FILE "02. I Will Burn You Down.wav" WAVE TRACK 02 AUDIO TITLE "I Will Burn You Down" PERFORMER "Quitters" ISRC EMSAA1200002 INDEX 01 00:00:00 TRACK 03 AUDIO TITLE "I Belong to You" PERFORMER "Quitters" ISRC EMSAA1200003 INDEX 00 04:31:03FILE "03. I Belong to You.wav" WAVE INDEX 01 00:00:00 TRACK 04 AUDIO TITLE "Things Are Alright" PERFORMER "Quitters" ISRC EMSAA1200004 INDEX 00 04:03:20FILE "04. Things Are Alright.wav" WAVE INDEX 01 00:00:00FILE "05. If Found,Gravity.wav" WAVE TRACK 05 AUDIO TITLE "If Found/Gravity" PERFORMER "Quitters" ISRC EMSAA1200005 INDEX 01 00:00:00 TRACK 06 AUDIO TITLE "What Breaks (and What Doesn't)" PERFORMER "Quitters" ISRC EMSAA1200006 INDEX 00 07:44:17FILE "06. What Breaks (and What Doesn't).wav" WAVE INDEX 01 00:00:00 TRACK 07 AUDIO TITLE "Maybe True Stories" PERFORMER "Quitters" ISRC EMSAA1200007 INDEX 00 04:17:48FILE "07. Maybe True Stories.wav" WAVE INDEX 01 00:00:00 TRACK 08 AUDIO TITLE "The Same Things" PERFORMER "Quitters" ISRC EMSAA1200008 INDEX 00 03:19:07FILE "08. The Same Things.wav" WAVE INDEX 01 00:00:00 TRACK 09 AUDIO TITLE "In the Next Room" PERFORMER "Quitters" ISRC EMSAA1200009 INDEX 00 03:51:11FILE "09. In the Next Room.wav" WAVE INDEX 01 00:00:00 TRACK 10 AUDIO TITLE "White Noise" PERFORMER "Quitters" ISRC EMSAA1200010 INDEX 00 04:39:15FILE "10. White Noise.wav" WAVE INDEX 01 00:00:00
  
-----------------------

DON'T MODIFY THIS FILE

-----------------------

PERFORMER: auCDtect Task Manager, ver. 1.5.1RC6 build 1.5.1.7Copyright (c) 2008-2010 y-soft. All rights reservedhttp://y-soft.org

ANALYZER: auCDtect: CD records authenticity detector, version 0.8.2Copyright (c) 2004 Oleg Berngardt. All rights reserved.Copyright (c) 2004 Alexander Djourik. All rights reserved.

FILE: 10 - Lauren O'Connell - White Noise.flac Size: 24571423 Hash: 30C612A73DD53F6A3E1A2594744C5E07 Accuracy: -m0 Conclusion: CDDA 99% Signature: C7B9713D500CD7FFE77A11B82E29ECEF90771B66FILE: 09 - Lauren O'Connell - In the Next Room.flac Size: 26873996 Hash: 2D11373DDC989D52AD2FEDA3073DCCDF Accuracy: -m0 Conclusion: CDDA 100% Signature: BF0DDF742E8509698BDDACAF9FBAD2B54128FA7CFILE: 08 - Lauren O'Connell - The Same Things.flac Size: 20180797 Hash: 925A87BD7D719106F72D4B3E0BEEB7CB Accuracy: -m0 Conclusion: CDDA 100% Signature: 2991BB3E7E6139FF6A5C67E32EACC18DDFEF7371FILE: 07 - Lauren O'Connell - Maybe True Stories.flac Size: 20652904 Hash: C1EEE6DFD3DCA4070B5F41B6A77531C7 Accuracy: -m0 Conclusion: CDDA 99% Signature: 3994CFE982A5426A86CF7CB8A769D7196A70A077FILE: 06 - Lauren O'Connell - What Breaks (and What Doesn't).flac Size: 22595660 Hash: D9516E04218C9D26DB9850A689325483 Accuracy: -m0 Conclusion: CDDA 100% Signature: EBEA26F043331B2DE68ABBE48354F098FE6E94F6FILE: 05 - Lauren O'Connell - If Found. Gravity.flac Size: 49242436 Hash: 0F011A03C3F523F9ADD6296AC75DF9D1 Accuracy: -m0 Conclusion: CDDA 100% Signature: D43FAE8FC2F4AFB0E804CACBD4C51CA215CDD127FILE: 04 - Lauren O'Connell - Things Are Alright.flac Size: 19839062 Hash: F46E5B27A9BF481D89F6F8D09C864842 Accuracy: -m0 Conclusion: CDDA 100% Signature: 11F73CAF6012A434A258AF9AE912F8F22AFE0A7EFILE: 03 - Lauren O'Connell - I Belong to You.flac Size: 25852698 Hash: BE051C30D07FD0AAA265957B697F74DE Accuracy: -m0 Conclusion: CDDA 100% Signature: DBEA0F1D489B635CC55E2FCC23C83D1C3A0E786EFILE: 02 - Lauren O'Connell - I Will Burn You Down.flac Size: 31771005 Hash: 96A0341A8780743ECF16704AEB24BEA1 Accuracy: -m0 Conclusion: CDDA 100% Signature: B1BF0FD63389AD1B74F0B71D88901DD8415AA69AFILE: 01 - Lauren O'Connell - Every Space.flac Size: 28004512 Hash: 9ABF05B36BDCFF1C1C31DB009528CEF9 Accuracy: -m0 Conclusion: CDDA 100% Signature: 1065BE66B2F0473B33A138235F11E6C78A6E33D6

Lauren O’Connell tiptoed onto the music scene with her 2007 debut Sitting in Chairs, a beautifully simple one-track acoustic album. Her third offering Quitters is a lot more confident and has a heck of a lot more gumption in it that the title would suggest. The album captures perfectly the sound of the ultimate American road trip; Lauren herself hailing from Rochester, New York and ending up in California. If big horizons, sunsets and campfires had a soundtrack, it would be this. It’s not quite country and not quite folk, just a lovely happy medium that’s as far from Dolly Parton as it is from Laura Marling.

The album opens with the understated optimism and infectious percussion of ‘Every Space’, topped off with Lauren’s inimitable warm sun-and-whiskey-drenched vocals. ‘I Will Burn You Down’ follows, with jangly guitar and raw, lamenting lyrics; roughly along the lines of “pull yourself together and move on”, just a lot more eloquently put.

The duet ‘I Belong To You’, with fellow California-based singer Ryan Lerman, is full of harmonies and oohs and ahhs, and everything you could really ask for from a love song. It features the Wilco-countering line “nothing is just born to die” with infinite more positivity and sincerity than Lana Del Rey could ever feign. The dreamy ‘In The Next Room’ is the penultimate track on the album, with the strings and keys creating a waltz-like quality.

Considering all this, it would be too easy to mentally file Quitters along with all the twee fauxksters, next to the boutique bunting and teacups gathering dust in the synapse of your brain that resembles an Instagram’d basement in Brixton. But there’s something a lot more authentic about this album. The girl’s got guts. There’s plenty of feist in the brutally honest lyrics of ‘Maybe True Stories’. It’s also present in the stunning, nearly-eight-minute-long ‘If Found/Gravity’, which contains the unrelenting refrain of “I want something returned to me”. Perhaps captured within this one song is Lauren’s whole musical career thus far; from a sweet and uncertain beginning, to a powerful crescendo of tenacity.

Ignore this review. Don’t listen to it. Listen to Lauren O’Connell. She’s might not be shouting very loudly, but what she is saying is with conviction, and the way she’s saying it is beautiful.




Трекер:  [ 20-Июл-2012 00:32 ]

  

Скачать .torrent

Размер .torrent файла 12 KB


Размер: 258 MB
Хэш (hash) релиза: b9635d4a95fcda22e9f61b850be10aad837b41c3

Еще никто не оставлял запись к записи скачать торрент Lauren OConnell - Quitters - 2012, FLAC . Будь первым!

!Обратная связь