Скачать через торрент музыку David Bowie - Fame And Fashion бесплатно без регистрации torrent

Если у вас наблюдаются проблемы со скриншотами, переходом по ссылками, скачиванием торрентов - проблемы в блокировщике рекламы AdBlock. #хорошегоДня!


Статистика раздачи
Размер:  369 MB   |    Зарегистрирован:  5 лет   |    .torrent скачан:  13 раз   |   
Раздают:  1  
   
Загрузка...
 
Автор Сообщение

Galfimbul

avatar Galfimbul


David Bowie / Fame And Fashion (David Bowie's All Time Greatest Hits)
Жанр: Classic Rock, Glam Rock
Страна-производитель диска: Japan
Год издания: 1984
Издатель (лейбл): RCA/Victor
Номер по каталогу: PCD1-4919
Matrix number: PCD-14919
Страна: England
Аудиокодек: FLAC (*.flac)
Тип рипа: image+.cue (log&cue embedded)
Битрейт аудио: lossless
Продолжительность: 55:01
Источник (релизер): личная коллекция
Наличие сканов в содержимом раздачи: да (300 dpi PNG)

Треклист:
01. [5:15] Space Oddity
02. [3:37] Changes
03. [4:15] Starman
04. [3:28] 1984
05. [5:10] Young Americans
06. [4:17] Fame
07. [4:00] Golden Years
08. [5:32] TVC 15
09. [6:09] Heroes
10. [4:02] D.J.
11. [4:50] Fashion
12. [4:26] Ashes To Ashes
  
Exact Audio Copy V1.0 beta 3 from 29. August 2011

EAC extraction logfile from 14. July 2012, 20:12

David Bowie / Fame And Fashion (David Bowie's All Time Greatest Hits) (RCA America, PCD1-4919)

Used drive : PLEXTOR DVDR PX-880SA Adapter: 5 ID: 0

Read mode : SecureUtilize accurate stream : YesDefeat audio cache : YesMake use of C2 pointers : No

Read offset correction : 6Overread into Lead-In and Lead-Out : NoFill up missing offset samples with silence : YesDelete leading and trailing silent blocks : NoNull samples used in CRC calculations : YesUsed interface : Native Win32 interface for Win NT & 2000

Used output format : User Defined EncoderSelected bitrate : 1024 kBit/sQuality : HighAdd ID3 tag : NoCommand line compressor : C:\Program Files\FLAC\flac.exeAdditional command line options : -8 -V %source% -o %dest%

TOC of the extracted CD

Track | Start | Length | Start sector | End sector --------------------------------------------------------- 1 | 0:00.00 | 5:15.00 | 0 | 23624 2 | 5:15.00 | 3:36.62 | 23625 | 39886 3 | 8:51.62 | 4:15.30 | 39887 | 59041 4 | 13:07.17 | 3:28.08 | 59042 | 74649 5 | 16:35.25 | 5:10.37 | 74650 | 97936 6 | 21:45.62 | 4:17.13 | 97937 | 117224 7 | 26:03.00 | 3:59.50 | 117225 | 135199 8 | 30:02.50 | 5:31.72 | 135200 | 160096 9 | 35:34.47 | 6:09.25 | 160097 | 187796 10 | 41:43.72 | 4:02.03 | 187797 | 205949 11 | 45:46.00 | 4:50.25 | 205950 | 227724 12 | 50:36.25 | 4:25.45 | 227725 | 247644

Range status and errors

Selected range

Filename C:\Mysterons [Skull_of_Sheeps]\David Bowie [1984] Fame And Fashion (RCA America, PCD1-4919)\David Bowie - Fame And Fashion (RCA America, PCD1-4919).wav

Peak level 100.0 % Extraction speed 4.6 X Range quality 100.0 % Test CRC 890D6F5C Copy CRC 890D6F5C Copy OK

No errors occurred

AccurateRip summary

Track 1 accurately ripped (confidence 4) [03C8262D] (AR v2)Track 2 accurately ripped (confidence 4) [E9A9DEC7] (AR v2)Track 3 accurately ripped (confidence 5) [DC78B599] (AR v2)Track 4 accurately ripped (confidence 5) [72734992] (AR v2)Track 5 accurately ripped (confidence 5) [13453F50] (AR v2)Track 6 accurately ripped (confidence 5) [8489E945] (AR v2)Track 7 accurately ripped (confidence 5) [56C85982] (AR v2)Track 8 accurately ripped (confidence 5) [BF53F7D9] (AR v2)Track 9 accurately ripped (confidence 5) [85F909B4] (AR v2)Track 10 accurately ripped (confidence 5) [ABC12527] (AR v2)Track 11 accurately ripped (confidence 5) [B9CE01AC] (AR v2)Track 12 accurately ripped (confidence 5) [969425B8] (AR v2)

All tracks accurately ripped

End of status report

---- CUETools DB Plugin V2.1.3

[CTDB TOCID: 9PGmJyX3_wVPze9f6xQibnD984k-] found, Submit result: 9PGmJyX3_wVPze9f6xQibnD984k- has been confirmed[0d14c851] (01/28) No match[41b52877] (27/28) Accurately ripped
  
[CUETools log; Date: 14.07.2012 20:26:24; Version: 2.1.4][CTDB TOCID: 9PGmJyX3_wVPze9f6xQibnD984k-] found.Track | CTDB Status 1 | (3/3) Accurately ripped 2 | (3/3) Accurately ripped 3 | (3/3) Accurately ripped 4 | (3/3) Accurately ripped 5 | (3/3) Accurately ripped 6 | (3/3) Accurately ripped 7 | (3/3) Accurately ripped 8 | (3/3) Accurately ripped 9 | (3/3) Accurately ripped 10 | (3/3) Accurately ripped 11 | (3/3) Accurately ripped 12 | (2/3) Accurately ripped[AccurateRip ID: 00180f4c-00e1de49-ad0ce50c] found.Track [ CRC | V2 ] Status 01 [2a928175|03c8262d] (26+04/30) Accurately ripped 02 [d837cd2f|e9a9dec7] (26+04/30) Accurately ripped 03 [46933874|dc78b599] (26+05/31) Accurately ripped 04 [cd3b3686|72734992] (26+05/31) Accurately ripped 05 [488a1c03|13453f50] (26+05/31) Accurately ripped 06 [0f4f0ae6|8489e945] (26+05/31) Accurately ripped 07 [29ae2585|56c85982] (24+05/29) Accurately ripped 08 [c52be3e0|bf53f7d9] (26+05/31) Accurately ripped 09 [29b07522|85f909b4] (26+05/31) Accurately ripped 10 [ba324dd3|abc12527] (25+05/30) Accurately ripped 11 [7dd6acdb|b9ce01ac] (23+05/28) Accurately ripped 12 [dc95f476|969425b8] (26+05/31) Accurately ripped

Track Peak [ CRC32 ] [W/O NULL] [ LOG ] -- 100,0 [890D6F5C] [B3196E70] CRC32 01 58,2 [CD6EF254] [36BB8EA0] 02 88,2 [40AC624E] [C306C079] 03 90,5 [0FE3117A] [AF8B07B9] 04 72,0 [DD6D7BE3] [A40B1CBA] 05 87,6 [591F17B8] [66A4C83E] 06 78,8 [9281755B] [9C10071D] 07 100,0 [61EA9DB2] [4D2AEEC4] 08 100,0 [991E116D] [09B14E42] 09 91,0 [D02A33E7] [9690AD6B] 10 88,9 [2B6102F2] [60746E9E] 11 89,9 [B69A1788] [48773584] 12 76,4 [603F6A52] [7A31D6B3]
  
foobar2000 1.0.3 / Dynamic Range Meter 1.1.1log date: 2012-07-14 20:32:40

--------------------------------------------------------------------------------Analyzed: David Bowie / Fame And Fashion (David Bowie's All Time Greatest Hits) (RCA America, PCD1-4919)--------------------------------------------------------------------------------

DR Peak RMS Duration Track--------------------------------------------------------------------------------DR12 -4.70 dB -18.57 dB 5:15 01-Space OddityDR13 -1.09 dB -18.93 dB 3:37 02-ChangesDR12 -0.86 dB -15.29 dB 4:15 03-StarmanDR11 -2.85 dB -16.41 dB 3:28 04-1984DR12 -1.14 dB -16.38 dB 5:10 05-Young AmericansDR15 -2.07 dB -19.52 dB 4:17 06-FameDR13 0.00 dB -14.53 dB 4:00 07-Golden YearsDR13 0.00 dB -15.34 dB 5:32 08-TVC 15DR12 -0.82 dB -14.97 dB 6:09 09-HeroesDR11 -1.02 dB -13.75 dB 4:02 10-D.J.DR14 -0.92 dB -17.47 dB 4:50 11-FashionDR13 -2.33 dB -17.63 dB 4:26 12-Ashes To Ashes--------------------------------------------------------------------------------

Number of tracks: 12Official DR value: DR12

Samplerate: 44100 HzChannels: 2Bits per sample: 16Bitrate: 833 kbpsCodec: FLAC================================================================================


Трекер:  [ 20-Июл-2012 00:32 ]

  

Скачать .torrent

Размер .torrent файла 16 KB


Размер: 369 MB
Хэш (hash) релиза: b0a7085ce5eba25f16c34fb7d2ef01c39f0f6293

Еще никто не оставлял запись к записи скачать торрент David Bowie - Fame And Fashion . Будь первым!

!Обратная связь