Скачать через торрент музыку Jimi Hendrix Experience - Smash Hits - 1968 бесплатно без регистрации torrent

Если у вас наблюдаются проблемы со скриншотами, переходом по ссылками, скачиванием торрентов - проблемы в блокировщике рекламы AdBlock. #хорошегоДня!


Статистика раздачи
Размер:  318 MB   |    Зарегистрирован:  5 лет 2 месяца   |    .torrent скачан:  22 раза   |   
Раздают:  1  
   
Загрузка...
 
Автор Сообщение

Galfimbul

avatar Galfimbul


Jimi Hendrix Experience / Smash Hits - 1968 [Polydor 825 255-2]

Жанр: Psychedelic Rock / Classic Rock
Страна-производитель диска: W.-Germany
Год издания: 1984
Издатель (лейбл): Polydor
Номер по каталогу: 825 255-2
Страна: UK
Аудиокодек: FLAC (*.flac)
Тип рипа: tracks+.cue
Битрейт аудио: lossless
Продолжительность: 40:03.32
Источник (релизер): stratos
Наличие сканов в содержимом раздачи: да
Треклист (UK version):
1 Purple Haze 2:45
2 Fire 2:38
3 The Wind Cries Mary 3:17
4 Can You See Me 2:30
5 51st Anniversary 3:15 (mono)
6 Hey Joe 3:26
7 Stone Free 3:33
8 Stars That Play With Laughing Sam's Dice 4:17
9 Manic Depression 3:37
10 Highway Chile 3:29 (mono)
11 Burning Of The Midnight Lamp 3:38
12 Foxy Lady 3:14
  
Exact Audio Copy V1.0 beta 3 from 29. August 2011

EAC extraction logfile from 17. July 2012, 19:41

The Jimi Hendrix Experience / Smash Hits

Used drive : MATSHITADVD-RAM UJ-841S Adapter: 2 ID: 0

Read mode : SecureUtilize accurate stream : YesDefeat audio cache : YesMake use of C2 pointers : No

Read offset correction : 102Overread into Lead-In and Lead-Out : NoFill up missing offset samples with silence : YesDelete leading and trailing silent blocks : NoNull samples used in CRC calculations : YesUsed interface : Installed external ASPI interfaceGap handling : Appended to previous track

Used output format : User Defined EncoderSelected bitrate : 768 kBit/sQuality : HighAdd ID3 tag : NoCommand line compressor : C:\Program Files\Exact Audio Copy\FLAC\FLAC.EXEAdditional command line options : -V -8 -T "Genre=%genre%" -T "Artist=%artist%" -T "Title=%title%" -T "Album=%albumtitle%" -T "Date=%year%" -T "Tracknumber=%tracknr%" -T "Comment=%comment%" %source%

TOC of the extracted CD

Track | Start | Length | Start sector | End sector --------------------------------------------------------- 1 | 0:00.33 | 2:48.10 | 33 | 12642 2 | 2:48.43 | 2:40.17 | 12643 | 24659 3 | 5:28.60 | 3:18.15 | 24660 | 39524 4 | 8:47.00 | 2:32.28 | 39525 | 50952 5 | 11:19.28 | 3:17.47 | 50953 | 65774 6 | 14:37.00 | 3:25.55 | 65775 | 81204 7 | 18:02.55 | 3:35.28 | 81205 | 97357 8 | 21:38.08 | 4:19.25 | 97358 | 116807 9 | 25:57.33 | 3:40.25 | 116808 | 133332 10 | 29:37.58 | 3:32.10 | 133333 | 149242 11 | 33:09.68 | 3:39.35 | 149243 | 165702 12 | 36:49.28 | 3:14.05 | 165703 | 180257

Track 1

Filename E:\stratos\Jimi Hendrix Experience - Smash Hits (1968) [Polydor 825 255-2, 1984]\01. Purple Haze.wav

Pre-gap length 0:00:02.33

Peak level 79.4 % Extraction speed 1.3 X Track quality 100.0 % Test CRC F60EFE65 Copy CRC F60EFE65 Accurately ripped (confidence 8) [856DA040] (AR v2) Copy OK

Track 2

Filename E:\stratos\Jimi Hendrix Experience - Smash Hits (1968) [Polydor 825 255-2, 1984]\02. Fire.wav

Pre-gap length 0:00:02.00

Peak level 79.2 % Extraction speed 1.4 X Track quality 100.0 % Test CRC 0B617417 Copy CRC 0B617417 Accurately ripped (confidence 8) [B7E132AE] (AR v2) Copy OK

Track 3

Filename E:\stratos\Jimi Hendrix Experience - Smash Hits (1968) [Polydor 825 255-2, 1984]\03. The Wind Cries Mary.wav

Pre-gap length 0:00:02.00

Peak level 80.4 % Extraction speed 1.4 X Track quality 99.9 % Test CRC 26E93E54 Copy CRC 26E93E54 Accurately ripped (confidence 8) [8085E023] (AR v2) Copy OK

Track 4

Filename E:\stratos\Jimi Hendrix Experience - Smash Hits (1968) [Polydor 825 255-2, 1984]\04. Can You See Me.wav

Pre-gap length 0:00:02.00

Peak level 77.5 % Extraction speed 1.4 X Track quality 99.9 % Test CRC 1C13B4F8 Copy CRC 1C13B4F8 Accurately ripped (confidence 8) [22E81491] (AR v2) Copy OK

Track 5

Filename E:\stratos\Jimi Hendrix Experience - Smash Hits (1968) [Polydor 825 255-2, 1984]\05. 51st Anniversary.wav

Pre-gap length 0:00:02.00

Peak level 79.8 % Extraction speed 1.8 X Track quality 100.0 % Test CRC 59203A85 Copy CRC 59203A85 Accurately ripped (confidence 8) [8B165696] (AR v2) Copy OK

Track 6

Filename E:\stratos\Jimi Hendrix Experience - Smash Hits (1968) [Polydor 825 255-2, 1984]\06. Hey Joe.wav

Pre-gap length 0:00:02.00

Peak level 81.2 % Extraction speed 1.9 X Track quality 100.0 % Test CRC 40E85D91 Copy CRC 40E85D91 Accurately ripped (confidence 8) [ADF1C844] (AR v2) Copy OK

Track 7

Filename E:\stratos\Jimi Hendrix Experience - Smash Hits (1968) [Polydor 825 255-2, 1984]\07. Stone Free.wav

Pre-gap length 0:00:02.00

Peak level 78.1 % Extraction speed 2.0 X Track quality 100.0 % Test CRC F82DCC51 Copy CRC F82DCC51 Accurately ripped (confidence 8) [0FA7CFB7] (AR v2) Copy OK

Track 8

Filename E:\stratos\Jimi Hendrix Experience - Smash Hits (1968) [Polydor 825 255-2, 1984]\08. Stars That Play With Laughing Sam's Dice.wav

Pre-gap length 0:00:02.00

Peak level 81.2 % Extraction speed 2.2 X Track quality 100.0 % Test CRC BBB12497 Copy CRC BBB12497 Accurately ripped (confidence 8) [9611C10D] (AR v2) Copy OK

Track 9

Filename E:\stratos\Jimi Hendrix Experience - Smash Hits (1968) [Polydor 825 255-2, 1984]\09. Manic Depression.wav

Pre-gap length 0:00:01.58

Peak level 81.2 % Extraction speed 2.2 X Track quality 100.0 % Test CRC 8125E0EA Copy CRC 8125E0EA Accurately ripped (confidence 8) [32A2A142] (AR v2) Copy OK

Track 10

Filename E:\stratos\Jimi Hendrix Experience - Smash Hits (1968) [Polydor 825 255-2, 1984]\10. Highway Chile.wav

Pre-gap length 0:00:02.15

Peak level 79.1 % Extraction speed 2.0 X Track quality 99.9 % Test CRC CD678595 Copy CRC CD678595 Accurately ripped (confidence 8) [AA56F455] (AR v2) Copy OK

Track 11

Filename E:\stratos\Jimi Hendrix Experience - Smash Hits (1968) [Polydor 825 255-2, 1984]\11. Burning of the Midnight Lamp.wav

Pre-gap length 0:00:02.00

Peak level 77.5 % Extraction speed 2.1 X Track quality 99.9 % Test CRC A37E8A97 Copy CRC A37E8A97 Accurately ripped (confidence 8) [5109CED9] (AR v2) Copy OK

Track 12

Filename E:\stratos\Jimi Hendrix Experience - Smash Hits (1968) [Polydor 825 255-2, 1984]\12. Foxey Lady.wav

Pre-gap length 0:00:01.65

Peak level 80.3 % Extraction speed 2.5 X Track quality 100.0 % Test CRC A4EF61A1 Copy CRC A4EF61A1 Accurately ripped (confidence 8) [C5B9A714] (AR v2) Copy OK

All tracks accurately ripped

No errors occurred

End of status report

==== Log checksum EB4C5DFD10542184902DEB68063B8B8690819545DAD25829FB95B580D52C3752 ====
  
REM GENRE BluesREM DATE 1968REM DISCID 9E09630CREM COMMENT "ExactAudioCopy v1.0b3"CATALOG 0042282525529PERFORMER "The Jimi Hendrix Experience"TITLE "Smash Hits"FILE "01. Purple Haze.wav" WAVE TRACK 01 AUDIO TITLE "Purple Haze" PERFORMER "The Jimi Hendrix Experience" PREGAP 00:00:33 INDEX 01 00:00:00 TRACK 02 AUDIO TITLE "Fire" PERFORMER "The Jimi Hendrix Experience" INDEX 00 02:46:10FILE "02. Fire.wav" WAVE INDEX 01 00:00:00 TRACK 03 AUDIO TITLE "The Wind Cries Mary" PERFORMER "The Jimi Hendrix Experience" INDEX 00 02:38:17FILE "03. The Wind Cries Mary.wav" WAVE INDEX 01 00:00:00 TRACK 04 AUDIO TITLE "Can You See Me?" PERFORMER "The Jimi Hendrix Experience" INDEX 00 03:16:15FILE "04. Can You See Me.wav" WAVE INDEX 01 00:00:00 TRACK 05 AUDIO TITLE "51st Anniversary" PERFORMER "The Jimi Hendrix Experience" INDEX 00 02:30:28FILE "05. 51st Anniversary.wav" WAVE INDEX 01 00:00:00 TRACK 06 AUDIO TITLE "Hey Joe" PERFORMER "The Jimi Hendrix Experience" INDEX 00 03:15:47FILE "06. Hey Joe.wav" WAVE INDEX 01 00:00:00 TRACK 07 AUDIO TITLE "Stone Free" PERFORMER "The Jimi Hendrix Experience" INDEX 00 03:23:55FILE "07. Stone Free.wav" WAVE INDEX 01 00:00:00 TRACK 08 AUDIO TITLE "Stars That Play With Laughing Sam's Dice" PERFORMER "The Jimi Hendrix Experience" INDEX 00 03:33:28FILE "08. Stars That Play With Laughing Sam's Dice.wav" WAVE INDEX 01 00:00:00 TRACK 09 AUDIO TITLE "Manic Depression" PERFORMER "The Jimi Hendrix Experience" INDEX 00 04:17:42FILE "09. Manic Depression.wav" WAVE INDEX 01 00:00:00 TRACK 10 AUDIO TITLE "Highway Chile" PERFORMER "The Jimi Hendrix Experience" INDEX 00 03:38:10FILE "10. Highway Chile.wav" WAVE INDEX 01 00:00:00 TRACK 11 AUDIO TITLE "Burning of the Midnight Lamp" PERFORMER "The Jimi Hendrix Experience" INDEX 00 03:30:10FILE "11. Burning of the Midnight Lamp.wav" WAVE INDEX 01 00:00:00 TRACK 12 AUDIO TITLE "Foxey Lady" PERFORMER "The Jimi Hendrix Experience" INDEX 00 03:37:45FILE "12. Foxey Lady.wav" WAVE INDEX 01 00:00:00
  
[CUETools log; Date: 17.07.2012 20:55:05; Version: 2.1.1]Pregap length 00:00:33.[CTDB TOCID: 4opUv0hfyGQofm_dkjh1dmkrPlI-] disk not present in database.[AccurateRip ID: 00110d39-00a1edd2-9e09630c] found.Track [ CRC ] Status 01 [d69a7644] (66/83) Accurately ripped 02 [c081bd59] (64/81) Accurately ripped 03 [8a0a2ba4] (65/82) Accurately ripped 04 [50d0a2ce] (65/82) Accurately ripped 05 [7695086b] (64/81) Accurately ripped 06 [75be38fe] (64/81) Accurately ripped 07 [86b5c6df] (64/81) Accurately ripped 08 [07d99553] (63/80) Accurately ripped 09 [7886aee3] (63/80) Accurately ripped 10 [7c25562f] (62/79) Accurately ripped 11 [79a0bfce] (61/78) Accurately ripped 12 [a695fef6] (63/80) Accurately rippedOffsetted by 1811: 01 [383825e2] (09/83) Accurately ripped 02 [b52d547f] (09/81) Accurately ripped 03 [3998376e] (09/82) Accurately ripped 04 [76c3745e] (09/82) Accurately ripped 05 [ba578b2f] (09/81) Accurately ripped 06 [b0f9b0c2] (09/81) Accurately ripped 07 [2d7ae228] (09/81) Accurately ripped 08 [fc8f6b86] (09/80) Accurately ripped 09 [0529b72b] (09/80) Accurately ripped 10 [becc08ad] (09/79) Accurately ripped 11 [09ff7f9c] (09/78) Accurately ripped 12 [21670b6f] (09/80) Accurately ripped

Track Peak [ CRC32 ] [W/O NULL] [ LOG ] -- 81,2 [F914E641] [FBC70755] 01 79,4 [F60EFE65] [6FF307CD] CRC32 02 79,2 [0B617417] [E3DC0630] CRC32 03 80,4 [26E93E54] [21B63D11] CRC32 04 77,5 [1C13B4F8] [D6212DD3] CRC32 05 79,8 [59203A85] [157BA877] CRC32 06 81,2 [40E85D91] [D829E7EB] CRC32 07 78,1 [F82DCC51] [F4CEA5AB] CRC32 08 81,2 [BBB12497] [3108295E] CRC32 09 81,2 [8125E0EA] [86271A11] CRC32 10 79,1 [CD678595] [176D6799] CRC32 11 77,5 [A37E8A97] [4C2FF6E1] CRC32 12 80,3 [A4EF61A1] [C8F4FE20] CRC32
AUDIOPHILES & COLLECTORS! Please note that this is an ORIGINAL ISSUE (AAD) pressing. This means that the precious ANALOG signal integrity has been maintained to the very last stage of conversion to CD, preserving the full frequency sound for which ANALOG recordings are justifiably legend. Copy of the ORIGINAL VINYL PRESSING, this (AAD) CD could be your chance to hear this album at its very best.


Трекер:  [ 20-Июл-2012 00:33 ]

  

Скачать .torrent

Размер .torrent файла 14 KB


Размер: 318 MB
Хэш (hash) релиза: 28f4f4e73262fd5f15b9b9b32c2f5178e349e433

Торренты, похожие на Jimi Hendrix Experience - Smash Hits - 1968 скачать торрент

Форум Название Автор Размер S L Добавлен
Rосk | Mеtаl | Аltеrnаtivе, Рunk, Indереndеnt (losslеss) ·· (Classic Rock) Jimi Hendrix Experience - Smash Hits - 1968, FLAC (image+.cue) lossless Galfimbul 276064814263 MB 0 0 1297876304

20:11

16-Фев-11

Еще никто не оставлял запись к записи скачать торрент Jimi Hendrix Experience - Smash Hits - 1968 . Будь первым!

!Обратная связь