Скачать через торрент музыку Tom Petty And The Heartbreakers - Greatest Hits бесплатно без регистрации torrent

Если у вас наблюдаются проблемы со скриншотами, переходом по ссылками, скачиванием торрентов - проблемы в блокировщике рекламы AdBlock. #хорошегоДня!


Статистика раздачи
Размер:  1.07 GB   |    Зарегистрирован:  5 лет 3 месяца   |    .torrent скачан:  36 раз   |   
Раздают:  1  
   
Загрузка...
 
Автор Сообщение

Galfimbul

avatar Galfimbul


Tom Petty And The Heartbreakers - Greatest Hits

Жанр: Rock, Heartland Rock, Blues-Rock
Страна-производитель диска: Russia
Год издания диска: 2010
Издатель (лейбл): Reprise Records/WEA International Inc.
Номер по каталогу: 4607147900376 25899 1/2
Страна: USA
Аудио кодек: FLAC (*.flac)
Тип рипа: image+.cue
Битрейт аудио: lossless
Продолжительность: 02:37:52
Источник (релизер): LYNCH MOB
Наличие сканов в содержимом раздачи: да
Треклист:
01. Jefferson Jericho Blues 03:25
02. Saving Grace 03:49
03. Mary Jane's Last Dance 04:31
04. Learning To Fly 04:03
05. Free Fallin' 04:17
06. It's Good To Be King 05:12
07. The Last DJ 03:30
08. Flirting With Time 03:15
09. Into The Great Wide Open 03:44
10. Runnin' Down A Dream 04:25
11. Something In The Air 03:19
12. All Or Nothin' 04:09
13. I Won't Back Down 02:58
14. Waiting For Tonight 03:29
15. You Wreck Me 03:24
16. Makin' Some Noise 03:27
17. Yer So Bad 03:09
18. Out In The Cold 03:33
19. I Should Have Known It 03:37
20. Room At The Top 05:02
21. Breakdown 02:43
  
Exact Audio Copy V0.99 prebeta 5 from 4. May 2009

Отчёт EAC об извлечении, выполненном 18. июля 2012, 21:13

Tom Petty And The Heartbreakers / Greatest Hits (Disc One)

Дисковод: TOSHIBA ODD-DVD SD-M1802 Adapter: 1 ID: 1

Режим чтения : ДостоверностьИспользование точного потока : ДаОтключение кэша аудио : ДаИспользование указателей C2 : Нет

Коррекция смещения при чтении : 691Способность читать области Lead-in и Lead-out : НетЗаполнение пропущенных сэмплов тишиной : ДаУдаление блоков с тишиной в начале и конце : НетПри вычислениях CRC использовались нулевые сэмплы : ДаИнтерфейс : Установленный внешний ASPI-интерфейс

Выходной формат : Пользовательский кодировщикВыбранный битрейт : 1024 kBit/sКачество : ВысокийДобавление ID3-тэга : НетУтилита сжатия : C:\Program Files\Exact Audio Copy\Flac\flac.exeДополнительные параметры : -8 -V %s

TOC извлечённого CD

Трек | Старт | Длительность | Начальный сектор | Конечный сектор --------------------------------------------------------------------- 1 | 0:00.00 | 3:25.36 | 0 | 15410 2 | 3:25.36 | 3:49.07 | 15411 | 32592 3 | 7:14.43 | 4:31.74 | 32593 | 52991 4 | 11:46.42 | 4:03.02 | 52992 | 71218 5 | 15:49.44 | 4:17.63 | 71219 | 90556 6 | 20:07.32 | 5:12.70 | 90557 | 114026 7 | 25:20.27 | 3:30.33 | 114027 | 129809 8 | 28:50.60 | 3:15.05 | 129810 | 144439 9 | 32:05.65 | 3:44.09 | 144440 | 161248 10 | 35:49.74 | 4:25.00 | 161249 | 181123 11 | 40:14.74 | 3:19.17 | 181124 | 196065 12 | 43:34.16 | 4:09.57 | 196066 | 214797 13 | 47:43.73 | 2:58.42 | 214798 | 228189 14 | 50:42.40 | 3:29.22 | 228190 | 243886 15 | 54:11.62 | 3:24.67 | 243887 | 259253 16 | 57:36.54 | 3:27.44 | 259254 | 274822 17 | 61:04.23 | 3:09.15 | 274823 | 289012 18 | 64:13.38 | 3:33.23 | 289013 | 305010 19 | 67:46.61 | 3:37.46 | 305011 | 321331 20 | 71:24.32 | 5:02.70 | 321332 | 344051 21 | 76:27.27 | 2:43.07 | 344052 | 356283

Характеристики диапазона извлечения и сообщения об ошибках

Выбранный диапазон

Имя файла C:\Documents and Settings\Admin\Рабочий стол\Новая папка\Tom Petty And The Heartbreakers - Greatest Hits (Disc One).wav

Пиковый уровень 100.0 % Качество диапазона 100.0 % CRC теста FC0FB185 CRC копии FC0FB185 Копирование... OK

Ошибок не произошло

AccurateRip: сводка

Трек 1 нет в базе данныхТрек 2 нет в базе данныхТрек 3 нет в базе данныхТрек 4 нет в базе данныхТрек 5 нет в базе данныхТрек 6 нет в базе данныхТрек 7 нет в базе данныхТрек 8 нет в базе данныхТрек 9 нет в базе данныхТрек 10 нет в базе данныхТрек 11 нет в базе данныхТрек 12 нет в базе данныхТрек 13 нет в базе данныхТрек 14 нет в базе данныхТрек 15 нет в базе данныхТрек 16 нет в базе данныхТрек 17 нет в базе данныхТрек 18 нет в базе данныхТрек 19 нет в базе данныхТрек 20 нет в базе данныхТрек 21 нет в базе данных

Ни одного трека нет в базе AccurateRip

Конец отчёта
  
REM GENRE "Classic Rock"REM DATE 2010REM DISCID 3D128E15REM COMMENT "ExactAudioCopy v0.99pb5"PERFORMER "Tom Petty And The Heartbreakers"TITLE "Greatest Hits (Disc One)"FILE "Tom Petty And The Heartbreakers - Greatest Hits (Disc One).flac" WAVE TRACK 01 AUDIO TITLE "Jefferson Jericho Blues" PERFORMER "Tom Petty And The Heartbreakers" FLAGS DCP INDEX 01 00:00:00 TRACK 02 AUDIO TITLE "Saving Grace" PERFORMER "Tom Petty And The Heartbreakers" FLAGS DCP INDEX 00 03:23:36 INDEX 01 03:25:36 TRACK 03 AUDIO TITLE "Mary Jane's Last Dance" PERFORMER "Tom Petty And The Heartbreakers" FLAGS DCP INDEX 00 07:12:43 INDEX 01 07:14:43 TRACK 04 AUDIO TITLE "Learning To Fly" PERFORMER "Tom Petty And The Heartbreakers" FLAGS DCP INDEX 00 11:44:42 INDEX 01 11:46:42 TRACK 05 AUDIO TITLE "Free Fallin' " PERFORMER "Tom Petty And The Heartbreakers" FLAGS DCP INDEX 00 15:47:44 INDEX 01 15:49:44 TRACK 06 AUDIO TITLE "It's Good To Be King " PERFORMER "Tom Petty And The Heartbreakers" FLAGS DCP INDEX 00 20:05:32 INDEX 01 20:07:32 TRACK 07 AUDIO TITLE "The Last DJ" PERFORMER "Tom Petty And The Heartbreakers" FLAGS DCP INDEX 00 25:18:27 INDEX 01 25:20:27 TRACK 08 AUDIO TITLE "Flirting With Time" PERFORMER "Tom Petty And The Heartbreakers" FLAGS DCP INDEX 00 28:48:60 INDEX 01 28:50:60 TRACK 09 AUDIO TITLE "Into The Great Wide Open" PERFORMER "Tom Petty And The Heartbreakers" FLAGS DCP INDEX 00 32:03:65 INDEX 01 32:05:65 TRACK 10 AUDIO TITLE "Runnin' Down A Dream" PERFORMER "Tom Petty And The Heartbreakers" FLAGS DCP INDEX 00 35:47:74 INDEX 01 35:49:74 TRACK 11 AUDIO TITLE "Something In The Air" PERFORMER "Tom Petty And The Heartbreakers" FLAGS DCP INDEX 00 40:12:74 INDEX 01 40:14:74 TRACK 12 AUDIO TITLE "All Or Nothin'" PERFORMER "Tom Petty And The Heartbreakers" FLAGS DCP INDEX 00 43:32:16 INDEX 01 43:34:16 TRACK 13 AUDIO TITLE "I Won't Back Down" PERFORMER "Tom Petty And The Heartbreakers" FLAGS DCP INDEX 00 47:41:73 INDEX 01 47:43:73 TRACK 14 AUDIO TITLE "Waiting For Tonight " PERFORMER "Tom Petty And The Heartbreakers" FLAGS DCP INDEX 00 50:40:40 INDEX 01 50:42:40 TRACK 15 AUDIO TITLE "You Wreck Me" PERFORMER "Tom Petty And The Heartbreakers" FLAGS DCP INDEX 00 54:09:62 INDEX 01 54:11:62 TRACK 16 AUDIO TITLE "Makin' Some Noise" PERFORMER "Tom Petty And The Heartbreakers" FLAGS DCP INDEX 00 57:34:54 INDEX 01 57:36:54 TRACK 17 AUDIO TITLE "Yer So Bad" PERFORMER "Tom Petty And The Heartbreakers" FLAGS DCP INDEX 00 61:02:23 INDEX 01 61:04:23 TRACK 18 AUDIO TITLE "Out In The Cold" PERFORMER "Tom Petty And The Heartbreakers" FLAGS DCP INDEX 00 64:11:38 INDEX 01 64:13:38 TRACK 19 AUDIO TITLE "I Should Have Known It" PERFORMER "Tom Petty And The Heartbreakers" FLAGS DCP INDEX 00 67:44:61 INDEX 01 67:46:61 TRACK 20 AUDIO TITLE "Room At The Top" PERFORMER "Tom Petty And The Heartbreakers" FLAGS DCP INDEX 00 71:22:32 INDEX 01 71:24:32 TRACK 21 AUDIO TITLE "Breakdown" PERFORMER "Tom Petty And The Heartbreakers" FLAGS DCP INDEX 00 76:25:27 INDEX 01 76:27:27
  
-----------------------

DON'T MODIFY THIS FILE

-----------------------

PERFORMER: auCDtect Task Manager, ver. 1.5.1RC4 build 1.5.1.5Copyright (c) 2008-2010 y-soft. All rights reservedhttp://y-soft.org

ANALYZER: auCDtect: CD records authenticity detector, version 0.8.2Copyright (c) 2004 Oleg Berngardt. All rights reserved.Copyright (c) 2004 Alexander Djourik. All rights reserved.

FILE: Tom Petty And The Heartbreakers - Greatest Hits (Disc One).flac Size: 570239202 Hash: 38B8C545213506EA164AA0103ABB3092 Accuracy: -m8 Conclusion: CDDA 100% Signature: 883C95A25C6D2F91A21E9F66BD33417F4228F1B5
01. Kings Highway 03:09
02. A Higher Place 03:58
03. Big Weekend 03:17
04. Good Enough 05:50
05. You And Me 02:57
06. Free Girl Now 03:32
07. Night Driver 04:29
08. Two Gunslingers 03:10
09. I'll Feel A Whole Lot Better 02:49
10. Walls (Circus) 04:25
11. You Don't Know How It Feels 04:50
12. Love Is A Long Road 04:08
13. So You Want To Be A Rock 'n' Roll Star 03:39
14. Jammin' Me 04:07
15. I Need To Know 02:26
16. Refugee 03:22
17. The Waiting 03:59
18. Listen To Her Heart 03:03
19. Don't Do Me Like That 02:43
20. You Got Lucky 03:36
21. Don't Come Around Here No More 05:03
  
Exact Audio Copy V0.99 prebeta 5 from 4. May 2009

Отчёт EAC об извлечении, выполненном 18. июля 2012, 21:53

Tom Petty And The Heartbreakers / Greatest Hits (Disc Two)

Дисковод: TOSHIBA ODD-DVD SD-M1802 Adapter: 1 ID: 1

Режим чтения : ДостоверностьИспользование точного потока : ДаОтключение кэша аудио : ДаИспользование указателей C2 : Нет

Коррекция смещения при чтении : 691Способность читать области Lead-in и Lead-out : НетЗаполнение пропущенных сэмплов тишиной : ДаУдаление блоков с тишиной в начале и конце : НетПри вычислениях CRC использовались нулевые сэмплы : ДаИнтерфейс : Установленный внешний ASPI-интерфейс

Выходной формат : Пользовательский кодировщикВыбранный битрейт : 1024 kBit/sКачество : ВысокийДобавление ID3-тэга : НетУтилита сжатия : C:\Program Files\Exact Audio Copy\Flac\flac.exeДополнительные параметры : -8 -V %s

TOC извлечённого CD

Трек | Старт | Длительность | Начальный сектор | Конечный сектор --------------------------------------------------------------------- 1 | 0:00.00 | 3:09.01 | 0 | 14175 2 | 3:09.01 | 3:58.13 | 14176 | 32038 3 | 7:07.14 | 3:17.44 | 32039 | 46857 4 | 10:24.58 | 5:50.48 | 46858 | 73155 5 | 16:15.31 | 2:57.47 | 73156 | 86477 6 | 19:13.03 | 3:32.30 | 86478 | 102407 7 | 22:45.33 | 4:29.70 | 102408 | 122652 8 | 27:15.28 | 3:10.36 | 122653 | 136938 9 | 30:25.64 | 2:49.49 | 136939 | 149662 10 | 33:15.38 | 4:25.35 | 149663 | 169572 11 | 37:40.73 | 4:50.01 | 169573 | 191323 12 | 42:30.74 | 4:08.44 | 191324 | 209967 13 | 46:39.43 | 3:39.14 | 209968 | 226406 14 | 50:18.57 | 4:07.24 | 226407 | 244955 15 | 54:26.06 | 2:26.08 | 244956 | 255913 16 | 56:52.14 | 3:22.43 | 255914 | 271106 17 | 60:14.57 | 3:59.68 | 271107 | 289099 18 | 64:14.50 | 3:03.66 | 289100 | 302890 19 | 67:18.41 | 2:43.35 | 302891 | 315150 20 | 70:02.01 | 3:36.70 | 315151 | 331420 21 | 73:38.71 | 5:03.41 | 331421 | 354186

Характеристики диапазона извлечения и сообщения об ошибках

Выбранный диапазон

Имя файла C:\Documents and Settings\Admin\Рабочий стол\Новая папка\Tom Petty And The Heartbreakers - Greatest Hits (Disc Two).wav

Пиковый уровень 100.0 % Качество диапазона 100.0 % CRC теста 0D25FFD5 CRC копии 0D25FFD5 Копирование... OK

Ошибок не произошло

AccurateRip: сводка

Трек 1 нет в базе данныхТрек 2 нет в базе данныхТрек 3 нет в базе данныхТрек 4 нет в базе данныхТрек 5 нет в базе данныхТрек 6 нет в базе данныхТрек 7 нет в базе данныхТрек 8 нет в базе данныхТрек 9 нет в базе данныхТрек 10 нет в базе данныхТрек 11 нет в базе данныхТрек 12 нет в базе данныхТрек 13 нет в базе данныхТрек 14 нет в базе данныхТрек 15 нет в базе данныхТрек 16 нет в базе данныхТрек 17 нет в базе данныхТрек 18 нет в базе данныхТрек 19 нет в базе данныхТрек 20 нет в базе данныхТрек 21 нет в базе данных

Ни одного трека нет в базе AccurateRip

Конец отчёта
  
REM GENRE "Classic Rock"REM DATE 2010REM DISCID 27127215REM COMMENT "ExactAudioCopy v0.99pb5"PERFORMER "Tom Petty And The Heartbreakers"TITLE "Greatest Hits (Disc Two)"FILE "Tom Petty And The Heartbreakers - Greatest Hits (Disc Two).flac" WAVE TRACK 01 AUDIO TITLE "Kings Highway" PERFORMER "Tom Petty And The Heartbreakers" FLAGS DCP INDEX 01 00:00:00 TRACK 02 AUDIO TITLE "A Higher Place" PERFORMER "Tom Petty And The Heartbreakers" FLAGS DCP INDEX 00 03:07:01 INDEX 01 03:09:01 TRACK 03 AUDIO TITLE "Big Weekend" PERFORMER "Tom Petty And The Heartbreakers" FLAGS DCP INDEX 00 07:05:14 INDEX 01 07:07:14 TRACK 04 AUDIO TITLE "Good Enough" PERFORMER "Tom Petty And The Heartbreakers" FLAGS DCP INDEX 00 10:22:58 INDEX 01 10:24:58 TRACK 05 AUDIO TITLE "You And Me" PERFORMER "Tom Petty And The Heartbreakers" FLAGS DCP INDEX 00 16:13:31 INDEX 01 16:15:31 TRACK 06 AUDIO TITLE "Free Girl Now" PERFORMER "Tom Petty And The Heartbreakers" FLAGS DCP INDEX 00 19:11:03 INDEX 01 19:13:03 TRACK 07 AUDIO TITLE "Night Driver" PERFORMER "Tom Petty And The Heartbreakers" FLAGS DCP INDEX 00 22:43:33 INDEX 01 22:45:33 TRACK 08 AUDIO TITLE "Two Gunslingers" PERFORMER "Tom Petty And The Heartbreakers" FLAGS DCP INDEX 00 27:13:28 INDEX 01 27:15:28 TRACK 09 AUDIO TITLE "I'll Feel A Whole Lot Better" PERFORMER "Tom Petty And The Heartbreakers" FLAGS DCP INDEX 00 30:23:64 INDEX 01 30:25:64 TRACK 10 AUDIO TITLE "Walls (Circus)" PERFORMER "Tom Petty And The Heartbreakers" FLAGS DCP INDEX 00 33:13:38 INDEX 01 33:15:38 TRACK 11 AUDIO TITLE "You Don't Know How It Feels" PERFORMER "Tom Petty And The Heartbreakers" FLAGS DCP INDEX 00 37:38:73 INDEX 01 37:40:73 TRACK 12 AUDIO TITLE "Love Is A Long Road" PERFORMER "Tom Petty And The Heartbreakers" FLAGS DCP INDEX 00 42:28:74 INDEX 01 42:30:74 TRACK 13 AUDIO TITLE "So You Want To Be A Rock 'n' Roll Star" PERFORMER "Tom Petty And The Heartbreakers" FLAGS DCP INDEX 00 46:37:43 INDEX 01 46:39:43 TRACK 14 AUDIO TITLE "Jammin' Me" PERFORMER "Tom Petty And The Heartbreakers" FLAGS DCP INDEX 00 50:16:57 INDEX 01 50:18:57 TRACK 15 AUDIO TITLE "I Need To Know" PERFORMER "Tom Petty And The Heartbreakers" FLAGS DCP INDEX 00 54:24:06 INDEX 01 54:26:06 TRACK 16 AUDIO TITLE "Refugee" PERFORMER "Tom Petty And The Heartbreakers" FLAGS DCP INDEX 00 56:50:14 INDEX 01 56:52:14 TRACK 17 AUDIO TITLE "The Waiting " PERFORMER "Tom Petty And The Heartbreakers" FLAGS DCP INDEX 00 60:12:57 INDEX 01 60:14:57 TRACK 18 AUDIO TITLE "Listen To Her Heart " PERFORMER "Tom Petty And The Heartbreakers" FLAGS DCP INDEX 00 64:12:50 INDEX 01 64:14:50 TRACK 19 AUDIO TITLE "Don't Do Me Like That " PERFORMER "Tom Petty And The Heartbreakers" FLAGS DCP INDEX 00 67:16:41 INDEX 01 67:18:41 TRACK 20 AUDIO TITLE "You Got Lucky " PERFORMER "Tom Petty And The Heartbreakers" FLAGS DCP INDEX 00 70:00:01 INDEX 01 70:02:01 TRACK 21 AUDIO TITLE "Don't Come Around Here No More" PERFORMER "Tom Petty And The Heartbreakers" FLAGS DCP INDEX 00 73:36:71 INDEX 01 73:38:71
  
-----------------------

DON'T MODIFY THIS FILE

-----------------------

PERFORMER: auCDtect Task Manager, ver. 1.5.1RC4 build 1.5.1.5Copyright (c) 2008-2010 y-soft. All rights reservedhttp://y-soft.org

ANALYZER: auCDtect: CD records authenticity detector, version 0.8.2Copyright (c) 2004 Oleg Berngardt. All rights reserved.Copyright (c) 2004 Alexander Djourik. All rights reserved.

FILE: Tom Petty And The Heartbreakers - Greatest Hits (Disc Two).flac Size: 578256271 Hash: 61542A80C9846D23C570810E74B8A045 Accuracy: -m8 Conclusion: CDDA 99% Signature: A1EE3FF3F1D4C1966A7AB9FA90B230F095DEA06B
Доп. информация
Tom Petty and the Heartbreakers — американская рок-группа из Гейнсвилла, Флорида. Она была сформирована в 1976 году и первоначальным составом были Том Петти (вокал, гитара), Майк Кэмпбелл (гитара), Бенмонт Тенч (фортепиано, орган, фисгармония, вокал), Рон Блэр (бас-гитара, вокал) и Стэн Линч (ударные, вокал).
Хотя большинство материала участники выпускают под названием Tom Petty and the Heartbreakers, это не мешает им участвовать в других проектах. В несколько ином составе и под названием Mudcrutch группа выпустила несколько альбомов и синглов. Том Петти записал три весьма успешных сольных альбома, а также был участником супергруппы The Traveling Wilburys. Группа сотрудничала с Бобом Диланом, Джонни Кэшем, Джеффом Линном, Стиви Никс и Дэйвом Гролом. Heartbreakers регулярно записывают альбомы и гастролируют.


Трекер:  [ 20-Июл-2012 00:33 ]

  

Скачать .torrent

Размер .torrent файла 12 KB


Размер: 1.07 GB
Хэш (hash) релиза: 845a1a7e031c0501ed76754fa6b587e0f5fbd197

Еще никто не оставлял запись к записи скачать торрент Tom Petty And The Heartbreakers - Greatest Hits . Будь первым!

!Обратная связь