Скачать через торрент музыку Ratt - Detonator - 1990 бесплатно без регистрации torrent

Если у вас наблюдаются проблемы со скриншотами, переходом по ссылками, скачиванием торрентов - проблемы в блокировщике рекламы AdBlock. #хорошегоДня!


Статистика раздачи
Размер:  353 MB   |    Зарегистрирован:  5 лет 4 месяца   |    .torrent скачан:  11 раз   |   
Раздают:  1  
   
Загрузка...
 
Автор Сообщение

Galfimbul

avatar Galfimbul


Ratt - Detonator

Жанр: Hard Rock, Acid Rock, Glam
Страна-производитель диска: USA
Год издания диска: 1990
Издатель (лейбл): Atlantic
Номер по каталогу: 7 82127-2
Страна: USA
Аудио кодек: FLAC (*.flac)
Тип рипа: image+.cue
Битрейт аудио: lossless
Продолжительность: 00:42:10
Источник (релизер): Boris1
Наличие сканов в содержимом раздачи: да

Треклист:

01. Intro To Shame 00:55
02. Shame Shame Shame 04:32
03. Lovin' You's A Dirty Job 03:14
04. Scratch That Itch 03:16
05. One Step Away 04:50
06. Hard Time 03:46
07. Heads I Win, Tails You Lose 03:59
08. All Or Nothing 04:14
09. Can't Wait On Love 04:04
10. Givin' Yourself Away 05:26
11. Top Secret 03:49
  
Exact Audio Copy V1.0 beta 1 from 15. November 2010

EAC extraction logfile from 31. May 2012, 12:40

Ratt / Detonator

Used drive : SAMSUNG DVD-ROM SD-616E Adapter: 3 ID: 0

Read mode : SecureUtilize accurate stream : YesDefeat audio cache : YesMake use of C2 pointers : No

Read offset correction : 12Overread into Lead-In and Lead-Out : NoFill up missing offset samples with silence : YesDelete leading and trailing silent blocks : NoNull samples used in CRC calculations : YesUsed interface : Native Win32 interface for Win NT & 2000

Used output format : Internal WAV RoutinesSample format : 44.100 Hz; 16 Bit; Stereo

TOC of the extracted CD

Track | Start | Length | Start sector | End sector --------------------------------------------------------- 1 | 0:00.32 | 0:55.38 | 32 | 4194 2 | 0:55.70 | 4:32.62 | 4195 | 24656 3 | 5:28.57 | 3:14.43 | 24657 | 39249 4 | 8:43.25 | 3:16.67 | 39250 | 54016 5 | 12:00.17 | 4:50.15 | 54017 | 75781 6 | 16:50.32 | 3:46.60 | 75782 | 92791 7 | 20:37.17 | 3:59.28 | 92792 | 110744 8 | 24:36.45 | 4:14.15 | 110745 | 129809 9 | 28:50.60 | 4:04.02 | 129810 | 148111 10 | 32:54.62 | 5:26.00 | 148112 | 172561 11 | 38:20.62 | 3:49.58 | 172562 | 189794

Range status and errors

Selected range

Filename C:\Documents and Settings\Borya\Desktop\ratonator\Ratt - Detonator.wav

Peak level 100.0 % Extraction speed 0.1 X Range quality 100.0 % Copy CRC A5039036 Copy OK

No errors occurred

AccurateRip summary

Track 1 accurately ripped (confidence 10) [5381B47C]Track 2 accurately ripped (confidence 10) [3142A394]Track 3 accurately ripped (confidence 10) [0352C064]Track 4 accurately ripped (confidence 10) [9BDA8B91]Track 5 accurately ripped (confidence 10) [98133371]Track 6 accurately ripped (confidence 10) [5743AEFD]Track 7 accurately ripped (confidence 10) [13DA5BB3]Track 8 accurately ripped (confidence 10) [1A95FD7F]Track 9 accurately ripped (confidence 10) [557BE811]Track 10 accurately ripped (confidence 10) [D012F0A7]Track 11 accurately ripped (confidence 10) [54A34CA1]

All tracks accurately ripped

End of status report
  
REM GENRE "Hard Rock"REM DATE 1990REM DISCID 7D09E20BREM COMMENT "ExactAudioCopy v1.0b1"PERFORMER "Ratt"TITLE "Detonator"FILE "Ratt - Detonator.flac" WAVE TRACK 01 AUDIO TITLE "War in D" PERFORMER "Ratt" INDEX 00 00:00:00 INDEX 01 00:00:32 TRACK 02 AUDIO TITLE "Shame shame shame" PERFORMER "Ratt" INDEX 01 00:55:70 TRACK 03 AUDIO TITLE "Lovin' you's a dirty job" PERFORMER "Ratt" INDEX 01 05:28:57 TRACK 04 AUDIO TITLE "Scratch that itch" PERFORMER "Ratt" INDEX 01 08:43:25 TRACK 05 AUDIO TITLE "One step away" PERFORMER "Ratt" INDEX 01 12:00:17 TRACK 06 AUDIO TITLE "Hard time" PERFORMER "Ratt" INDEX 01 16:50:32 TRACK 07 AUDIO TITLE "Heads I win, tails you lose" PERFORMER "Ratt" INDEX 00 20:36:68 INDEX 01 20:37:17 TRACK 08 AUDIO TITLE "All or nothing" PERFORMER "Ratt" INDEX 00 24:36:04 INDEX 01 24:36:45 TRACK 09 AUDIO TITLE "Can't wait on love" PERFORMER "Ratt" INDEX 01 28:50:60 TRACK 10 AUDIO TITLE "Givin' yourself away" PERFORMER "Ratt" INDEX 01 32:54:62 TRACK 11 AUDIO TITLE "Top secret" PERFORMER "Ratt" INDEX 01 38:20:62
  
-----------------------

DON'T MODIFY THIS FILE

-----------------------

PERFORMER: auCDtect Task Manager, ver. 1.5.1RC4 build 1.5.1.5Copyright (c) 2008-2010 y-soft. All rights reservedhttp://y-soft.org

ANALYZER: auCDtect: CD records authenticity detector, version 0.8.2Copyright (c) 2004 Oleg Berngardt. All rights reserved.Copyright (c) 2004 Alexander Djourik. All rights reserved.

FILE: Ratt - Detonator.flac Size: 309734404 Hash: B0E030C095E8D06E1D0154DB803F92BC Accuracy: -m8 Conclusion: CDDA 100% Signature: 9F5A83C07B4E02B744E8857955510535A605C2F7
Доп. информация:
Backing Vocals [Additional Background Vocals] – Desmond Child, Myriam Valle
Backing Vocals [Background Vocals] – Ratt
Bass Guitar – Juan Croucier
Drums, Percussion – Bobby (Blotz) Blotzer*
Guitar – Robbin Crosby
Keyboards, Synthesizer [Synth] – David Garfield, Warren DeMartini
Lead Guitar, Slide Guitar, Acoustic Guitar – Warren DeMartini
Lead Vocals, Concept By – Stephen Pearcy


Трекер:  [ 20-Июл-2012 00:33 ]

  

Скачать .torrent

Размер .torrent файла 15 KB


Размер: 353 MB
Хэш (hash) релиза: 3e16c621a55a4d52112ac9d5e4ee1006aee10914

Торренты, похожие на Ratt - Detonator - 1990 скачать торрент

Форум Название Автор Размер S L Добавлен
Rосk | Mеtаl | Аltеrnаtivе, Рunk, Indереndеnt (losslеss) ·· (Hard Rock) Ratt - Detonator (SHM-CD) - 1990, FLAC (image+.cue), lossless Galfimbul 382337849365 MB 0 0 1297876359

20:12

16-Фев-11

Еще никто не оставлял запись к записи скачать торрент Ratt - Detonator - 1990 . Будь первым!

!Обратная связь