Скачать через торрент музыку Neil Merryweather - Kryptonite - 1975 бесплатно без регистрации torrent

Если у вас наблюдаются проблемы со скриншотами, переходом по ссылками, скачиванием торрентов - проблемы в блокировщике рекламы AdBlock. #хорошегоДня!


Статистика раздачи
Размер:  472 MB   |    Зарегистрирован:  5 лет 3 месяца   |    .torrent скачан:  21 раз   |   
Раздают:  1  
   
Загрузка...
 
Автор Сообщение

Galfimbul

avatar Galfimbul


Neil Merryweather - Kryptonite

Жанр: Hard Rock, Blues-Rock
Страна-производитель диска: Germany
Год издания диска: 1998
Издатель (лейбл): Green Tree Records
Номер по каталогу: GTR 057
Страна: Canada
Аудио кодек: FLAC (*.flac)
Тип рипа: tracks+.cue
Битрейт аудио: lossless
Продолжительность: 01:19:32
Источник (релизер): WANO777
Наличие сканов в содержимом раздачи: да

Треклист:

01. Kryptonite 03:19
02. Star Rider 05:32
03. Always Be You 03:27
04. Give It Everything We Got 05:32
05. The Groove 05:30
06. Real Life Love 03:38
07. You Know Where I'd Rather Be 05:21
08. Let Us Be The Dawn 04:52
09. Aren't You Glad That You Know 03:06
10. City Boy 03:02
11. Dust My Blues 02:40
12. Flat Black 04:16
13. You Must Live It 02:46
14. Your Real Good Thing 03:33
15. Local 149 Are You Ready 10:51
  
Exact Audio Copy V0.99 prebeta 5 from 4. May 2009

Archivo Log de extracciones desde 28. Mayo 2010, 17:15

Neil Merryweather / Kryptonite

Usar unidad : HL-DT-STCD-RW GCE-8480B Adapter: 1 ID: 0

Modo de Lectura : SeguroUtilizar Corriente Exacta : SнDescartar Audio cachй : SнUtilizar los punteros C2 : No

Correcciуn de Desplazamiento de Lectura : 6Sobreleer tanto en Lead-In como en Lead-Out : NoRellenar las muestras faltantes con silencios : SнEliminar silencios inicial y final : NoSe han usado muestras nulas en los cбlculos CRC : NoInterfaz usada : Interfaz propio de Win32 para Windowns NT y 2000Gestiуn de Gaps : No detectada, pero aсadida a la pista previa

Formato de Salida utilizado : Rutinas WAV InternasFormato de Muestreo : 44.100 Hz; 16 Bit; Estйreo

TOC del CD extraido

Pista | Inicio | Duraciуn | Sector inicial | Sector final ------------------------------------------------------------- 1 | 0:00.00 | 3:19.55 | 0 | 14979 2 | 3:19.55 | 5:32.32 | 14980 | 39911 3 | 8:52.12 | 3:27.10 | 39912 | 55446 4 | 12:19.22 | 5:32.60 | 55447 | 80406 5 | 17:52.07 | 5:30.28 | 80407 | 105184 6 | 23:22.35 | 3:38.35 | 105185 | 121569 7 | 27:00.70 | 5:21.65 | 121570 | 145709 8 | 32:22.60 | 4:52.57 | 145710 | 167666 9 | 37:15.42 | 3:06.05 | 167667 | 181621 10 | 40:21.47 | 3:02.00 | 181622 | 195271 11 | 43:23.47 | 2:40.33 | 195272 | 207304 12 | 46:04.05 | 4:16.37 | 207305 | 226541 13 | 50:20.42 | 2:46.50 | 226542 | 239041 14 | 53:07.17 | 3:33.45 | 239042 | 255061 15 | 56:40.62 | 10:51.30 | 255062 | 303916

Pista 1

Nombre de Archivo C:\Documents and Settings\DEBLA\Escritorio\Neil Merrywather - Kryptonite\01 - Kryptonite.wav

Nivel Pico 98.0 % Calidad de Pista 100.0 % Copiar CRC 7BF81239 Pista no presente en la base de datos AccurateRip Copia OK

Pista 2

Nombre de Archivo C:\Documents and Settings\DEBLA\Escritorio\Neil Merrywather - Kryptonite\02 - Star Rider.wav

Nivel Pico 98.0 % Calidad de Pista 100.0 % Copiar CRC 349B1D65 Pista no presente en la base de datos AccurateRip Copia OK

Pista 3

Nombre de Archivo C:\Documents and Settings\DEBLA\Escritorio\Neil Merrywather - Kryptonite\03 - Always Be You.wav

Nivel Pico 98.0 % Calidad de Pista 100.0 % Copiar CRC C1D2ADFA Pista no presente en la base de datos AccurateRip Copia OK

Pista 4

Nombre de Archivo C:\Documents and Settings\DEBLA\Escritorio\Neil Merrywather - Kryptonite\04 - Give It Everything We Got.wav

Nivel Pico 98.0 % Calidad de Pista 100.0 % Copiar CRC C8653F94 Pista no presente en la base de datos AccurateRip Copia OK

Pista 5

Nombre de Archivo C:\Documents and Settings\DEBLA\Escritorio\Neil Merrywather - Kryptonite\05 - The Groove.wav

Nivel Pico 98.0 % Calidad de Pista 99.9 % Copiar CRC E04515AD Pista no presente en la base de datos AccurateRip Copia OK

Pista 6

Nombre de Archivo C:\Documents and Settings\DEBLA\Escritorio\Neil Merrywather - Kryptonite\06 - Real Life Love.wav

Nivel Pico 98.0 % Calidad de Pista 99.9 % Copiar CRC 636ED4A9 Pista no presente en la base de datos AccurateRip Copia OK

Pista 7

Nombre de Archivo C:\Documents and Settings\DEBLA\Escritorio\Neil Merrywather - Kryptonite\07 - You Know Where I'd Rather Be.wav

Nivel Pico 98.0 % Calidad de Pista 100.0 % Copiar CRC 81FA590F Pista no presente en la base de datos AccurateRip Copia OK

Pista 8

Nombre de Archivo C:\Documents and Settings\DEBLA\Escritorio\Neil Merrywather - Kryptonite\08 - Let Us Be The Dawn.wav

Nivel Pico 98.0 % Calidad de Pista 100.0 % Copiar CRC 3EAFBA37 Pista no presente en la base de datos AccurateRip Copia OK

Pista 9

Nombre de Archivo C:\Documents and Settings\DEBLA\Escritorio\Neil Merrywather - Kryptonite\09 - Aren't You Glad That You Know.wav

Nivel Pico 98.0 % Calidad de Pista 100.0 % Copiar CRC 1FD420D1 Pista no presente en la base de datos AccurateRip Copia OK

Pista 10

Nombre de Archivo C:\Documents and Settings\DEBLA\Escritorio\Neil Merrywather - Kryptonite\10 - City Boy.wav

Nivel Pico 98.0 % Calidad de Pista 100.0 % Copiar CRC 3C77DD57 Pista no presente en la base de datos AccurateRip Copia OK

Pista 11

Nombre de Archivo C:\Documents and Settings\DEBLA\Escritorio\Neil Merrywather - Kryptonite\11 - Dust My Blues.wav

Nivel Pico 98.0 % Calidad de Pista 100.0 % Copiar CRC EB59A88D Pista no presente en la base de datos AccurateRip Copia OK

Pista 12

Nombre de Archivo C:\Documents and Settings\DEBLA\Escritorio\Neil Merrywather - Kryptonite\12 - Flat Black.wav

Nivel Pico 98.0 % Calidad de Pista 100.0 % Copiar CRC 8348F3EE Pista no presente en la base de datos AccurateRip Copia OK

Pista 13

Nombre de Archivo C:\Documents and Settings\DEBLA\Escritorio\Neil Merrywather - Kryptonite\13 - You Must Live It.wav

Nivel Pico 98.0 % Calidad de Pista 100.0 % Copiar CRC 196274CE Pista no presente en la base de datos AccurateRip Copia OK

Pista 14

Nombre de Archivo C:\Documents and Settings\DEBLA\Escritorio\Neil Merrywather - Kryptonite\14 - Your Real Good Thing.wav

Nivel Pico 98.0 % Calidad de Pista 100.0 % Copiar CRC 724FEC54 Pista no presente en la base de datos AccurateRip Copia OK

Pista 15

Nombre de Archivo C:\Documents and Settings\DEBLA\Escritorio\Neil Merrywather - Kryptonite\15 - Local 149 Are You Ready.wav

Nivel Pico 98.0 % Calidad de Pista 100.0 % Copiar CRC 2CDB12FA Pista no presente en la base de datos AccurateRip Copia OK

Ninguna de las pistas estб presente en la base de datos AccurateRip

Sin Errores

Final del Informe
  
REM GENRE RockREM DATE 1975REM DISCID AF0FD40FREM COMMENT "ExactAudioCopy v0.99pb5"PERFORMER "Neil Merryweather"TITLE "Kryptonite"FILE "Kryptonite.wav" WAVE TRACK 01 AUDIO TITLE "Kryptonite" PERFORMER "Neil Merryweather" INDEX 01 00:00:00FILE "Star Rider.wav" WAVE TRACK 02 AUDIO TITLE "Star Rider" PERFORMER "Neil Merryweather" INDEX 01 00:00:00FILE "Always Be You.wav" WAVE TRACK 03 AUDIO TITLE "Always Be You" PERFORMER "Neil Merryweather" INDEX 01 00:00:00FILE "Give It Everything We Got.wav" WAVE TRACK 04 AUDIO TITLE "Give It Everything We Got" PERFORMER "Neil Merryweather" INDEX 01 00:00:00FILE "The Groove.wav" WAVE TRACK 05 AUDIO TITLE "The Groove" PERFORMER "Neil Merryweather" INDEX 01 00:00:00FILE "Real Life Love.wav" WAVE TRACK 06 AUDIO TITLE "Real Life Love" PERFORMER "Neil Merryweather" INDEX 01 00:00:00FILE "You Know Where I'd Rather Be.wav" WAVE TRACK 07 AUDIO TITLE "You Know Where I'd Rather Be" PERFORMER "Neil Merryweather" INDEX 01 00:00:00FILE "Let Us Be The Dawn.wav" WAVE TRACK 08 AUDIO TITLE "Let Us Be The Dawn" PERFORMER "Neil Merryweather" INDEX 01 00:00:00FILE "Aren't You Glad That You Know.wav" WAVE TRACK 09 AUDIO TITLE "Aren't You Glad That You Know" PERFORMER "Neil Merryweather" INDEX 01 00:00:00FILE "City Boy.wav" WAVE TRACK 10 AUDIO TITLE "City Boy" PERFORMER "Neil Merryweather" INDEX 01 00:00:00FILE "Dust My Blues.wav" WAVE TRACK 11 AUDIO TITLE "Dust My Blues" PERFORMER "Neil Merryweather" INDEX 01 00:00:00FILE "Flat Black.wav" WAVE TRACK 12 AUDIO TITLE "Flat Black" PERFORMER "Neil Merryweather" INDEX 01 00:00:00FILE "You Must Live It.wav" WAVE TRACK 13 AUDIO TITLE "You Must Live It" PERFORMER "Neil Merryweather" INDEX 01 00:00:00FILE "Your Real Good Thing.wav" WAVE TRACK 14 AUDIO TITLE "Your Real Good Thing" PERFORMER "Neil Merryweather" INDEX 01 00:00:00FILE "Local 149 Are You Ready.wav" WAVE TRACK 15 AUDIO TITLE "Local 149 Are You Ready" PERFORMER "Neil Merryweather" INDEX 01 00:00:00
  
-----------------------

DON'T MODIFY THIS FILE

-----------------------

PERFORMER: auCDtect Task Manager, ver. 1.5.1RC4 build 1.5.1.5Copyright (c) 2008-2010 y-soft. All rights reservedhttp://y-soft.org

ANALYZER: auCDtect: CD records authenticity detector, version 0.8.2Copyright (c) 2004 Oleg Berngardt. All rights reserved.Copyright (c) 2004 Alexander Djourik. All rights reserved.

FILE: 15 - Local 149 Are You Ready.flac Size: 70632505 Hash: 8C5825E4BBB90F1E06E912E311B80487 Accuracy: -m8 Conclusion: CDDA 100% Signature: 122D6C892056A5F8079354609BB787C5291E4123FILE: 14 - Your Real Good Thing.flac Size: 23164229 Hash: 32321904B64736B2B7B6FC18EF7BF1E5 Accuracy: -m8 Conclusion: CDDA 100% Signature: 5E95884BD3AD89EE19A0915EB978298ED84FEA9AFILE: 13 - You Must Live It.flac Size: 17891637 Hash: 95D24BDFD6D3FD0FAC3C334BBDB4435C Accuracy: -m8 Conclusion: CDDA 100% Signature: A28C1AA86A4F042EAB3BEC930396578447993D2FFILE: 12 - Flat Black.flac Size: 28664447 Hash: 2DE60AC75CBC118253851B0B7D8EB806 Accuracy: -m8 Conclusion: CDDA 100% Signature: 9E68180500850BD735D55018C285C412991BEB19FILE: 11 - Dust My Blues.flac Size: 18062152 Hash: 3473BB656F6A844A7F384EA990F7A682 Accuracy: -m8 Conclusion: CDDA 100% Signature: 6678503B1B1F974A4C01196E1A588583A32E14F9FILE: 10 - City Boy.flac Size: 20488024 Hash: 2056F0855C1EC9560B0E0B772A752EA4 Accuracy: -m8 Conclusion: CDDA 100% Signature: E2521AF22714B735D8F58B0F66313886ACEA8467FILE: 09 - Aren't You Glad That You Know.flac Size: 21872279 Hash: 603DAC89AF3B34BAAD9CEFA57967F582 Accuracy: -m8 Conclusion: CDDA 99% Signature: 891237895EECD28B3C3D311E3B4354BA84B7F02AFILE: 08 - Let Us Be The Dawn.flac Size: 36407636 Hash: 4818A5345CA8CF85CA2E862739F750EC Accuracy: -m8 Conclusion: CDDA 100% Signature: BAABECE34F3C6037034BA870A31A0D5E5FB63A3DFILE: 07 - You Know Where I'd Rather Be.flac Size: 37733055 Hash: E7AE503919709D8CC4900FD699E66052 Accuracy: -m8 Conclusion: CDDA 100% Signature: 881D1B465AE97227B8A8AD0B7722538FF321D385FILE: 06 - Real Life Love.flac Size: 27031940 Hash: 8B079B05C550E56BBCF82D810B8999EB Accuracy: -m8 Conclusion: CDDA 100% Signature: D90A9A740F272A5FACB496BFB6C7CA814A32F467FILE: 05 - The Groove.flac Size: 38951037 Hash: D5434613E789A4BD8013C3E1FBF8D335 Accuracy: -m8 Conclusion: CDDA 99% Signature: 349C71568A3538218A51ACC329A49919D521D612FILE: 04 - Give It Everything We Got.flac Size: 37332080 Hash: 030EF7AC2D6FDADDD290138C4C4934A5 Accuracy: -m8 Conclusion: CDDA 100% Signature: 0D156D8A5BCE456750C97DD0F31715EC7C8B5FDCFILE: 03 - Always Be You.flac Size: 24796109 Hash: 0E255790AD501CC3F0318C248F4B1983 Accuracy: -m8 Conclusion: CDDA 100% Signature: 5C1281838ED011C31F03B6FE1187CE56CC1DB52CFILE: 02 - Star Rider.flac Size: 39364436 Hash: 66FE6DA4597B60071B42AAFCAE529B3B Accuracy: -m8 Conclusion: CDDA 100% Signature: B85276B9B28BB3BA586D06BA95B7A3489A26FC94FILE: 01 - Kryptonite.flac Size: 22885594 Hash: 870269087DD9CA26AC23C776FCC7E1BA Accuracy: -m8 Conclusion: CDDA 100% Signature: 54DB9DE1C336377A8CC5D99D9A55D1CDA5C945C9
Доп. информация:
Neil Merryweather – bass and vocals
Michael Willis – lead guitar
James Herndon – chamberlain, synthesizer, guitar, and slide guitar on “Real Life Love”
Tim McGovern – drums, guitar on “Kryptonite”
Neil’s manager, Jim Taylor, played piano on “The Groove”
Творческая биография канадского рок-музыканта Нейла Мерривезера весьма обширна и в её хитросплетениях сложно разобраться. Известно, что Нейл начал свою активную музыкальную деятельность с конца 60-х годов. В 1969 г. oн создал свою группу Merryweather и записал с ней альбом. Потом были проекты Heather Merrywhether, снова Merryweather, потом Merryweather, Richardson & Carry, Merryweather & Carry, Heavy Cruiser, работа в студиях и выступления на концертах в США и Канаде. На его альбомах в качестве прочих гостевых музыкантов значились Стив Миллер и Дэйв Мэйзон. Три года он пребывал в составе Mama Lion, в 80-х годах входил в составы групп Eeys и Литы Форд. Наконец, в последнее время основал трио Hundred Watt Head, с которым выпустил альбом (2009). Но сегодня я остановлюсь на его хард-роковом проекте первой половины 70-х под названием Space Rangers. Идея о новом составе пришла в голову Нейла после ухода из Mama Lion. C целью подбора персонала он на этот раз просто перелистал журнал “Music Connection” и выбрал по объявлению гитариста по имени Тимо Лейн (Timo Laine), а затем и ударника Тима Макговерна (Tim McGovern). Ну, а далее вместе с новыми музыкантами он сочинил песню “Hollywood Boulevard” и записал её демоверсию. Однажды Лейн привёл с собой Боба Сильверта (Bob Silvert), имевшего роскошный инструмент «chamberlain». В течении одного вечера на Capitol Records квартет записал музыкальную программу. В основном это были вещи Нейла и несколько кавер-версий. При этом все финансовые расходы Нейл взял на себя. Однако группа, которая была названа Space Rangers, просуществовала всего несколько месяцев и неожиданно развалилась, когда Silvert, никому ничего не сказав, продал свой «chamberlain» и другое оборудование и отбыл в неизвестном направлении. А вслед за ним исчез и Тимо. Шесть месяцев спустя дорожный менеджер Робби Рэндалл, которого Нейл хорошо знал ещё со времён своего пребывания в Mama Lion, продемонстрировал магнитофонные плёнки с записью музыки продюсеру “Canned Heat” Скипу Тейлору. Брат Скипа Джим Тейлор взялся опекать Нейла, став его менеджером, и вскоре подписал выгодный контракт с фирмой «Mercury Records». А воспрявший духом Нейл сформировал новый коллектив, в который помимо Макговерна вошли гитарист Майкл Уиллис (Michael Willis) и клавишник и гитарист Джеймс Херндон (James Herndon). Вышедшая грампластинка (какая из двух – не знаю) имела большой успех, поднялась до пятого места чартах, появились хвалебные рецензии в прессе, песни группы стали крутить по радио, Space Rangers выступили на одной сцене с T-Rex и Pure Prairie League, но лейбл потерял интерес к проекту и перестал раскручивать команду. Подобающей им славы Space Rangers к сожалению в те годы не добились. Поэтому от этого проекта Нейл вскоре отказался. Но от того времени нам остались две замечательные пластинки – «Space Rangers» (1974) и “Kryptonite” (1975).


Трекер:  [ 20-Июл-2012 00:33 ]

  

Скачать .torrent

Размер .torrent файла 20 KB


Размер: 472 MB
Хэш (hash) релиза: 5917887865756e5c35f780011006086d60268dc5

Еще никто не оставлял запись к записи скачать торрент Neil Merryweather - Kryptonite - 1975 . Будь первым!

!Обратная связь