Скачать через торрент музыку Night Ranger - Greatest Hits - 1989 бесплатно без регистрации torrent

Если у вас наблюдаются проблемы со скриншотами, переходом по ссылками, скачиванием торрентов - проблемы в блокировщике рекламы AdBlock. #хорошегоДня!


Статистика раздачи
Размер:  363 MB   |    Зарегистрирован:  5 лет 1 месяц   |    .torrent скачан:  9 раз   |   
Раздают:  1  
   
Загрузка...
 
Автор Сообщение

Galfimbul

avatar Galfimbul


Night Ranger - Greatest Hits

Жанр: Hard Rock, Glam Metal
Страна-производитель диска: USA
Год издания диска: 1998
Издатель (лейбл): MCA Records
Номер по каталогу: MCAD-42307
Страна: USA
Аудио кодек: FLAC (*.flac)
Тип рипа: image+.cue
Битрейт аудио: lossless
Продолжительность: 00:52:36
Источник (релизер): Boris1
Наличие сканов в содержимом раздачи: да

Треклист:

01. (You Can Still) Rock In America 04:15
02. Sing Me Away 04:09
03. Goodbye 04:19
04. When You Close Your Eyes 04:18
05. Sister Christian 05:02
06. Don't Tell Me You Love Me 04:21
07. Sentimental Street 04:11
08. The Secret Of My Success 04:27
09. Restless Kind 04:39
10. Four In The Morning 03:52
11. Eddie's Coming Out Tonight 04:25
12. Rumours In The Air 04:31
  
Exact Audio Copy V1.0 beta 1 from 15. November 2010

EAC extraction logfile from 7. July 2012, 0:17

Night Ranger / Greatest Hits

Used drive : SAMSUNG DVD-ROM SD-616E Adapter: 3 ID: 0

Read mode : SecureUtilize accurate stream : YesDefeat audio cache : YesMake use of C2 pointers : No

Read offset correction : 12Overread into Lead-In and Lead-Out : NoFill up missing offset samples with silence : YesDelete leading and trailing silent blocks : NoNull samples used in CRC calculations : YesUsed interface : Native Win32 interface for Win NT & 2000

Used output format : Internal WAV RoutinesSample format : 44.100 Hz; 16 Bit; Stereo

TOC of the extracted CD

Track | Start | Length | Start sector | End sector --------------------------------------------------------- 1 | 0:00.33 | 4:15.00 | 33 | 19157 2 | 4:15.33 | 4:09.62 | 19158 | 37894 3 | 8:25.20 | 4:19.40 | 37895 | 57359 4 | 12:44.60 | 4:18.10 | 57360 | 76719 5 | 17:02.70 | 5:02.28 | 76720 | 99397 6 | 22:05.23 | 4:21.55 | 99398 | 119027 7 | 26:27.03 | 4:11.27 | 119028 | 137879 8 | 30:38.30 | 4:27.58 | 137880 | 157962 9 | 35:06.13 | 4:39.72 | 157963 | 178959 10 | 39:46.10 | 3:52.65 | 178960 | 196424 11 | 43:39.00 | 4:25.40 | 196425 | 216339 12 | 48:04.40 | 4:31.48 | 216340 | 236712

Range status and errors

Selected range

Filename C:\Documents and Settings\Borya\Desktop\NiRan\Night Ranger - Greatest Hits.wav

Suspicious position 0:36:22 Suspicious position 0:36:29 Suspicious position 0:36:31 - 0:36:32 Suspicious position 0:36:39

Peak level 100.0 % Extraction speed 0.2 X Range quality 99.9 % Copy CRC 0A30BB0C Copy finished

There were errors

AccurateRip summary

Track 1 accurately ripped (confidence 11) [BB581D5B]Track 2 accurately ripped (confidence 11) [274EFC7B]Track 3 accurately ripped (confidence 11) [53829BC9]Track 4 accurately ripped (confidence 11) [692B5C48]Track 5 accurately ripped (confidence 11) [BB6DB83B]Track 6 accurately ripped (confidence 11) [A02174E1]Track 7 accurately ripped (confidence 11) [7D6DB080]Track 8 accurately ripped (confidence 11) [6B5AB3D5]Track 9 cannot be verified as accurate (confidence 9) [06D92C06], AccurateRip returned [3A59E8C8]Track 10 accurately ripped (confidence 10) [8C01EA7D]Track 11 accurately ripped (confidence 10) [8A08982D]Track 12 accurately ripped (confidence 10) [DB256D26]

11 track(s) accurately ripped 1 track(s) could not be verified as accurate

Some tracks could not be verified as accurate

End of status report
  
REM GENRE RockREM DATE 1989REM DISCID AA0C540CREM COMMENT "ExactAudioCopy v1.0b1"PERFORMER "Night Ranger"TITLE "Greatest Hits"FILE "Night Ranger - Greatest Hits.flac" WAVE TRACK 01 AUDIO TITLE "(You Can Still) Rock In America" PERFORMER "Night Ranger" INDEX 00 00:00:00 INDEX 01 00:00:33 TRACK 02 AUDIO TITLE "Sing Me Away" PERFORMER "Night Ranger" INDEX 00 04:15:00 INDEX 01 04:15:33 TRACK 03 AUDIO TITLE "Goodbye" PERFORMER "Night Ranger" INDEX 00 08:24:08 INDEX 01 08:25:20 TRACK 04 AUDIO TITLE "When You Close Your Eyes" PERFORMER "Night Ranger" INDEX 00 12:44:00 INDEX 01 12:44:60 TRACK 05 AUDIO TITLE "Sister Christian" PERFORMER "Night Ranger" INDEX 00 17:01:53 INDEX 01 17:02:70 TRACK 06 AUDIO TITLE "Don't Tell Me You Love Me" PERFORMER "Night Ranger" INDEX 00 22:03:56 INDEX 01 22:05:23 TRACK 07 AUDIO TITLE "Sentimental Street" PERFORMER "Night Ranger" INDEX 00 26:25:53 INDEX 01 26:27:03 TRACK 08 AUDIO TITLE "The Secret Of My Success" PERFORMER "Night Ranger" INDEX 00 30:37:57 INDEX 01 30:38:30 TRACK 09 AUDIO TITLE "Restless Kind" PERFORMER "Night Ranger" INDEX 00 35:04:73 INDEX 01 35:06:13 TRACK 10 AUDIO TITLE "Four In The Morning" PERFORMER "Night Ranger" INDEX 00 39:46:05 INDEX 01 39:46:10 TRACK 11 AUDIO TITLE "Eddie's Comin' Out Tonight" PERFORMER "Night Ranger" INDEX 00 43:38:20 INDEX 01 43:39:00 TRACK 12 AUDIO TITLE "Rumours In The Air" PERFORMER "Night Ranger" INDEX 00 48:03:52 INDEX 01 48:04:40
  
-----------------------

DON'T MODIFY THIS FILE

-----------------------

PERFORMER: auCDtect Task Manager, ver. 1.5.1RC4 build 1.5.1.5Copyright (c) 2008-2010 y-soft. All rights reservedhttp://y-soft.org

ANALYZER: auCDtect: CD records authenticity detector, version 0.8.2Copyright (c) 2004 Oleg Berngardt. All rights reserved.Copyright (c) 2004 Alexander Djourik. All rights reserved.

FILE: Night Ranger - Greatest Hits.flac Size: 350401567 Hash: D92EA00BCC3AD86F3EAA3CAF9B54F15F Accuracy: -m8 Conclusion: MPEG 95% Signature: E0DA586B5D42CC9554B69DDC73E34E43CB6D5858
Доп. информация:
Current members:
Kelly Keagy – drums, percussion, backing & lead vocals (1979–1989, 1991–present)
Brad Gillis – lead & rhythm guitars, backing vocals (1979–1989, 1991–present)
Jack Blades – bass guitar, lead & backing vocals, acoustic guitar, rhythm guitar (1979–1989, 1996–present)
Joel Hoekstra – lead & rhythm guitars, backing vocals (2008–present)
Eric Levy – keyboards, backing vocals (2011–present)
Former members:
Alan Fitzgerald – keyboards, backing vocals (1980–1988, 1996–2003)
Jeff Watson – lead & rhythm guitars, backing vocals, (1980–1989, 1991, 1996–2007)
Jesse Bradman – keyboards, backing vocals (1988–1989)
Gary Moon – bass guitar, lead & backing vocals (1991–1996)
David Zajicek – rhythm guitar, keyboards, backing vocals (1995–1996)
Michael Lardie – keyboards, backing vocals (2003–2007)
Reb Beach – lead & rhythm guitars, backing vocals (2007–2008)
Christian Matthew Cullen – keyboards, backing vocals (2007–2011)
Session members:
Jack Russell (Great White) – backing vocals on Seven (1998 — multiple tracks)
Tommy Shaw (Styx/Damn Yankees) – backing vocals on Seven (1998 — track "Kong")
Night Ranger — американская группа, образованная в Сан-Франциско клавишником Аланом Фитцджеральдом и гитаристом Бредом Гиллисом, добившаяся популярности в 1980 годах. Наравне с такими группами как Toto, Foreigner, Styx, REO Speedwagon Night Ranger являются представителями мелодичного рока, хотя по сравнению с этими группами стиль Night Ranger почти полностью упирается в хард-рок.

Коллектив продал 10 миллионов копий своих первых пяти альбомов по всему миру[2]. Он стал известен благодаря знаменитой балладе «Sister Christian», которая заняла 5-е место в Billboard Hot 100 в июне 1984 года. Кроме Sister Christian были популярны песни «Don’t Tell Me You Love Me», «(You Can Still) Rock In America», «When You Close Your Eyes», и «Sentimental Street».

После достигнутого успеха в 1980-х годах группа распалась в 1989 году, и все её участники занялись собственными проектами.

В 1995 году Night Ranger выпустили свой альбом без первоначального вокалиста и бас-гитариста Джека Блэйса, позже группа воссоединилась, и Night Ranger несмотря на отсутствие Алана Фитцджеральда и гитариста Джеффа Уотсона отправились в турне, и продолжали оставаться популярной группой в странах Азии, особенно в Японии.


Трекер:  [ 20-Июл-2012 00:33 ]

  

Скачать .torrent

Размер .torrent файла 15 KB


Размер: 363 MB
Хэш (hash) релиза: 29ef8bd9c066ca49fa6a62beb4987d1f908c2112

Еще никто не оставлял запись к записи скачать торрент Night Ranger - Greatest Hits - 1989 . Будь первым!

!Обратная связь