Скачать через торрент музыку Heaven & Hell - The Devil You Know - 2009 бесплатно без регистрации torrent

Если у вас наблюдаются проблемы со скриншотами, переходом по ссылками, скачиванием торрентов - проблемы в блокировщике рекламы AdBlock. #хорошегоДня!


Статистика раздачи
Размер:  426 MB   |    Зарегистрирован:  5 лет 3 месяца   |    .torrent скачан:  16 раз   |   
Раздают:  1  
   
Загрузка...
 
Автор Сообщение

Galfimbul

avatar Galfimbul


Heaven & Hell - The Devil You Know

Жанр: Hard Rock | Heavy Metal
Страна-производитель диска: USA
Год издания: 2009
Издатель (лейбл): Rhino
Номер по каталогу: R2 518862
Аудиокодек: FLAC (*.flac)
Тип рипа: image+.cue
Битрейт аудио: lossless
Источник (релизер): собственный рип
Наличие сканов в содержимом раздачи: да

Треклист:
01. Atom And Evil
02. Fear
03. Bible Black
04. Double The Pain
05. Rock And Roll Angel
06. The Turn Of The Screw
07. Eating The Cannibals
08. Follow The Tears
09. Neverwhere
10. Breaking Into Heaven
  
Exact Audio Copy V1.0 beta 3 from 29. August 2011

EAC extraction logfile from 19. July 2012, 15:48

Heaven & Hell / The Devil You Know

Used drive : hp CDDVDW TS-U633J Adapter: 0 ID: 1

Read mode : SecureUtilize accurate stream : YesDefeat audio cache : YesMake use of C2 pointers : No

Read offset correction : 6Overread into Lead-In and Lead-Out : NoFill up missing offset samples with silence : YesDelete leading and trailing silent blocks : NoNull samples used in CRC calculations : YesUsed interface : Native Win32 interface for Win NT & 2000

Used output format : Internal WAV RoutinesSample format : 44.100 Hz; 16 Bit; Stereo

TOC of the extracted CD

Track | Start | Length | Start sector | End sector --------------------------------------------------------- 1 | 0:00.00 | 5:13.35 | 0 | 23509 2 | 5:13.35 | 4:45.70 | 23510 | 44954 3 | 9:59.30 | 6:27.02 | 44955 | 73981 4 | 16:26.32 | 5:23.28 | 73982 | 98234 5 | 21:49.60 | 6:02.55 | 98235 | 125439 6 | 27:52.40 | 5:00.07 | 125440 | 147946 7 | 32:52.47 | 3:34.53 | 147947 | 164049 8 | 36:27.25 | 6:09.47 | 164050 | 191771 9 | 42:36.72 | 4:32.38 | 191772 | 212209 10 | 47:09.35 | 6:53.60 | 212210 | 243244

Range status and errors

Selected range

Filename C:\Music\Heaven & Hell - The Devil You Know (Rhino, R2 518862)\Heaven & Hell - The Devil You Know.wav

Peak level 98.7 % Extraction speed 3.6 X Range quality 100.0 % Test CRC 6D825797 Copy CRC 6D825797 Copy OK

No errors occurred

AccurateRip summary

Track 1 accurately ripped (confidence 10) [979C27E8] (AR v2)Track 2 accurately ripped (confidence 10) [39234206] (AR v2)Track 3 accurately ripped (confidence 10) [7FE551F4] (AR v2)Track 4 accurately ripped (confidence 10) [C1D4C55D] (AR v2)Track 5 accurately ripped (confidence 10) [967E82E4] (AR v2)Track 6 accurately ripped (confidence 10) [9A2A9039] (AR v2)Track 7 accurately ripped (confidence 10) [5886BE68] (AR v2)Track 8 accurately ripped (confidence 10) [28326C7C] (AR v2)Track 9 accurately ripped (confidence 10) [2E4C9D8A] (AR v2)Track 10 accurately ripped (confidence 10) [4AD32A56] (AR v2)

All tracks accurately ripped

End of status report

---- CUETools DB Plugin V2.1.3

[CTDB TOCID: wy2j73sUHRXJ9YzsQSRreZRbgDc-] found, Submit result: wy2j73sUHRXJ9YzsQSRreZRbgDc- has been confirmed[da42695d] (41/41) Accurately ripped
  
REM GENRE "Heavy Metal"REM DATE 2009REM DISCID 8E0CAB0AREM COMMENT "ExactAudioCopy v1.0b3"PERFORMER "Heaven & Hell"TITLE "The Devil You Know"FILE "Heaven & Hell - The Devil You Know.flac" WAVE TRACK 01 AUDIO TITLE "Atom and Evil" PERFORMER "Heaven & Hell" INDEX 01 00:00:00 TRACK 02 AUDIO TITLE "Fear" PERFORMER "Heaven & Hell" INDEX 01 05:13:35 TRACK 03 AUDIO TITLE "Bible Black" PERFORMER "Heaven & Hell" INDEX 00 09:57:45 INDEX 01 09:59:30 TRACK 04 AUDIO TITLE "Double the Pain" PERFORMER "Heaven & Hell" INDEX 01 16:26:32 TRACK 05 AUDIO TITLE "Rock and Roll Angel" PERFORMER "Heaven & Hell" INDEX 00 21:49:07 INDEX 01 21:49:60 TRACK 06 AUDIO TITLE "The Turn of the Screw" PERFORMER "Heaven & Hell" INDEX 01 27:52:40 TRACK 07 AUDIO TITLE "Eating the Cannibals" PERFORMER "Heaven & Hell" INDEX 01 32:52:47 TRACK 08 AUDIO TITLE "Follow the Tears" PERFORMER "Heaven & Hell" INDEX 00 36:25:65 INDEX 01 36:27:25 TRACK 09 AUDIO TITLE "Neverwhere" PERFORMER "Heaven & Hell" INDEX 00 42:36:32 INDEX 01 42:36:72 TRACK 10 AUDIO TITLE "Breaking into Heaven" PERFORMER "Heaven & Hell" INDEX 00 47:09:20 INDEX 01 47:09:35


Трекер:  [ 20-Июл-2012 00:33 ]

  

Скачать .torrent

Размер .torrent файла 18 KB


Размер: 426 MB
Хэш (hash) релиза: 230165c4356d442085eae600f9579334355cc5f7

Торренты, похожие на Heaven & Hell - The Devil You Know - 2009 скачать торрент

Форум Название Автор Размер S L Добавлен
Rосk | Mеtаl | Аltеrnаtivе, Рunk, Indереndеnt (mр3) ·· (Heavy/Doom Metal) Heaven & Hell - The Devil You Know - 2009, MP3, 192 kbps Galfimbul 7791095674 MB 0 0 1372604361

17:59

30-Июн-13

Rосk | Mеtаl | Аltеrnаtivе, Рunk, Indереndеnt (losslеss) ·· (Heavy Metal) Heaven And Hell - The Devil You Know (Japanese SHM-CD VICP-70106) - 2009, WAVPack (image+.cue), lossless Galfimbul 481841186460 MB 0 0 1291139747

20:55

30-Ноя-10

Еще никто не оставлял запись к записи скачать торрент Heaven & Hell - The Devil You Know - 2009 . Будь первым!

!Обратная связь