Скачать через торрент музыку Taurus - Works 1976-1981 бесплатно без регистрации torrent

Если у вас наблюдаются проблемы со скриншотами, переходом по ссылками, скачиванием торрентов - проблемы в блокировщике рекламы AdBlock. #хорошегоДня!


Статистика раздачи
Размер:  322 MB   |    Зарегистрирован:  5 лет 3 месяца   |    .torrent скачан:  23 раза   |   
Раздают:  1  
   
Загрузка...
 
Автор Сообщение

Galfimbul

avatar Galfimbul


Taurus / Works 1976-1981
Жанр: Symphonic Prog
Год издания: 1990
Издатель (лейбл): Multi Records
Номер по каталогу: MTI89002
Страна: Netherlands
Аудиокодек: FLAC (*.flac)
Тип рипа: tracks+.cue
Битрейт аудио: lossless
Продолжительность: 53:23
Источник (релизер): вата (kotetsu29292929)
Наличие сканов в содержимом раздачи: да

Треклист:
1. Meadow (see you again)
1. Bass, Moog Taurus - 3:00
2. Lucia - 4:43
3. Robot Romance - 8:53
4. Mrs. Granery (Crystal Symphony) - 4:52
5. The Sound Of A Harp - 7:00
6. Survival - 4:54
7. The Boatman - 7:15
8. One For The Kingdom - 9:01
9. Resistance - 3:45.
|| Meadow (See You Again) || proggnosis.com || tonimusic || babyblaue-seiten.de || rateyourmusic.com ||
  
Exact Audio Copy V1.0 beta 3 from 29. August 2011

EAC extraction logfile from 26. December 2011, 1:06

Taurus / Works 1976-1981

Used drive : ATAPI iHAS324 Y Adapter: 4 ID: 0

Read mode : SecureUtilize accurate stream : YesDefeat audio cache : YesMake use of C2 pointers : No

Read offset correction : 48Overread into Lead-In and Lead-Out : NoFill up missing offset samples with silence : YesDelete leading and trailing silent blocks : NoNull samples used in CRC calculations : YesUsed interface : Native Win32 interface for Win NT & 2000Gap handling : Appended to previous track

Used output format : User Defined EncoderSelected bitrate : 896 kBit/sQuality : HighAdd ID3 tag : NoCommand line compressor : C:\Program Files\Exact Audio Copy\flac.exeAdditional command line options : -8 -V -T "ARTIST=%artist%" -T "TITLE=%title%" -T "ALBUM=%albumtitle%" -T "DATE=%year%" -T "TRACKNUMBER=%tracknr%" -T "GENRE=%genre%" -T "PERFORMER=%albuminterpret%" -T "COMPOSER=%composer%" %haslyrics%--tag-from-file=LYRICS="%lyricsfile%"%haslyrics% -T "ALBUMARTIST=%albumartist%" -T "DISCNUMBER=%cdnumber%" -T "TOTALDISCS=%totalcds%" -T "TOTALTRACKS=%numtracks%" -T "COMMENT=%comment%" %source% -o %dest%

TOC of the extracted CD

Track | Start | Length | Start sector | End sector --------------------------------------------------------- 1 | 0:00.00 | 3:03.05 | 0 | 13729 2 | 3:03.05 | 4:43.65 | 13730 | 35019 3 | 7:46.70 | 8:55.65 | 35020 | 75209 4 | 16:42.60 | 4:56.15 | 75210 | 97424 5 | 21:39.00 | 7:07.25 | 97425 | 129474 6 | 28:46.25 | 4:57.05 | 129475 | 151754 7 | 33:43.30 | 7:03.20 | 151755 | 183499 8 | 40:46.50 | 9:06.05 | 183500 | 224454 9 | 49:52.55 | 3:47.45 | 224455 | 241524

Track 1

Filename C:\EAC\01 - Meadow.wav

Pre-gap length 0:00:02.00

Peak level 86.1 % Extraction speed 2.1 X Track quality 100.0 % Test CRC C5785EA1 Copy CRC C5785EA1 Accurately ripped (confidence 1) [69CBFBA1] (AR v1) Copy OK

Track 2

Filename C:\EAC\02 - Lucia.wav

Peak level 88.1 % Extraction speed 2.3 X Track quality 99.9 % Test CRC 99F15C04 Copy CRC 99F15C04 Accurately ripped (confidence 1) [B7E3EB1A] (AR v1) Copy OK

Track 3

Filename C:\EAC\03 - Robot Romance.wav

Peak level 98.9 % Extraction speed 2.9 X Track quality 99.9 % Test CRC 0213485B Copy CRC 0213485B Accurately ripped (confidence 1) [5F992423] (AR v1) Copy OK

Track 4

Filename C:\EAC\04 - Mrs Granery(Crystal Symphony).wav

Peak level 100.0 % Extraction speed 3.3 X Track quality 100.0 % Test CRC 3B062097 Copy CRC 3B062097 Accurately ripped (confidence 1) [929B73C4] (AR v1) Copy OK

Track 5

Filename C:\EAC\05 - The Sound Of A Harp.wav

Peak level 84.2 % Extraction speed 3.7 X Track quality 100.0 % Test CRC 62A98D3A Copy CRC 62A98D3A Accurately ripped (confidence 1) [ABAF0402] (AR v1) Copy OK

Track 6

Filename C:\EAC\06 - Survival.wav

Peak level 90.3 % Extraction speed 3.9 X Track quality 100.0 % Test CRC 6D504ACA Copy CRC 6D504ACA Accurately ripped (confidence 1) [BBE292A2] (AR v1) Copy OK

Track 7

Filename C:\EAC\07 - The Boatman.wav

Peak level 94.5 % Extraction speed 3.9 X Track quality 99.9 % Test CRC D0474683 Copy CRC D0474683 Accurately ripped (confidence 1) [20E51113] (AR v1) Copy OK

Track 8

Filename C:\EAC\08 - One For The Kingdom.wav

Peak level 92.4 % Extraction speed 4.6 X Track quality 100.0 % Test CRC 848C8040 Copy CRC 848C8040 Accurately ripped (confidence 1) [33400B3C] (AR v1) Copy OK

Track 9

Filename C:\EAC\09 - Resistance.wav

Peak level 100.0 % Extraction speed 4.5 X Track quality 100.0 % Test CRC 6E0073DC Copy CRC 6E0073DC Accurately ripped (confidence 1) [B0A86F2D] (AR v1) Copy OK

All tracks accurately ripped

No errors occurred

End of status report

==== Log checksum 42D4E4DA420E68158D401308CD685A4FC1EFC15233199581EC2FB9ED038C192B ====

------------------------------------------------------------

Exact Audio Copy V1.0 beta 3 from 29. August 2011

EAC extraction logfile from 26. December 2011, 1:06

Taurus / Works 1976-1981

Used drive : ATAPI iHAS324 Y Adapter: 4 ID: 0

Read mode : SecureUtilize accurate stream : YesDefeat audio cache : YesMake use of C2 pointers : No

Read offset correction : 48Overread into Lead-In and Lead-Out : NoFill up missing offset samples with silence : YesDelete leading and trailing silent blocks : NoNull samples used in CRC calculations : YesUsed interface : Native Win32 interface for Win NT & 2000Gap handling : Appended to previous track

Used output format : User Defined EncoderSelected bitrate : 896 kBit/sQuality : HighAdd ID3 tag : NoCommand line compressor : C:\Program Files\Exact Audio Copy\flac.exeAdditional command line options : -8 -V -T "ARTIST=%artist%" -T "TITLE=%title%" -T "ALBUM=%albumtitle%" -T "DATE=%year%" -T "TRACKNUMBER=%tracknr%" -T "GENRE=%genre%" -T "PERFORMER=%albuminterpret%" -T "COMPOSER=%composer%" %haslyrics%--tag-from-file=LYRICS="%lyricsfile%"%haslyrics% -T "ALBUMARTIST=%albumartist%" -T "DISCNUMBER=%cdnumber%" -T "TOTALDISCS=%totalcds%" -T "TOTALTRACKS=%numtracks%" -T "COMMENT=%comment%" %source% -o %dest%

TOC of the extracted CD

Track | Start | Length | Start sector | End sector --------------------------------------------------------- 1 | 0:00.00 | 3:03.05 | 0 | 13729 2 | 3:03.05 | 4:43.65 | 13730 | 35019 3 | 7:46.70 | 8:55.65 | 35020 | 75209 4 | 16:42.60 | 4:56.15 | 75210 | 97424 5 | 21:39.00 | 7:07.25 | 97425 | 129474 6 | 28:46.25 | 4:57.05 | 129475 | 151754 7 | 33:43.30 | 7:03.20 | 151755 | 183499 8 | 40:46.50 | 9:06.05 | 183500 | 224454 9 | 49:52.55 | 3:47.45 | 224455 | 241524

Track 1

Filename C:\EAC\01 - Meadow.wav

Pre-gap length 0:00:02.00

Peak level 86.1 % Extraction speed 2.1 X Track quality 100.0 % Test CRC C5785EA1 Copy CRC C5785EA1 Accurately ripped (confidence 1) [69CBFBA1] (AR v1) Copy OK

Track 2

Filename C:\EAC\02 - Lucia.wav

Peak level 88.1 % Extraction speed 2.3 X Track quality 99.9 % Test CRC 99F15C04 Copy CRC 99F15C04 Accurately ripped (confidence 1) [B7E3EB1A] (AR v1) Copy OK

Track 3

Filename C:\EAC\03 - Robot Romance.wav

Peak level 98.9 % Extraction speed 2.9 X Track quality 99.9 % Test CRC 0213485B Copy CRC 0213485B Accurately ripped (confidence 1) [5F992423] (AR v1) Copy OK

Track 4

Filename C:\EAC\04 - Mrs Granery(Crystal Symphony).wav

Peak level 100.0 % Extraction speed 3.3 X Track quality 100.0 % Test CRC 3B062097 Copy CRC 3B062097 Accurately ripped (confidence 1) [929B73C4] (AR v1) Copy OK

Track 5

Filename C:\EAC\05 - The Sound Of A Harp.wav

Peak level 84.2 % Extraction speed 3.7 X Track quality 100.0 % Test CRC 62A98D3A Copy CRC 62A98D3A Accurately ripped (confidence 1) [ABAF0402] (AR v1) Copy OK

Track 6

Filename C:\EAC\06 - Survival.wav

Peak level 90.3 % Extraction speed 3.9 X Track quality 100.0 % Test CRC 6D504ACA Copy CRC 6D504ACA Accurately ripped (confidence 1) [BBE292A2] (AR v1) Copy OK

Track 7

Filename C:\EAC\07 - The Boatman.wav

Peak level 94.5 % Extraction speed 3.9 X Track quality 99.9 % Test CRC D0474683 Copy CRC D0474683 Accurately ripped (confidence 1) [20E51113] (AR v1) Copy OK

Track 8

Filename C:\EAC\08 - One For The Kingdom.wav

Peak level 92.4 % Extraction speed 4.6 X Track quality 100.0 % Test CRC 848C8040 Copy CRC 848C8040 Accurately ripped (confidence 1) [33400B3C] (AR v1) Copy OK

Track 9

Filename C:\EAC\09 - Resistance.wav

Peak level 100.0 % Extraction speed 4.5 X Track quality 100.0 % Test CRC 6E0073DC Copy CRC 6E0073DC Accurately ripped (confidence 1) [B0A86F2D] (AR v1) Copy OK

All tracks accurately ripped

No errors occurred

End of status report

==== Log checksum 42D4E4DA420E68158D401308CD685A4FC1EFC15233199581EC2FB9ED038C192B ====
  
REM GENRE "Symphonic Rock"REM DATE 1990REM DISCID 710C9409REM COMMENT "ExactAudioCopy v1.0b3"PERFORMER "Taurus"TITLE "Works 1976-1981"FILE "01 - Meadow.wav" WAVE TRACK 01 AUDIO TITLE "Meadow" PERFORMER "Taurus" INDEX 01 00:00:00FILE "02 - Lucia.wav" WAVE TRACK 02 AUDIO TITLE "Lucia" PERFORMER "Taurus" INDEX 01 00:00:00FILE "03 - Robot Romance.wav" WAVE TRACK 03 AUDIO TITLE "Robot Romance" PERFORMER "Taurus" INDEX 01 00:00:00FILE "04 - Mrs Granery(Crystal Symphony).wav" WAVE TRACK 04 AUDIO TITLE "Mrs Granery(Crystal Symphony)" PERFORMER "Taurus" INDEX 01 00:00:00FILE "05 - The Sound Of A Harp.wav" WAVE TRACK 05 AUDIO TITLE "The Sound Of A Harp" PERFORMER "Taurus" INDEX 01 00:00:00FILE "06 - Survival.wav" WAVE TRACK 06 AUDIO TITLE "Survival" PERFORMER "Taurus" INDEX 01 00:00:00FILE "07 - The Boatman.wav" WAVE TRACK 07 AUDIO TITLE "The Boatman" PERFORMER "Taurus" INDEX 01 00:00:00FILE "08 - One For The Kingdom.wav" WAVE TRACK 08 AUDIO TITLE "One For The Kingdom" PERFORMER "Taurus" INDEX 01 00:00:00FILE "09 - Resistance.wav" WAVE TRACK 09 AUDIO TITLE "Resistance" PERFORMER "Taurus" INDEX 01 00:00:00
  
[CUETools log; Date: 19.07.2012 13:59:40; Version: 2.1.2a][CTDB TOCID: MRzYoTWriWXEsmZf5d1A4orpLzM-] disk not present in database.[AccurateRip ID: 0011945f-00842fb6-710c9409] found.Track [ CRC ] Status 01 [69cbfba1] (1/1) Accurately ripped 02 [b7e3eb1a] (1/1) Accurately ripped 03 [5f992423] (1/1) Accurately ripped 04 [929b73c4] (1/1) Accurately ripped 05 [abaf0402] (1/1) Accurately ripped 06 [bbe292a2] (1/1) Accurately ripped 07 [20e51113] (1/1) Accurately ripped 08 [33400b3c] (1/1) Accurately ripped 09 [b0a86f2d] (1/1) Accurately ripped

Track Peak [ CRC32 ] [W/O NULL] [ LOG ] -- 100,0 [B843E92F] [B1457C54] 01 86,1 [C5785EA1] [AF9FA26E] CRC32 02 88,1 [99F15C04] [43E4109A] CRC32 03 98,9 [0213485B] [1DF4645A] CRC32 04 100,0 [3B062097] [75BBA8F9] CRC32 05 84,1 [62A98D3A] [8BD5079E] CRC32 06 90,3 [6D504ACA] [D0CA1809] CRC32 07 94,5 [D0474683] [D2547B05] CRC32 08 92,4 [848C8040] [FDC6214C] CRC32 09 100,0 [6E0073DC] [FBACFAF3] CRC32
-----------------------

DON'T MODIFY THIS FILE

-----------------------

PERFORMER: auCDtect Task Manager, ver. 1.5.1RC6 build 1.5.1.7Copyright (c) 2008-2010 y-soft. All rights reservedhttp://y-soft.org

ANALYZER: auCDtect: CD records authenticity detector, version 0.8.2Copyright (c) 2004 Oleg Berngardt. All rights reserved.Copyright (c) 2004 Alexander Djourik. All rights reserved.

FILE: 02 - Lucia.flac Size: 30516927 Hash: ADB02CC5F2F437E5C3D676D8F920FC9C Accuracy: -m0 Conclusion: CDDA 100% Signature: 0DBCF342E20CBFA80D88E2D53721416D5B20F20DFILE: 01 - Meadow.flac Size: 21459664 Hash: 9293043AE62EA3EED6018005F0C9772E Accuracy: -m0 Conclusion: CDDA 100% Signature: 9AACCECD35661B121DC87587AC76D8EA91DDB64BFILE: 09 - Resistance.flac Size: 23080433 Hash: 054BFA7E12B27DA37E80CEFDD2421CB3 Accuracy: -m0 Conclusion: CDDA 100% Signature: 890DBDEA73C3F308513450019509D52A2B8E7258FILE: 08 - One For The Kingdom.flac Size: 54577502 Hash: 0D8F68A1C84FBAC4707F0C8F648C1BC3 Accuracy: -m0 Conclusion: CDDA 100% Signature: E7C6A54D079FF25F83CC806D6476297A63289D69FILE: 07 - The Boatman.flac Size: 42993118 Hash: F1736BF5BF3B6E9AB5B24407A3482F6D Accuracy: -m0 Conclusion: CDDA 100% Signature: 4CFBCA16044E7371B0FF819D74A4C41ECE918A7CFILE: 06 - Survival.flac Size: 32589888 Hash: 032457E7FE5C0918B1D2895B4A12BCAF Accuracy: -m0 Conclusion: CDDA 100% Signature: 52578CA4DD7AB5EE5BE29F94FB8EB75AB55D6FEBFILE: 05 - The Sound Of A Harp.flac Size: 43515895 Hash: 8470EB25BC54F6F43A5C2C763D3D37C8 Accuracy: -m0 Conclusion: CDDA 100% Signature: 5FD49F5AAAC09CF1E42F67933365AACDF2841BE2FILE: 04 - Mrs Granery(Crystal Symphony).flac Size: 31659996 Hash: C8ED3292D48B3634ED026330DE8C9DCE Accuracy: -m0 Conclusion: CDDA 100% Signature: 17708DB39E2A5223E85C97163AED97176F048B4CFILE: 03 - Robot Romance.flac Size: 55785835 Hash: 877419B00FE827DF8CAB176BC6B9EAD9 Accuracy: -m0 Conclusion: CDDA 100% Signature: 651AE3E549F6859E4270221E9A71FD64FE3D819B
TAURUS (Netherlands)

Formed in 1977 by Martin Scheffer and Rob Spierenburg. They released their first album in 1981 (Illusions Of A Night) that is succesfully re-released in 1989 in Japan. In this early period are some changes in the occupation: Spierenburg, Scheffer and Tears Berg, the group founded in 1977 and is drummer Dennis Plantenga (who previously had played in Ice) strengthen the group.
Piet Tears Berg disappears at the end of 1979. Theo de Jong (ex-Kayak), his replacement, but that is only short-lived: De Jong leaves quickly back to Scope and Jos Schild is beginning to be used as new bassist.
Taurus wanted at this time as a symphonic band album.
In Phonogram, a contract was signed with Corduroy productions (Cor Aaftink and Roy Beltman, among others responsible for BZN and Finch). The requirement was that first single was released. "Meadow" is displayed in 1980 and was originally a composition of more than seven minutes. Despite reasonable airplay took just the tip of the single non-parade. When Corduroy demanded that the album first half were single, decided TAURUS the contract itself to say and moved on to April Music / CBS in 1981 for the album: "Illusions of a night" to it.

Meanwhile the group also has a new drummer: Rex Stulp The debut album of the group "Illusions of a night" from 1981. That album would penetrate into Japan and the group so well known that there is more work Taurus was asked.
The occupation of Taurus remains subject to change. The recently appointed REX STULPE but remains short: the end of 1981, he was replaced by Kees Wassenaar. In the following year Martin Scheffer singer leaves the group. He is succeeded by ex-singer John Philippo from Sphinx.
Especially at the request of many fans who appears Taurus has built in 1983 another album: "Live Tapes" contains live recordings from the years 1979-1982. The sales results fall against and the group is set.

Until 1983 the band had a real live reputation. The band attracted by the country in a coach bus with the big Taurus logo on both sides. One side of the bus was red, blue, the other side. On the front and rear were red and blue to each other in the colors of the rainbow.
Singer John Philippo, we returned to Europe in 1983, the name for the new life breathed into Kayak.
Rob Spierenburg will focus on composing music. In 1992 he debuts as a solo artist Kees Wassenaar goes to the group later Tent

TAURUS remains music publishing. In 1985, the single "So long Christi-Ann." You could say that Taurus has been re-established. Instead of sympho we can perhaps better from now on have melodic rock.

Only Willem van Eijk was not previously a member of the group, but this guitarist, who plays in Vitesse, in 1986 by a car accident along the way. Taurus is the cost for years to find a good replacement.

The success in Japan ensures that "Illusions of a night" in 1989 on CD is released. In addition appears "Works (1976-1981)", a collector of works from the years 1976-1981: former members Scheffer, Spierenburg and Tears Berg take to meet the demand from Japan to meet some old songs again. At that time, however, that gentlemen no longer part of the group.
In 1993 there appears a whole new Taurus album: "See you again", a live album with pre-existing songs. In 1994 followed by "On a journey". The last album Besides Philippo Schild and some new faces: Spike Wolters guitarist and drummer Roy Darman (ex-the shorts) make their contribution to the album.

Around the turn of the century are John Philippo, Jos Schild and Roy Darman still active as a Taurus. They are busy with a new album. In 2000, however, saves the fate as John Philippo dies.

/proggnosis.com/
Auf dem Album "Works 1976-1981" befinden sich Neuaufnahmen alter Kompositionen aus den Jahren 1976-1981. In einer Anmerkung im Booklet wird jedoch Wert gelegt, dass man versucht hat, den Charakter der alten Songs zu erhalten. So war es das Anliegen der Musiker, den Sound der klassischen Taurus zu bewahren. Leider sind mir die alten Original-Veröffentlichungen der Band nicht bekannt, so dass ich keine Aussage darüber machen kann, ob dies geglückt ist. Ein kleines Manko ist jedoch, dass zur Besetzung aus dem Jahr 1990 kein Schlagzeuger gezählt hat, so dass der Schlagzeug-Sound "aus der Dose" kommt.
Sämtliche Songs des Albums "Works 1976-1981" bieten sehr melodischen Progressive Rock, der überaus angenehm anzuhören ist. Der Sound von Taurus ist sehr keyboardorientiert. Dies wird schon beim Anhören des Openers "Meadow" deutlich, der von fanfarenartigen Keyboards dominiert wird. Hier wird aber auch schon die Loslösung vom traditionellen Progressive Rocks deutlich. Das Songmaterial von Taurus ist alles andere als komplex und geht sehr schnell in´s Ohr. Ja, hier liegt schon mal wieder ein weiters Indiz dafür vor, dass der heute als Neoprog bezeichnete Sound nicht erst Anfang der 80er Jahre von britischen Bands erfunden wurde. Taurus würden eventuell auch glatt als eine Band aus dieser Zeit durchgehen. Auch in den nachfolgenden Songs wird der Keyboardbombast überaus dick aufgetragen. Bisweilen kommen mir als vergleichbare Band auch die Schotten Abel Ganz in den Sinn. In den Sound der sehr vordergründigen Tasteninstrumente des aber sehr gekonnt aufspielenden Rob Spierenburg ist aber auch das an Steve Hackett erinnernde Gitarrenspiel seines Bandkollegen Martin Scheffer eingeflochten, der im Gegensatz zu seinem Vorbild natürlich doch etwas blass bleibt. Nicht unerwähnt soll auch der dominante Bass von Piet Traanberg bleiben. Die von ihm bedienten Moog Taurus (!!!) Bass Pedals verbreiten auch das Flair der 70er Jahre.
Der Gesang wird vom bereits erwähnten Gitarristen Martin Scheffer übernommen. Seine Stimme bewegt sich im guten Durchschnittsbereich und ist wegen der Höhe am ehesten mit Jon Anderson vergleichbar, wobei er natürlich nicht dessen Qualität erreicht. Wenn er mal von seinen Höhen herunterkommt, erinnert er mich aber auch an John Lees von Barclay James Harvest, besonders im Longtrack "One For The Kingdom".
Letztendlich haben Taurus den Progressive Rock in einer Zeit des einsetzenden Niederganges keinesfalls reformiert. Dennoch bewegen sich die Songs auf einem hohen Qualitätsniveau und es wird eine ausgewogenen Mischung aus powervollen, kompakten Songs und hochdramatischen Longtracks geboten. Zum Schluss möchte ich dennoch den Titel "The Sound Of A Harp", der äusserst abwechslungsreich ist und wiederum von sehr dynamischen Keyboards dominiert wird, hervorheben. Somit kann man diese Band allen Freunden der melodiösen Variante des Genres empfehlen.

/babyblaue-seiten.de/
Rob Spierenburg - keyboards, piano, backing vocals
Martin Scheffer - guitars, vocals
Piet Traanberg - bass, moog taurus
"Taurus" Drum Programming


Трекер:  [ 19-Июл-2012 17:15 ]

  

Скачать .torrent

Размер .torrent файла 14 KB


Размер: 322 MB
Хэш (hash) релиза: c9f5dd003bcb92f735c5a3bf405d375dc2c2bcd5

Еще никто не оставлял запись к записи скачать торрент Taurus - Works 1976-1981 . Будь первым!

!Обратная связь