Скачать через торрент Дискография Dire Straits бесплатно русская версия torrent активатор

Если у вас наблюдаются проблемы со скриншотами, переходом по ссылками, скачиванием торрентов - проблемы в блокировщике рекламы AdBlock. #хорошегоДня!


Статистика раздачи
Размер:  3.14 GB   |    Зарегистрирован:  5 лет 2 месяца   |    .torrent скачан:  115 раз   |   
Раздают:  1  
   
Загрузка...
 
Автор Сообщение

Galfimbul

avatar Galfimbul


Дискография Dire Straits (10 Remastered SHM-CD Japan Mini LP Edition)



Жанр: Classic Rock
Годы: 1978 - 1995
Страна: United Kingdom
Страна-производитель дисков: Japan
Издатель (лейбл): Universal International, Vertigo
Тип издания: ремастеры
Формат издания: Dire Straits - Brothers In Arms Box DU-SP257
Год выпуска издания: 2008
Продолжительность: 08:15:48
Обложки: вшиты
Тексты: вшиты
Кодек: ALAC
Программа-риповщик : foobar2000 + iTunes (lossless)
Битрейт: lossless

Биография
Марк Нопфлер (р. 12 августа 1949, Глазго, Шотландия) и его брат Дэвид Нопфлер (р. 27 декабря 1952, Глазго, Шотландия) были сыновьями архитектора, который переехал в Ньюкасл (Англию), когда те были еще пацанами. Марк Нопфлер изучал английскую литературу в университете Лидса, и в течение короткого времени работал младшим репортером в "Yorkshire Evening Post" и местной газете. После окончания университета он работал учителем, а по вечерам играл в пабе в группе "Brewer's Droop". В начале 70-х Нопфлеры переехали в Лондон, где Марк повстречал басиста Джона Айллсли (р. 24 июня 1949, Лейкестер, Англия) и ударника Пика Уитера. Айллсли, дипломированный специалист по социологии, работал в магазине грампластинок, а Уитер уже много лет был сессионным барабанщиком. Для музыкантов, исполняющих спокойную музыку, тогда был "не климат", поскольку в те времена господствовал панк. Ни один из британских лейблов не хотел брать под крыло "Dire straits".
Однако блюзовая композиция с сухой, нежной лирикой "Sultans Of Swing" выделялась из их репертуара. Ее то и приметил и раскрутил ди-джей "Радио Лондон" и владелец "Oval Records" Чарли Гиллетт. К концу 1977 года группа записала с продюсером Маффом Уинвудом свой дебютный альбом на "Vertigo Records". Песня "Sultans Of Swing" стала хитом сначала в Голландии, а чуть позже попала в британский Топ 10. В Штатах продажами диска "Dire straits" занялась известная "Warner Brothers Records", настойчиво поддерживая альбом до марта 1979 года, когда тот попал на 2-ю строчку в "Billboard". Второй сингл, "Lady Writer", потерпел относительную неудачу, но это не повредило их популярности, как "альбомной группы".

Диск "Communique", продюсировавшийся Джерри Векслером и Барри Бекеттом, разошелся тиражом в три миллиона по всему миру. Перед записью "Making movies" из "Dire straits" ушел Дэвид Нопфлер, выбравший сольную карьеру и с тех пор выпустивший несколько записей на разных независимых маленьких лейблах. Он был заменен Хэлом Линдсом, бывшим членом "Darling". В это же время к "Dire straits" присоединился клавишник Алан Кларк. Нопфлера критиковали за его приверженность к одной и той же музыкальной формуле, но сопутствующий альбому сингл с острой любовной балладой "Romeo And Juliet" попал в десятку лучших в Англии. Диск "Love over gold" имел больший успех в США, чем его предшественник, а сингл "Private Investigations" занимал вторую строчку в британских чартах в сентябре 1982 года. После этого альбома Нопфлер продюсировал "Infidels" Боба Дилана (1983), а также написал хитовую вещь для Тины Тернер - "Private Dancer".

Теперь, казалось, "Dire straits" не могли записываться из-за обязательств Нопфлера перед другими музыкантами. Но они, однако, собрались вместе в 1983-м с новым ударником (экс-"Man") Терри Вильямсом, сменившим Уитера, и совершили трудное мировое турне. "Живой" двойник "Alchemy" заполнил промежуток перед следующим выпуском студийного альбома группы "Brothers in arms". Подобно многим другим, появление "Dire straits" на концерте "Live Aid" повысило продажи диска, а их собственный тур с 200 датами помог этому стать одним из самых продаваемых альбомов десятилетия. Композиция "Money For Nothing" стала номером 1 в США. Три других песни: "Walk Of Life", "So Far Away" и "Brothers in arms" стали лидерами хит-парадов по обе стороны Атлантики.

"Братья по оружию" все еще оставались в чартах, а Нопфлер снова обратился к другим проектам. Уже записавший три саундтрека к фильмам в 1983-84 (для "Local Hero", "Cal", и "Comfort and joy"), он написал музыку для фантастической комедии "The Princess bride" в 1987-м. Пока "Dire straits" находились в длительном творческом отпуске, басист Джон Айллсли выпустил два сольника, "Never Told A Soul" в 1984-м и "Glass" в 1988-м, правда, ни один из них не продавался в существенных количествах. Летом 1990-го во время разговора в пабе, Марк и его друзья Стив Филлипс и Брендан Крокер пришли к соглашению временно объединиться в группу, которую они назвали "Notting Hillbillies". К группе присоединился также Гай Флетчер. Вновь образованная группа, путешествуя по Британии, играла в маленьких пабах и успела за 43 дня дать 41 концерт. В течение лета 1991 года "Dire straits" объявили массивный тур "возвращения" и выпуск нового альбома, "On every street".

В то время как Нопфлер стремился находить новые занятия в околомузыкальной сфере, его группа была способны оставить шестилетний промежуток между выпусками альбомов и все еще поддерживать их невероятную популярность. Их двухгодичное кругосветное турне началось с их появления в 1989-м на концерте в честь дня рождения Нельсона Манделы на лондонском стадионе "Wembley", а закончилось выходом второго концертника "On the night". В марте 1995 года выходит, по-видимому, последний альбом группы, названный "Live at the BBC"; он был записан еще до того, как группа стала знаменита - в 1978 году.

С 1996 года Марк занялся сольной карьерой, а существование "Dire straits" остается под вопросом.


Содержание
01 Down To The Waterline (4:02)
02 Water Of Love (5:27)
03 Setting Me Up (3:20)
04 Six Blade Knife (4:13)
05 Southbound Again (2:59)
06 Sultans Of Swing (5:49)
07 In The Gallery (6:17)
08 Wild West End (4:42)
09 Lions (5:04)
  
Exact Audio Copy V0.99 prebeta 4 from 23. January 2008

Отчёт EAC об извлечении, выполненном 12. марта 2009, 16:33

Dire Straits / Dire Straits

Дисковод: HL-DT-STDVDRAM GSA-H62N Adapter: 4 ID: 0

Режим чтения : ДостоверностьИспользование точного потока : ДаОтключение кэша аудио : ДаИспользование указателей C2 : Нет

Коррекция смещения при чтении : 667Способность читать области Lead-in и Lead-out : НетЗаполнение пропущенных сэмплов тишиной : ДаУдаление блоков с тишиной в начале и конце : НетПри вычислениях CRC использовались нулевые сэмплы : ДаИнтерфейс : Встроенный Win32-интерфейс для Win NT/2000

Выходной формат : Внутренние WAV-операцииФормат сэмплов : 44.100 Гц; 16 бит; стерео

TOC извлечённого CD

Трек | Старт | Длительность | Начальный сектор | Конечный сектор --------------------------------------------------------------------- 1 | 0:00.00 | 4:02.33 | 0 | 18182 2 | 4:02.33 | 5:26.47 | 18183 | 42679 3 | 9:29.05 | 3:19.45 | 42680 | 57649 4 | 12:48.50 | 4:13.33 | 57650 | 76657 5 | 17:02.08 | 2:59.37 | 76658 | 90119 6 | 20:01.45 | 5:48.58 | 90120 | 116277 7 | 25:50.28 | 6:16.52 | 116278 | 144529 8 | 32:07.05 | 4:41.53 | 144530 | 165657 9 | 36:48.58 | 5:03.67 | 165658 | 188449

Характеристики диапазона извлечения и сообщения об ошибках

Выбранный диапазон

Имя файла F:\1978_Dire Straits - Dire Straits\Dire Straits - Dire Straits.wav

Пиковый уровень 100.0 % Качество диапазона 100.0 % CRC копии C8C11765 Копирование... OK

Ошибок не произошло

Конец отчёта
  
fooCDtect - foobar2000 + auCDtect, baralgin.

auCDtect: CD records authenticity detector, version 0.8.2Copyright (c) 2004 Oleg Berngardt. All rights reserved.Copyright (c) 2004 Alexander Djourik. All rights reserved.

mode: 0

=========================================== Track: 01. Down To The Waterline

Processing file: [01. Down To The Waterline.aucdtect]Detected average hi-boundary frequency: 2.023721e+004 HzDetected average lo-boundary frequency: 1.348271e+004 HzDetected average hi-cut frequency: 2.133931e+004 HzDetected average lo-cut frequency: 8.998430e+003 HzMaximum probablis boundary frequency: 2.189100e+004 HzCoefficient of nonlinearity of a phase: 2.321206e-001First order smothness: 3.874185e-001Second order smothness: 5.400844e-001

------------------------------------------------------------This track looks like CDDA with probability 100%

=========================================== Track: 02. Water Of Love

Processing file: [02. Water Of Love.aucdtect]Detected average hi-boundary frequency: 2.031935e+004 HzDetected average lo-boundary frequency: 1.382942e+004 Hz

Detected average hi-cut frequency: 2.117976e+004 HzDetected average lo-cut frequency: 9.284476e+003 HzMaximum probablis boundary frequency: 2.189100e+004 HzCoefficient of nonlinearity of a phase: 3.020875e-001First order smothness: 4.449815e-001Second order smothness: 5.308502e-001

------------------------------------------------------------This track looks like CDDA with probability 100%

=========================================== Track: 03. Setting Me Up

Processing file: [03. Setting Me Up.aucdtect]Detected average hi-boundary frequency: 2.030611e+004 HzDetected average lo-boundary frequency: 1.342451e+004 Hz

Detected average hi-cut frequency: 2.150860e+004 HzDetected average lo-cut frequency: 7.753102e+003 HzMaximum probablis boundary frequency: 2.189100e+004 HzCoefficient of nonlinearity of a phase: 5.544802e-001First order smothness: 4.413953e-001Second order smothness: 5.037209e-001

------------------------------------------------------------This track looks like CDDA with probability 100%

=========================================== Track: 04. Six Blade Knife

Processing file: [04. Six Blade Knife.aucdtect]Detected average hi-boundary frequency: 2.029458e+004 HzDetected average lo-boundary frequency: 1.358896e+004 HzDetected average hi-cut frequency: 2.140414e+004 HzDetected average lo-cut frequency: 9.621169e+003 HzMaximum probablis boundary frequency: 2.189100e+004 HzCoefficient of nonlinearity of a phase: 5.561229e-001First order smothness: 4.151704e-001Second order smothness: 5.386588e-001

------------------------------------------------------------This track looks like CDDA with probability 100%

=========================================== Track: 05. Southbound Again

Processing file: [05. Southbound Again.aucdtect]Detected average hi-boundary frequency: 2.027878e+004 HzDetected average lo-boundary frequency: 1.338384e+004 HzDetected average hi-cut frequency: 2.130655e+004 HzDetected average lo-cut frequency: 5.856326e+003 HzMaximum probablis boundary frequency: 2.189100e+004 HzCoefficient of nonlinearity of a phase: 1.482708e-001First order smothness: 4.630109e-001Second order smothness: 4.733575e-001

------------------------------------------------------------This track looks like CDDA with probability 100%

=========================================== Track: 06. Sultans Of Swing

Processing file: [06. Sultans Of Swing.aucdtect]Detected average hi-boundary frequency: 2.036093e+004 HzDetected average lo-boundary frequency: 1.422575e+004 HzDetected average hi-cut frequency: 2.129802e+004 HzDetected average lo-cut frequency: 9.625787e+003 HzMaximum probablis boundary frequency: 2.189100e+004 HzCoefficient of nonlinearity of a phase: 1.837687e-001First order smothness: 4.382322e-001Second order smothness: 5.178381e-001

------------------------------------------------------------This track looks like CDDA with probability 100%

=========================================== Track: 07. In The Gallery

Processing file: [07. In The Gallery.aucdtect]Detected average hi-boundary frequency: 2.035526e+004 HzDetected average lo-boundary frequency: 1.324103e+004 HzDetected average hi-cut frequency: 2.138167e+004 HzDetected average lo-cut frequency: 9.912130e+003 HzMaximum probablis boundary frequency: 2.189100e+004 HzCoefficient of nonlinearity of a phase: 2.475010e-001First order smothness: 4.497041e-001Second order smothness: 5.401874e-001

------------------------------------------------------------This track looks like CDDA with probability 100%

=========================================== Track: 08. Wild West End

Processing file: [08. Wild West End.aucdtect]Detected average hi-boundary frequency: 2.025956e+004 HzDetected average lo-boundary frequency: 1.320161e+004 Hz

Detected average hi-cut frequency: 2.132100e+004 HzDetected average lo-cut frequency: 8.593286e+003 HzMaximum probablis boundary frequency: 2.189100e+004 HzCoefficient of nonlinearity of a phase: 2.874338e-001First order smothness: 4.449572e-001Second order smothness: 5.309822e-001

------------------------------------------------------------This track looks like CDDA with probability 99%

=========================================== Track: 09. Lions

Processing file: [09. Lions.aucdtect]Detected average hi-boundary frequency: 2.025199e+004 HzDetected average lo-boundary frequency: 1.284840e+004 HzDetected average hi-cut frequency: 2.113726e+004 HzDetected average lo-cut frequency: 6.993074e+003 HzMaximum probablis boundary frequency: 2.189100e+004 HzCoefficient of nonlinearity of a phase: 6.002888e-001First order smothness: 4.257729e-001Second order smothness: 5.518825e-001

------------------------------------------------------------This track looks like CDDA with probability 99%

===========================================
01 Once Upon A Time In The West (5:25)
02 News (4:14)
03 Where Do You Think You're Going? (3:50)
04 Communiqué (5:50)
05 Lady Writer (3:46)
06 Angel Of Mercy (4:37)
07 Portobello Belle (4:30)
08 Single-Handed Sailor (4:43)
09 Follow Me Home (5:51)
  
Exact Audio Copy V0.99 prebeta 4 from 23. January 2008

Отчёт EAC об извлечении, выполненном 12. марта 2009, 16:18

Dire Straits / Communique

Дисковод: HL-DT-STDVDRAM GSA-H62N Adapter: 4 ID: 0

Режим чтения : ДостоверностьИспользование точного потока : ДаОтключение кэша аудио : ДаИспользование указателей C2 : Нет

Коррекция смещения при чтении : 667Способность читать области Lead-in и Lead-out : НетЗаполнение пропущенных сэмплов тишиной : ДаУдаление блоков с тишиной в начале и конце : НетПри вычислениях CRC использовались нулевые сэмплы : ДаИнтерфейс : Встроенный Win32-интерфейс для Win NT/2000

Выходной формат : Внутренние WAV-операцииФормат сэмплов : 44.100 Гц; 16 бит; стерео

TOC извлечённого CD

Трек | Старт | Длительность | Начальный сектор | Конечный сектор --------------------------------------------------------------------- 1 | 0:00.00 | 5:25.05 | 0 | 24379 2 | 5:25.05 | 4:14.15 | 24380 | 43444 3 | 9:39.20 | 3:49.48 | 43445 | 60667 4 | 13:28.68 | 5:49.52 | 60668 | 86894 5 | 19:18.45 | 3:45.38 | 86895 | 103807 6 | 23:04.08 | 4:36.47 | 103808 | 124554 7 | 27:40.55 | 4:29.58 | 124555 | 144787 8 | 32:10.38 | 4:42.60 | 144788 | 165997 9 | 36:53.23 | 5:50.65 | 165998 | 192312

Характеристики диапазона извлечения и сообщения об ошибках

Выбранный диапазон

Имя файла F:\1979_Dire Straits - Communique\Dire Straits - Communique.wav

Пиковый уровень 98.8 % Качество диапазона 100.0 % CRC копии C383576B Копирование... OK

Ошибок не произошло

Конец отчёта
  
fooCDtect - foobar2000 + auCDtect, baralgin.

auCDtect: CD records authenticity detector, version 0.8.2Copyright (c) 2004 Oleg Berngardt. All rights reserved.Copyright (c) 2004 Alexander Djourik. All rights reserved.

mode: 0

=========================================== Track: 01. Once Upon A Time In The West

Processing file: [01. Once Upon A Time In The West.aucdtect]Detected average hi-boundary frequency: 2.017908e+004 HzDetected average lo-boundary frequency: 1.323899e+004 HzDetected average hi-cut frequency: 2.157429e+004 HzDetected average lo-cut frequency: 1.018912e+004 HzMaximum probablis boundary frequency: 2.189100e+004 HzCoefficient of nonlinearity of a phase: 1.162394e-001First order smothness: 3.838673e-001Second order smothness: 6.332952e-001

------------------------------------------------------------This track looks like CDDA with probability 100%

=========================================== Track: 02. News

Processing file: [02. News.aucdtect]Detected average hi-boundary frequency: 2.008324e+004 HzDetected average lo-boundary frequency: 1.226609e+004 HzDetected average hi-cut frequency: 2.148565e+004 HzDetected average lo-cut frequency: 7.892198e+003 HzMaximum probablis boundary frequency: 2.189100e+004 HzCoefficient of nonlinearity of a phase: 6.568142e-001First order smothness: 4.081111e-001Second order smothness: 5.801973e-001

------------------------------------------------------------This track looks like CDDA with probability 100%

=========================================== Track: 03. Where Do You Think You're Going

Processing file: [03. Where Do You Think You're Going.aucdtect]Detected average hi-boundary frequency: 2.017771e+004 HzDetected average lo-boundary frequency: 1.367481e+004 HzDetected average hi-cut frequency: 2.157977e+004 HzDetected average lo-cut frequency: 9.708135e+003 HzMaximum probablis boundary frequency: 2.189100e+004 HzCoefficient of nonlinearity of a phase: 1.555087e-001First order smothness: 4.063890e-001Second order smothness: 5.576223e-001

------------------------------------------------------------This track looks like CDDA with probability 100%

=========================================== Track: 04. Communiqué

Processing file: [04. Communiqué.aucdtect]Detected average hi-boundary frequency: 2.019061e+004 HzDetected average lo-boundary frequency: 1.316393e+004 HzDetected average hi-cut frequency: 2.148071e+004 HzDetected average lo-cut frequency: 9.472467e+003 HzMaximum probablis boundary frequency: 2.189100e+004 HzCoefficient of nonlinearity of a phase: 1.909418e-001First order smothness: 3.993627e-001Second order smothness: 5.756771e-001

------------------------------------------------------------This track looks like CDDA with probability 100%

=========================================== Track: 05. Lady Writer

Processing file: [05. Lady Writer.aucdtect]Detected average hi-boundary frequency: 2.012320e+004 HzDetected average lo-boundary frequency: 1.421365e+004 HzDetected average hi-cut frequency: 2.156378e+004 HzDetected average lo-cut frequency: 9.567198e+003 HzMaximum probablis boundary frequency: 2.189100e+004 Hz

Coefficient of nonlinearity of a phase: 1.034540e-001First order smothness: 3.743822e-001Second order smothness: 5.617792e-001

------------------------------------------------------------This track looks like CDDA with probability 100%

=========================================== Track: 06. Angel Of Mercy

Processing file: [06. Angel Of Mercy.aucdtect]Detected average hi-boundary frequency: 2.008052e+004 HzDetected average lo-boundary frequency: 1.329286e+004 HzDetected average hi-cut frequency: 2.160567e+004 HzDetected average lo-cut frequency: 7.680055e+003 HzMaximum probablis boundary frequency: 2.189100e+004 HzCoefficient of nonlinearity of a phase: 3.520511e-001First order smothness: 3.793219e-001Second order smothness: 5.632763e-001

------------------------------------------------------------This track looks like CDDA with probability 100%

=========================================== Track: 07. Portobello Belle

Processing file: [07. Portobello Belle.aucdtect]Detected average hi-boundary frequency: 2.016508e+004 HzDetected average lo-boundary frequency: 1.326344e+004 HzDetected average hi-cut frequency: 2.159374e+004 HzDetected average lo-cut frequency: 1.158729e+004 HzMaximum probablis boundary frequency: 2.189100e+004 HzCoefficient of nonlinearity of a phase: 1.610208e-001First order smothness: 3.796902e-001Second order smothness: 5.531842e-001

------------------------------------------------------------This track looks like CDDA with probability 100%

=========================================== Track: 08. Single-Handed Sailor

Processing file: [08. Single-Handed Sailor.aucdtect]Detected average hi-boundary frequency: 2.048449e+004 HzDetected average lo-boundary frequency: 1.377006e+004 HzDetected average hi-cut frequency: 2.027545e+004 HzDetected average lo-cut frequency: 8.718868e+003 HzMaximum probablis boundary frequency: 2.178900e+004 HzCoefficient of nonlinearity of a phase: 3.892732e-001First order smothness: 4.108374e-001Second order smothness: 5.632184e-001

------------------------------------------------------------This track looks like CDDA with probability 76%

=========================================== Track: 09. Follow Me Home

Processing file: [09. Follow Me Home.aucdtect]Detected average hi-boundary frequency: 2.013241e+004 HzDetected average lo-boundary frequency: 1.276262e+004 HzDetected average hi-cut frequency: 2.155697e+004 HzDetected average lo-cut frequency: 7.384054e+003 HzMaximum probablis boundary frequency: 2.189100e+004 HzCoefficient of nonlinearity of a phase: 3.261194e-001First order smothness: 3.743046e-001Second order smothness: 5.652980e-001

------------------------------------------------------------This track looks like CDDA with probability 100%

===========================================
01 Tunnel Of Love (8:11)
02 Romeo And Juliet (6:02)
03 Skateaway (6:40)
04 Expresso Love (5:12)
05 Hand In Hand (4:49)
06 Solid Rock (3:27)
07 Les Boys (4:09)
  
Exact Audio Copy V0.99 prebeta 4 from 23. January 2008

Отчёт EAC об извлечении, выполненном 12. марта 2009, 18:21

Dire Straits / Making Movies

Дисковод: HL-DT-STDVDRAM GSA-H62N Adapter: 4 ID: 0

Режим чтения : ДостоверностьИспользование точного потока : ДаОтключение кэша аудио : ДаИспользование указателей C2 : Нет

Коррекция смещения при чтении : 667Способность читать области Lead-in и Lead-out : НетЗаполнение пропущенных сэмплов тишиной : ДаУдаление блоков с тишиной в начале и конце : НетПри вычислениях CRC использовались нулевые сэмплы : ДаИнтерфейс : Встроенный Win32-интерфейс для Win NT/2000

Выходной формат : Внутренние WAV-операцииФормат сэмплов : 44.100 Гц; 16 бит; стерео

TOC извлечённого CD

Трек | Старт | Длительность | Начальный сектор | Конечный сектор --------------------------------------------------------------------- 1 | 0:00.00 | 8:11.33 | 0 | 36857 2 | 8:11.33 | 6:01.67 | 36858 | 63999 3 | 14:13.25 | 6:40.33 | 64000 | 94032 4 | 20:53.58 | 5:12.17 | 94033 | 117449 5 | 26:06.00 | 4:48.58 | 117450 | 139107 6 | 30:54.58 | 3:27.02 | 139108 | 154634 7 | 34:21.60 | 4:08.73 | 154635 | 173307

Характеристики диапазона извлечения и сообщения об ошибках

Выбранный диапазон

Имя файла F:\1980_Dire Straits - Making Movies\Dire Straits - Making Movies.wav

Пиковый уровень 98.8 % Качество диапазона 100.0 % CRC копии E2E5D004 Копирование... OK

Ошибок не произошло

Конец отчёта
  
fooCDtect - foobar2000 + auCDtect, baralgin.

auCDtect: CD records authenticity detector, version 0.8.2Copyright (c) 2004 Oleg Berngardt. All rights reserved.Copyright (c) 2004 Alexander Djourik. All rights reserved.

mode: 0

=========================================== Track: 01. Tunnel Of Love

Processing file: [01. Tunnel Of Love.aucdtect]Detected average hi-boundary frequency: 2.028112e+004 HzDetected average lo-boundary frequency: 1.333667e+004 HzDetected average hi-cut frequency: 2.141940e+004 HzDetected average lo-cut frequency: 7.663164e+003 HzMaximum probablis boundary frequency: 2.189100e+004 HzCoefficient of nonlinearity of a phase: 1.737453e-001First order smothness: 3.918306e-001Second order smothness: 5.204236e-001

------------------------------------------------------------This track looks like CDDA with probability 100%

=========================================== Track: 02. Romeo And Juliet

Processing file: [02. Romeo And Juliet.aucdtect]Detected average hi-boundary frequency: 2.022451e+004 HzDetected average lo-boundary frequency: 1.344484e+004 HzDetected average hi-cut frequency: 2.126554e+004 HzDetected average lo-cut frequency: 8.872846e+003 HzMaximum probablis boundary frequency: 2.189100e+004 HzCoefficient of nonlinearity of a phase: 8.208177e-001First order smothness: 3.890172e-001Second order smothness: 5.381062e-001

------------------------------------------------------------This track looks like CDDA with probability 100%

=========================================== Track: 03. Skateaway

Processing file: [03. Skateaway.aucdtect]Detected average hi-boundary frequency: 2.026433e+004 HzDetected average lo-boundary frequency: 1.334436e+004 HzDetected average hi-cut frequency: 2.156128e+004 HzDetected average lo-cut frequency: 7.103415e+003 HzMaximum probablis boundary frequency: 2.189100e+004 HzCoefficient of nonlinearity of a phase: 7.222078e-001First order smothness: 3.896104e-001Second order smothness: 4.408627e-001

------------------------------------------------------------This track looks like CDDA with probability 100%

=========================================== Track: 04. Expresso Love

Processing file: [04. Expresso Love.aucdtect]Detected average hi-boundary frequency: 2.028523e+004 HzDetected average lo-boundary frequency: 1.331378e+004 Hz

Detected average hi-cut frequency: 2.135624e+004 HzDetected average lo-cut frequency: 8.315852e+003 HzMaximum probablis boundary frequency: 2.189100e+004 HzCoefficient of nonlinearity of a phase: 4.727687e-001First order smothness: 3.723974e-001Second order smothness: 5.603807e-001

------------------------------------------------------------This track looks like CDDA with probability 99%

=========================================== Track: 05. Hand In Hand

Processing file: [05. Hand In Hand.aucdtect]Detected average hi-boundary frequency: 2.028433e+004 HzDetected average lo-boundary frequency: 1.331572e+004 HzDetected average hi-cut frequency: 2.129766e+004 HzDetected average lo-cut frequency: 7.800500e+003 HzMaximum probablis boundary frequency: 2.189100e+004 HzCoefficient of nonlinearity of a phase: 7.139023e-001First order smothness: 4.086817e-001Second order smothness: 5.109325e-001

------------------------------------------------------------This track looks like CDDA with probability 99%

=========================================== Track: 06. Solid Rock

Processing file: [06. Solid Rock.aucdtect]Detected average hi-boundary frequency: 2.038169e+004 HzDetected average lo-boundary frequency: 1.418118e+004 HzDetected average hi-cut frequency: 2.142634e+004 HzDetected average lo-cut frequency: 5.637200e+003 HzMaximum probablis boundary frequency: 2.189100e+004 HzCoefficient of nonlinearity of a phase: 8.660142e-001First order smothness: 4.239569e-001Second order smothness: 3.678780e-001

------------------------------------------------------------This track looks like CDDA with probability 100%

=========================================== Track: 07. Les Boys

Processing file: [07. Les Boys.aucdtect]Detected average hi-boundary frequency: 2.031608e+004 HzDetected average lo-boundary frequency: 1.410896e+004 HzDetected average hi-cut frequency: 2.124281e+004 HzDetected average lo-cut frequency: 6.620915e+003 HzMaximum probablis boundary frequency: 2.189100e+004 HzCoefficient of nonlinearity of a phase: 1.090977e+000First order smothness: 3.954444e-001Second order smothness: 5.298730e-001

------------------------------------------------------------This track looks like CDDA with probability 100%

===========================================
01 Telegraph Road (14:18)
02 Private Investigations (6:47)
03 Industrial Disease (5:50)
04 Love Over Gold (6:17)
05 It Never Rains (8:00)
  
Exact Audio Copy V0.99 prebeta 4 from 23. January 2008

Отчёт EAC об извлечении, выполненном 12. марта 2009, 17:37

Dire Straits / Love Over Gold

Дисковод: HL-DT-STDVDRAM GSA-H62N Adapter: 4 ID: 0

Режим чтения : ДостоверностьИспользование точного потока : ДаОтключение кэша аудио : ДаИспользование указателей C2 : Нет

Коррекция смещения при чтении : 667Способность читать области Lead-in и Lead-out : НетЗаполнение пропущенных сэмплов тишиной : ДаУдаление блоков с тишиной в начале и конце : НетПри вычислениях CRC использовались нулевые сэмплы : ДаИнтерфейс : Встроенный Win32-интерфейс для Win NT/2000

Выходной формат : Внутренние WAV-операцииФормат сэмплов : 44.100 Гц; 16 бит; стерео

TOC извлечённого CD

Трек | Старт | Длительность | Начальный сектор | Конечный сектор --------------------------------------------------------------------- 1 | 0:00.00 | 14:18.28 | 0 | 64377 2 | 14:18.28 | 6:46.65 | 64378 | 94892 3 | 21:05.18 | 5:50.27 | 94893 | 121169 4 | 26:55.45 | 6:17.03 | 121170 | 149447 5 | 33:12.48 | 7:59.60 | 149448 | 185432

Характеристики диапазона извлечения и сообщения об ошибках

Выбранный диапазон

Имя файла F:\1982_Dire Straits - Love Over Gold\Dire Straits - Love Over Gold.wav

Пиковый уровень 100.0 % Качество диапазона 100.0 % CRC копии 2BDC34E3 Копирование... OK

Ошибок не произошло

Конец отчёта
  
fooCDtect - foobar2000 + auCDtect, baralgin.

auCDtect: CD records authenticity detector, version 0.8.2Copyright (c) 2004 Oleg Berngardt. All rights reserved.Copyright (c) 2004 Alexander Djourik. All rights reserved.

mode: 0

=========================================== Track: 01. Telegraph Road

Processing file: [01. Telegraph Road.aucdtect]Detected average hi-boundary frequency: 2.036443e+004 HzDetected average lo-boundary frequency: 1.249663e+004 HzDetected average hi-cut frequency: 2.157406e+004 HzDetected average lo-cut frequency: 1.384393e+004 HzMaximum probablis boundary frequency: 2.093300e+004 HzCoefficient of nonlinearity of a phase: 1.976602e-001First order smothness: 4.296384e-001Second order smothness: 6.710327e-001

------------------------------------------------------------This track looks like CDDA with probability 100%

=========================================== Track: 02. Private Investigations

Processing file: [02. Private Investigations.aucdtect]Detected average hi-boundary frequency: 2.051672e+004 HzDetected average lo-boundary frequency: 1.402112e+004 HzDetected average hi-cut frequency: 2.147527e+004 HzDetected average lo-cut frequency: 1.754803e+004 HzMaximum probablis boundary frequency: 2.094400e+004 HzCoefficient of nonlinearity of a phase: 7.020048e-001First order smothness: 4.026478e-001Second order smothness: 7.941109e-001

------------------------------------------------------------This track looks like CDDA with probability 100%

=========================================== Track: 03. Industrial Disease

Processing file: [03. Industrial Disease.aucdtect]Detected average hi-boundary frequency: 2.021938e+004 HzDetected average lo-boundary frequency: 1.359072e+004 HzDetected average hi-cut frequency: 2.163869e+004 HzDetected average lo-cut frequency: 1.137167e+004 HzMaximum probablis boundary frequency: 2.189100e+004 HzCoefficient of nonlinearity of a phase: 1.338906e-001First order smothness: 3.919958e-001Second order smothness: 5.926319e-001

------------------------------------------------------------This track looks like CDDA with probability 100%

=========================================== Track: 04. Love Over Gold

Processing file: [04. Love Over Gold.aucdtect]Detected average hi-boundary frequency: 2.031308e+004 HzDetected average lo-boundary frequency: 1.336073e+004 HzDetected average hi-cut frequency: 2.153413e+004 HzDetected average lo-cut frequency: 1.308390e+004 HzMaximum probablis boundary frequency: 2.189100e+004 HzCoefficient of nonlinearity of a phase: 1.508772e-001First order smothness: 4.194581e-001Second order smothness: 6.839901e-001

------------------------------------------------------------This track looks like CDDA with probability 100%

=========================================== Track: 05. It Never Rains

Processing file: [05. It Never Rains.aucdtect]Detected average hi-boundary frequency: 2.027007e+004 HzDetected average lo-boundary frequency: 1.362401e+004 HzDetected average hi-cut frequency: 2.132148e+004 HzDetected average lo-cut frequency: 1.257972e+004 HzMaximum probablis boundary frequency: 2.189100e+004 HzCoefficient of nonlinearity of a phase: 9.132844e-002First order smothness: 4.228981e-001Second order smothness: 6.294072e-001

------------------------------------------------------------This track looks like CDDA with probability 100%

===========================================
CD1:

01 Once Upon A Time In The West (13:01)
02 Expresso Love (5:45)
03 Romeo And Juliet (8:18)
04 Love Over Gold (3:28)
05 Going Home (Theme From 'Local Hero') (6:05)
06 Sultans Of Swing (10:54)

CD2:

01 Two Young Lovers (4:50)
02 Tunnel Of Love (14:29)
03 Telegraph Road (13:37)
04 Solid Rock (6:02)
05 Private Investigations (7:35)
  
Exact Audio Copy V0.99 prebeta 4 from 23. January 2008

Отчёт EAC об извлечении, выполненном 13. марта 2009, 12:30

Dire Straits / Alchemy - Live (CD1)

Дисковод: HL-DT-STDVDRAM GSA-H62N Adapter: 4 ID: 0

Режим чтения : ДостоверностьИспользование точного потока : ДаОтключение кэша аудио : ДаИспользование указателей C2 : Нет

Коррекция смещения при чтении : 667Способность читать области Lead-in и Lead-out : НетЗаполнение пропущенных сэмплов тишиной : ДаУдаление блоков с тишиной в начале и конце : НетПри вычислениях CRC использовались нулевые сэмплы : ДаИнтерфейс : Встроенный Win32-интерфейс для Win NT/2000

Выходной формат : Внутренние WAV-операцииФормат сэмплов : 44.100 Гц; 16 бит; стерео

TOC извлечённого CD

Трек | Старт | Длительность | Начальный сектор | Конечный сектор --------------------------------------------------------------------- 1 | 0:00.00 | 13:01.25 | 0 | 58599 2 | 13:01.25 | 5:45.07 | 58600 | 84481 3 | 18:46.32 | 8:17.53 | 84482 | 121809 4 | 27:04.10 | 3:27.45 | 121810 | 137379 5 | 30:31.55 | 7:34.72 | 137380 | 171501 6 | 38:06.52 | 10:54.23 | 171502 | 220574

Характеристики диапазона извлечения и сообщения об ошибках

Выбранный диапазон

Имя файла F:\1984_Dire Straits - Alchemy Live\CD1\Dire Straits - Alchemy - Live (CD1).wav

Пиковый уровень 100.0 % Качество диапазона 100.0 % CRC копии D1EE6BC3 Копирование... OK

Ошибок не произошло

Конец отчёта
  
Exact Audio Copy V0.99 prebeta 4 from 23. January 2008

Отчёт EAC об извлечении, выполненном 13. марта 2009, 12:47

Dire Straits / Alchemy - Live (CD2)

Дисковод: HL-DT-STDVDRAM GSA-H62N Adapter: 4 ID: 0

Режим чтения : ДостоверностьИспользование точного потока : ДаОтключение кэша аудио : ДаИспользование указателей C2 : Нет

Коррекция смещения при чтении : 667Способность читать области Lead-in и Lead-out : НетЗаполнение пропущенных сэмплов тишиной : ДаУдаление блоков с тишиной в начале и конце : НетПри вычислениях CRC использовались нулевые сэмплы : ДаИнтерфейс : Встроенный Win32-интерфейс для Win NT/2000

Выходной формат : Внутренние WAV-операцииФормат сэмплов : 44.100 Гц; 16 бит; стерео

TOC извлечённого CD

Трек | Старт | Длительность | Начальный сектор | Конечный сектор --------------------------------------------------------------------- 1 | 0:00.00 | 4:49.50 | 0 | 21724 2 | 4:49.50 | 14:29.30 | 21725 | 86929 3 | 19:19.05 | 13:37.25 | 86930 | 148229 4 | 32:56.30 | 6:01.68 | 148230 | 175372 5 | 38:58.23 | 6:05.37 | 175373 | 202784

Характеристики диапазона извлечения и сообщения об ошибках

Выбранный диапазон

Имя файла F:\1984_Dire Straits - Alchemy Live\CD2\Dire Straits - Alchemy - Live (CD2).wav

Пиковый уровень 100.0 % Качество диапазона 100.0 % CRC копии C2052D02 Копирование... OK

Ошибок не произошло

Конец отчёта
  
fooCDtect - foobar2000 + auCDtect, baralgin.

auCDtect: CD records authenticity detector, version 0.8.2Copyright (c) 2004 Oleg Berngardt. All rights reserved.Copyright (c) 2004 Alexander Djourik. All rights reserved.

mode: 0

=========================================== Track: 01. Once Upon A Time In The West

Processing file: [01. Once Upon A Time In The West.aucdtect]Detected average hi-boundary frequency: 2.048112e+004 HzDetected average lo-boundary frequency: 1.409065e+004 HzDetected average hi-cut frequency: 2.143049e+004 HzDetected average lo-cut frequency: 1.800769e+004 HzMaximum probablis boundary frequency: 2.079800e+004 HzCoefficient of nonlinearity of a phase: 1.720349e-001First order smothness: 4.193356e-001Second order smothness: 8.730801e-001

------------------------------------------------------------This track looks like CDDA with probability 99%

=========================================== Track: 02. Expresso Love

Processing file: [02. Expresso Love.aucdtect]Detected average hi-boundary frequency: 2.056416e+004 HzDetected average lo-boundary frequency: 1.380834e+004 Hz

Detected average hi-cut frequency: 2.134841e+004 HzDetected average lo-cut frequency: 1.740717e+004 HzMaximum probablis boundary frequency: 2.079300e+004 HzCoefficient of nonlinearity of a phase: 1.672100e-001First order smothness: 3.598169e-001Second order smothness: 8.007002e-001

------------------------------------------------------------This track looks like CDDA with probability 100%

=========================================== Track: 03. Romeo And Juliet

Processing file: [03. Romeo And Juliet.aucdtect]Detected average hi-boundary frequency: 2.041186e+004 HzDetected average lo-boundary frequency: 1.403905e+004 HzDetected average hi-cut frequency: 2.143334e+004 HzDetected average lo-cut frequency: 1.750502e+004 HzMaximum probablis boundary frequency: 2.079300e+004 HzCoefficient of nonlinearity of a phase: 4.818959e-001First order smothness: 3.875723e-001Second order smothness: 8.699384e-001

------------------------------------------------------------This track looks like CDDA with probability 100%

=========================================== Track: 04. Love Over Gold

Processing file: [04. Love Over Gold.aucdtect]Detected average hi-boundary frequency: 2.047612e+004 HzDetected average lo-boundary frequency: 1.383803e+004 HzDetected average hi-cut frequency: 2.152718e+004 HzDetected average lo-cut frequency: 1.755707e+004 HzMaximum probablis boundary frequency: 2.084700e+004 HzCoefficient of nonlinearity of a phase: 1.625144e-001First order smothness: 3.926655e-001Second order smothness: 8.756708e-001

------------------------------------------------------------This track looks like CDDA with probability 100%

=========================================== Track: 05. Going Home (Theme From 'Local Hero')

Processing file: [05. Going Home (Theme From 'Local Hero').aucdtect]Detected average hi-boundary frequency: 2.056001e+004 HzDetected average lo-boundary frequency: 1.401094e+004 HzDetected average hi-cut frequency: 2.129890e+004 HzDetected average lo-cut frequency: 1.836778e+004 HzMaximum probablis boundary frequency: 2.083600e+004 HzCoefficient of nonlinearity of a phase: 2.203503e-001

First order smothness: 3.424867e-001Second order smothness: 8.665141e-001

------------------------------------------------------------This track looks like CDDA with probability 99%

=========================================== Track: 06. Sultans Of Swing

Processing file: [06. Sultans Of Swing.aucdtect]Detected average hi-boundary frequency: 2.051839e+004 HzDetected average lo-boundary frequency: 1.376190e+004 HzDetected average hi-cut frequency: 2.121817e+004 HzDetected average lo-cut frequency: 1.672851e+004 HzMaximum probablis boundary frequency: 2.079300e+004 HzCoefficient of nonlinearity of a phase: 1.307048e-001First order smothness: 3.495739e-001Second order smothness: 7.684659e-001

------------------------------------------------------------This track looks like CDDA with probability 100%

=========================================== Track: 01. Two Young Lovers

Processing file: [01. Two Young Lovers.aucdtect]Detected average hi-boundary frequency: 2.053359e+004 HzDetected average lo-boundary frequency: 1.454430e+004 HzDetected average hi-cut frequency: 2.130389e+004 HzDetected average lo-cut frequency: 1.769991e+004 HzMaximum probablis boundary frequency: 2.080900e+004 HzCoefficient of nonlinearity of a phase: 1.688564e-001First order smothness: 3.768860e-001Second order smothness: 8.333868e-001

------------------------------------------------------------This track looks like CDDA with probability 100%

=========================================== Track: 02. Tunnel Of Love

Processing file: [02. Tunnel Of Love.aucdtect]Detected average hi-boundary frequency: 2.059511e+004 HzDetected average lo-boundary frequency: 1.371684e+004 HzDetected average hi-cut frequency: 2.131151e+004 HzDetected average lo-cut frequency: 1.878484e+004 HzMaximum probablis boundary frequency: 2.079800e+004 HzCoefficient of nonlinearity of a phase: 1.905800e-001First order smothness: 3.504967e-001Second order smothness: 8.928533e-001

------------------------------------------------------------This track looks like CDDA with probability 100%

=========================================== Track: 03. Telegraph Road

Processing file: [03. Telegraph Road.aucdtect]Detected average hi-boundary frequency: 2.049729e+004 HzDetected average lo-boundary frequency: 1.382329e+004 HzDetected average hi-cut frequency: 2.137107e+004 HzDetected average lo-cut frequency: 1.767635e+004 HzMaximum probablis boundary frequency: 2.083600e+004 HzCoefficient of nonlinearity of a phase: 3.417967e-001First order smothness: 4.104545e-001Second order smothness: 8.485227e-001

------------------------------------------------------------This track looks like CDDA with probability 100%

=========================================== Track: 04. Solid Rock

Processing file: [04. Solid Rock.aucdtect]Detected average hi-boundary frequency: 2.065413e+004 HzDetected average lo-boundary frequency: 1.377790e+004 HzDetected average hi-cut frequency: 2.138054e+004 HzDetected average lo-cut frequency: 1.861326e+004 HzMaximum probablis boundary frequency: 2.083100e+004 HzCoefficient of nonlinearity of a phase: 1.117107e-001First order smothness: 3.674622e-001Second order smothness: 8.229407e-001

------------------------------------------------------------This track looks like CDDA with probability 100%

=========================================== Track: 05. Private Investigations

Processing file: [05. Private Investigations.aucdtect]Detected average hi-boundary frequency: 2.020316e+004 HzDetected average lo-boundary frequency: 1.326869e+004 HzDetected average hi-cut frequency: 2.146486e+004 HzDetected average lo-cut frequency: 1.514460e+004 HzMaximum probablis boundary frequency: 2.189100e+004 HzCoefficient of nonlinearity of a phase: 1.288567e-001First order smothness: 3.764033e-001Second order smothness: 7.575015e-001

------------------------------------------------------------This track looks like CDDA with probability 99%

===========================================
01 So Far Away (5:12)
02 Money For Nothing (8:26)
03 Walk Of Life (4:12)
04 Your Latest Trick (6:34)
05 Why Worry (8:31)
06 Ride Across The River (6:58)
07 The Man's Too Strong (4:40)
08 One World (3:41)
09 Brothers In Arms (7:00)
  
X Lossless Decoder version 20100323 (116.7)

XLD extraction logfile from 2010-04-13 16:25:14 +0600

Dire Straits / Brothers In Arms

Used drive : OPTIARC DVD RW AD-5670S (revision 2AHH)

Use cdparanoia mode : YES (CDParanoia III 10.2 engine)Disable audio cache : OK for the drive with cache less than 2750KBMake use of C2 pointers : NORead offset correction : 48Max retry count : 100

TOC of the extracted CD Track | Start | Length | Start sector | End sector --------------------------------------------------------- 1 | 00:00:32 | 05:11:73 | 32 | 23429 2 | 05:12:30 | 08:26:30 | 23430 | 61409 3 | 13:38:60 | 04:12:37 | 61410 | 80346 4 | 17:51:22 | 06:33:68 | 80347 | 109889 5 | 24:25:15 | 08:31:22 | 109890 | 148236 6 | 32:56:37 | 06:58:10 | 148237 | 179596 7 | 39:54:47 | 04:40:10 | 179597 | 200606 8 | 44:34:57 | 03:40:60 | 200607 | 217166 9 | 48:15:42 | 07:00:18 | 217167 | 248684

List of alternate offset correction values # | Absolute | Relative | Confidence ------------------------------------------ 1 | 725 | 677 | 112 2 | 1382 | 1334 | 103 3 | 715 | 667 | 87 4 | 2194 | 2146 | 59 5 | 2179 | 2131 | 24 6 | 1154 | 1106 | 10 7 | 918 | 870 | 7 8 | 740 | 692 | 4 9 | -598 | -646 | 4 10 | 1421 | 1373 | 3 11 | 659 | 611 | 3 12 | -17 | -65 | 2 13 | 634 | 586 | 2 14 | 1402 | 1354 | 2 15 | 726 | 678 | 2 16 | 71 | 23 | 2 17 | -628 | -676 | 2

Track 01 Filename : /Users/gubarenko/Desktop/Dire Straits - Brothers In Arms/01 - So Far Away.flac

Pre-gap length : 00:02:32

CRC32 hash (test run) : 822A9309 CRC32 hash : 822A9309 CRC32 hash (skip zero) : D8D03195 AccurateRip signature : 2E1ED027 ->Accurately ripped! (confidence 200) Statistics Read error : 0 Skipped (treated as error) : 0 Edge jitter error (maybe fixed) : 0 Atom jitter error (maybe fixed) : 0 Drift error (maybe fixed) : 0 Dropped bytes error (maybe fixed) : 0 Duplicated bytes error (maybe fixed) : 0 Inconsistency in error sectors : 0

Track 02 Filename : /Users/gubarenko/Desktop/Dire Straits - Brothers In Arms/02 - Money For Nothing.flac

Pre-gap length : 00:05:45

CRC32 hash (test run) : 215E2268 CRC32 hash : 215E2268 CRC32 hash (skip zero) : 3D129737 AccurateRip signature : 8427B487 ->Accurately ripped! (confidence 200) Statistics Read error : 0 Skipped (treated as error) : 0 Edge jitter error (maybe fixed) : 0 Atom jitter error (maybe fixed) : 0 Drift error (maybe fixed) : 0 Dropped bytes error (maybe fixed) : 0 Duplicated bytes error (maybe fixed) : 0 Inconsistency in error sectors : 0

Track 03 Filename : /Users/gubarenko/Desktop/Dire Straits - Brothers In Arms/03 - Walk Of Life.flac

Pre-gap length : 00:01:05

CRC32 hash (test run) : B9903DC3 CRC32 hash : B9903DC3 CRC32 hash (skip zero) : 7B14A8CE AccurateRip signature : 05EEF2EB ->Accurately ripped! (confidence 200) Statistics Read error : 0 Skipped (treated as error) : 0 Edge jitter error (maybe fixed) : 0 Atom jitter error (maybe fixed) : 0 Drift error (maybe fixed) : 0 Dropped bytes error (maybe fixed) : 0 Duplicated bytes error (maybe fixed) : 0 Inconsistency in error sectors : 0

Track 04 Filename : /Users/gubarenko/Desktop/Dire Straits - Brothers In Arms/04 - Your Latest Trick.flac

Pre-gap length : 00:03:45

CRC32 hash (test run) : 97EC4B08 CRC32 hash : 97EC4B08 CRC32 hash (skip zero) : 5B161A1F AccurateRip signature : 686F000C ->Accurately ripped! (confidence 200) Statistics Read error : 0 Skipped (treated as error) : 0 Edge jitter error (maybe fixed) : 0 Atom jitter error (maybe fixed) : 0 Drift error (maybe fixed) : 0 Dropped bytes error (maybe fixed) : 0 Duplicated bytes error (maybe fixed) : 0 Inconsistency in error sectors : 0

Track 05 Filename : /Users/gubarenko/Desktop/Dire Straits - Brothers In Arms/05 - Why Worry.flac

Pre-gap length : 00:04:18

CRC32 hash (test run) : FF31F5FB CRC32 hash : FF31F5FB CRC32 hash (skip zero) : ECCDFC51 AccurateRip signature : 21B08047 ->Accurately ripped! (confidence 200) Statistics Read error : 0 Skipped (treated as error) : 0 Edge jitter error (maybe fixed) : 0 Atom jitter error (maybe fixed) : 0 Drift error (maybe fixed) : 0 Dropped bytes error (maybe fixed) : 0 Duplicated bytes error (maybe fixed) : 0 Inconsistency in error sectors : 0

Track 06 Filename : /Users/gubarenko/Desktop/Dire Straits - Brothers In Arms/06 - Ride Across The River.flac

Pre-gap length : 00:06:35

CRC32 hash (test run) : FDAA6807 CRC32 hash : FDAA6807 CRC32 hash (skip zero) : 6EA4BA9A AccurateRip signature : 0EFEB60E ->Accurately ripped! (confidence 200) Statistics Read error : 0 Skipped (treated as error) : 0 Edge jitter error (maybe fixed) : 0 Atom jitter error (maybe fixed) : 0 Drift error (maybe fixed) : 0 Dropped bytes error (maybe fixed) : 0 Duplicated bytes error (maybe fixed) : 0 Inconsistency in error sectors : 0

Track 07 Filename : /Users/gubarenko/Desktop/Dire Straits - Brothers In Arms/07 - The Man's Too Strong.flac

CRC32 hash (test run) : AC82EB7E CRC32 hash : AC82EB7E CRC32 hash (skip zero) : 7E35787A AccurateRip signature : 241C61E3 ->Accurately ripped! (confidence 200) Statistics Read error : 0 Skipped (treated as error) : 0 Edge jitter error (maybe fixed) : 0 Atom jitter error (maybe fixed) : 0 Drift error (maybe fixed) : 0 Dropped bytes error (maybe fixed) : 0 Duplicated bytes error (maybe fixed) : 0 Inconsistency in error sectors : 0

Track 08 Filename : /Users/gubarenko/Desktop/Dire Straits - Brothers In Arms/08 - One World.flac

Pre-gap length : 00:01:32

CRC32 hash (test run) : FDAC62CB CRC32 hash : FDAC62CB CRC32 hash (skip zero) : DD9AB4B1 AccurateRip signature : F227EBD7 ->Accurately ripped! (confidence 200) Statistics Read error : 0 Skipped (treated as error) : 0 Edge jitter error (maybe fixed) : 0 Atom jitter error (maybe fixed) : 0 Drift error (maybe fixed) : 0 Dropped bytes error (maybe fixed) : 0 Duplicated bytes error (maybe fixed) : 0 Inconsistency in error sectors : 0

Track 09 Filename : /Users/gubarenko/Desktop/Dire Straits - Brothers In Arms/09 - Brothers In Arms.flac

Pre-gap length : 00:03:57

CRC32 hash (test run) : 805D62D6 CRC32 hash : 805D62D6 CRC32 hash (skip zero) : E51DD5DD AccurateRip signature : 1290C092 ->Accurately ripped! (confidence 200) Statistics Read error : 0 Skipped (treated as error) : 0 Edge jitter error (maybe fixed) : 0 Atom jitter error (maybe fixed) : 0 Drift error (maybe fixed) : 0 Dropped bytes error (maybe fixed) : 0 Duplicated bytes error (maybe fixed) : 0 Inconsistency in error sectors : 0

No errors occurred

End of status report
  
-----------------------

DON'T MODIFY THIS FILE

-----------------------

PERFORMER: auCDtect Task Manager, ver. 1.5.1RC6 build 1.5.1.7Copyright (c) 2008-2010 y-soft. All rights reservedhttp://y-soft.org

ANALYZER: auCDtect: CD records authenticity detector, version 0.8.2Copyright (c) 2004 Oleg Berngardt. All rights reserved.Copyright (c) 2004 Alexander Djourik. All rights reserved.

FILE: 09 Brothers In Arms.m4a Size: 40542561 Hash: 1E8054A317D4B3F5CBC125C4C562CE73 Accuracy: -m0 Conclusion: ??? Signature: A7EC560B56866CD1A860B2DDB41ED0D3A662AD76FILE: 08 One World.m4a Size: 26378320 Hash: D0833B543962937ED6F3551D4EE16572 Accuracy: -m0 Conclusion: CDDA 99% Signature: 3BFFEDFE030D7AED050B5F9080F5049E47FB33E7FILE: 07 The Man's Too Strong.m4a Size: 30966250 Hash: 151617E1A831DAC646C639AB3B4B600C Accuracy: -m0 Conclusion: CDDA 100% Signature: 28CC510F0FC517D7287DB2210219028A246DA0F8FILE: 06 Ride Across The River.m4a Size: 44387526 Hash: A1297B83C41D890C5A79BAC7453F6F41 Accuracy: -m0 Conclusion: CDDA 100% Signature: B79A108C76C26443D83879AA6E0D13D7954A5A2CFILE: 05 Why Worry.m4a Size: 45361010 Hash: E3903C118852C15CE5D4AA96B3BB2B61 Accuracy: -m0 Conclusion: CDDA 100% Signature: B552C92722FFF24418B771B6D52E0583B3AF87E8FILE: 04 Your Latest Trick.m4a Size: 42214891 Hash: F52067131CDAE5B41402CED3152BC9B5 Accuracy: -m0 Conclusion: CDDA 87% Signature: 6C9122E556BD49303479BE132C9597A0B4C90D4BFILE: 03 Walk Of Life.m4a Size: 31904093 Hash: 1BB85D9FB5C28A2EADF7BC7376EE1E57 Accuracy: -m0 Conclusion: CDDA 86% Signature: A0E4638032BFE92D828D28CDED5A2BF5CB5FBAF9FILE: 02 Money For Nothing.m4a Size: 58112797 Hash: 364AC12CB77664E0D924D0CC115C5CA5 Accuracy: -m0 Conclusion: CDDA 100% Signature: 358577381BA34FEDA4A0C14F677939FEE1769890FILE: 01 So Far Away.m4a Size: 37927231 Hash: 8E05EE6CEA250143EFFAC9F22C08F319 Accuracy: -m0 Conclusion: CDDA 99% Signature: 377904C47927A8FDEB3AF52B3CD9F9B35C4A6282
01 Calling Elvis (6:27)
02 On Every Street (5:04)
03 When It Comes To You (5:01)
04 Fade To Black (3:51)
05 The Bug (4:17)
06 You And Your Friend (5:59)
07 Heavy Fuel (5:11)
08 Iron Hand (3:10)
09 Ticket To Heaven (4:26)
10 My Parties (5:33)
11 Planet Of New Orleans (7:48)
12 How Long (3:50)
  
Exact Audio Copy V0.99 prebeta 4 from 23. January 2008

Отчёт EAC об извлечении, выполненном 12. марта 2009, 19:02

Dire Straits / On Every Street

Дисковод: HL-DT-STDVDRAM GSA-H62N Adapter: 4 ID: 0

Режим чтения : ДостоверностьИспользование точного потока : ДаОтключение кэша аудио : ДаИспользование указателей C2 : Нет

Коррекция смещения при чтении : 667Способность читать области Lead-in и Lead-out : НетЗаполнение пропущенных сэмплов тишиной : ДаУдаление блоков с тишиной в начале и конце : НетПри вычислениях CRC использовались нулевые сэмплы : ДаИнтерфейс : Встроенный Win32-интерфейс для Win NT/2000

Выходной формат : Внутренние WAV-операцииФормат сэмплов : 44.100 Гц; 16 бит; стерео

TOC извлечённого CD

Трек | Старт | Длительность | Начальный сектор | Конечный сектор --------------------------------------------------------------------- 1 | 0:00.00 | 6:26.43 | 0 | 28992 2 | 6:26.43 | 5:04.15 | 28993 | 51807 3 | 11:30.58 | 5:01.02 | 51808 | 74384 4 | 16:31.60 | 3:50.43 | 74385 | 91677 5 | 20:22.28 | 4:16.45 | 91678 | 110922 6 | 24:38.73 | 5:59.25 | 110923 | 137872 7 | 30:38.23 | 5:10.52 | 137873 | 161174 8 | 35:49.00 | 3:09.48 | 161175 | 175397 9 | 38:58.48 | 4:25.47 | 175398 | 195319 10 | 43:24.20 | 5:33.05 | 195320 | 220299 11 | 48:57.25 | 7:48.08 | 220300 | 255407 12 | 56:45.33 | 3:49.55 | 255408 | 272637

Характеристики диапазона извлечения и сообщения об ошибках

Выбранный диапазон

Имя файла F:\1991_Dire Straits - On Every Street\Dire Straits - On Every Street.wav

Пиковый уровень 99.4 % Качество диапазона 100.0 % CRC копии 56B25F97 Копирование... OK

Ошибок не произошло

Конец отчёта
  
fooCDtect - foobar2000 + auCDtect, baralgin.

auCDtect: CD records authenticity detector, version 0.8.2Copyright (c) 2004 Oleg Berngardt. All rights reserved.Copyright (c) 2004 Alexander Djourik. All rights reserved.

mode: 0

=========================================== Track: 01. Calling Elvis

Processing file: [01. Calling Elvis.aucdtect]Detected average hi-boundary frequency: 2.028446e+004 HzDetected average lo-boundary frequency: 1.382826e+004 Hz

Detected average hi-cut frequency: 2.178663e+004 HzDetected average lo-cut frequency: 1.420359e+004 HzMaximum probablis boundary frequency: 2.189100e+004 HzCoefficient of nonlinearity of a phase: 3.952932e-001First order smothness: 4.489007e-001Second order smothness: 6.274462e-001

------------------------------------------------------------This track looks like CDDA with probability 100%

=========================================== Track: 02. On Every Street

Processing file: [02. On Every Street.aucdtect]Detected average hi-boundary frequency: 2.023259e+004 HzDetected average lo-boundary frequency: 1.389849e+004 HzDetected average hi-cut frequency: 2.139571e+004 HzDetected average lo-cut frequency: 1.409054e+004 HzMaximum probablis boundary frequency: 2.189100e+004 HzCoefficient of nonlinearity of a phase: 5.650501e-001First order smothness: 3.659889e-001Second order smothness: 7.369070e-001

------------------------------------------------------------This track looks like CDDA with probability 100%

=========================================== Track: 03. When It Comes To You

Processing file: [03. When It Comes To You.aucdtect]Detected average hi-boundary frequency: 2.024830e+004 HzDetected average lo-boundary frequency: 1.399849e+004 HzDetected average hi-cut frequency: 2.182309e+004 HzDetected average lo-cut frequency: 1.267850e+004 HzMaximum probablis boundary frequency: 2.189100e+004 HzCoefficient of nonlinearity of a phase: 1.362031e-001First order smothness: 4.075109e-001Second order smothness: 5.453135e-001

------------------------------------------------------------This track looks like CDDA with probability 100%

=========================================== Track: 04. Fade To Black

Processing file: [04. Fade To Black.aucdtect]Detected average hi-boundary frequency: 2.011431e+004 HzDetected average lo-boundary frequency: 1.277403e+004 Hz

Detected average hi-cut frequency: 2.169160e+004 HzDetected average lo-cut frequency: 1.034814e+004 HzMaximum probablis boundary frequency: 2.189100e+004 HzCoefficient of nonlinearity of a phase: 4.309169e-001First order smothness: 3.389138e-001Second order smothness: 7.276439e-001

------------------------------------------------------------This track looks like CDDA with probability 99%

=========================================== Track: 05. The Bug

Processing file: [05. The Bug.aucdtect]Detected average hi-boundary frequency: 2.022209e+004 HzDetected average lo-boundary frequency: 1.374723e+004 HzDetected average hi-cut frequency: 2.177322e+004 HzDetected average lo-cut frequency: 1.013241e+004 HzMaximum probablis boundary frequency: 2.189100e+004 HzCoefficient of nonlinearity of a phase: 1.240572e-001First order smothness: 4.276844e-001Second order smothness: 4.349890e-001

------------------------------------------------------------This track looks like CDDA with probability 100%

=========================================== Track: 06. You And Your Friend

Processing file: [06. You And Your Friend.aucdtect]Detected average hi-boundary frequency: 2.052019e+004 HzDetected average lo-boundary frequency: 1.461447e+004 HzDetected average hi-cut frequency: 2.165950e+004 HzDetected average lo-cut frequency: 1.647297e+004 HzMaximum probablis boundary frequency: 2.189100e+004 HzCoefficient of nonlinearity of a phase: 4.230591e-001First order smothness: 4.608175e-001Second order smothness: 7.969279e-001

------------------------------------------------------------This track looks like CDDA with probability 100%

=========================================== Track: 07. Heavy Fuel

Processing file: [07. Heavy Fuel.aucdtect]Detected average hi-boundary frequency: 2.050487e+004 HzDetected average lo-boundary frequency: 1.437684e+004 HzDetected average hi-cut frequency: 2.181985e+004 HzDetected average lo-cut frequency: 1.803589e+004 HzMaximum probablis boundary frequency: 2.189100e+004 HzCoefficient of nonlinearity of a phase: 5.185696e-002First order smothness: 4.154908e-001Second order smothness: 6.418493e-001

------------------------------------------------------------This track looks like CDDA with probability 100%

=========================================== Track: 08. Iron Hand

Processing file: [08. Iron Hand.aucdtect]Detected average hi-boundary frequency: 2.030294e+004 HzDetected average lo-boundary frequency: 1.491138e+004 HzDetected average hi-cut frequency: 2.166623e+004 HzDetected average lo-cut frequency: 1.641692e+004 HzMaximum probablis boundary frequency: 2.189100e+004 HzCoefficient of nonlinearity of a phase: 8.719746e-001First order smothness: 4.616526e-001Second order smothness: 8.495794e-001

------------------------------------------------------------This track looks like CDDA with probability 100%

=========================================== Track: 09. Ticket To Heaven

Processing file: [09. Ticket To Heaven.aucdtect]Detected average hi-boundary frequency: 2.012396e+004 HzDetected average lo-boundary frequency: 1.388704e+004 HzDetected average hi-cut frequency: 2.175031e+004 HzDetected average lo-cut frequency: 1.035905e+004 HzMaximum probablis boundary frequency: 2.189100e+004 HzCoefficient of nonlinearity of a phase: 8.234564e-001First order smothness: 4.130282e-001Second order smothness: 5.323944e-001

------------------------------------------------------------This track looks like CDDA with probability 100%

=========================================== Track: 10. My Parties

Processing file: [10. My Parties.aucdtect]Detected average hi-boundary frequency: 2.021675e+004 HzDetected average lo-boundary frequency: 1.320597e+004 HzDetected average hi-cut frequency: 2.182547e+004 HzDetected average lo-cut frequency: 1.601228e+004 HzMaximum probablis boundary frequency: 2.157900e+004 HzCoefficient of nonlinearity of a phase: 5.344075e-001First order smothness: 3.983694e-001Second order smothness: 7.621591e-001

------------------------------------------------------------This track looks like CDDA with probability 100%

=========================================== Track: 11. Planet Of New Orleans

Processing file: [11. Planet Of New Orleans.aucdtect]Detected average hi-boundary frequency: 2.029430e+004 HzDetected average lo-boundary frequency: 1.402938e+004 HzDetected average hi-cut frequency: 2.149341e+004 HzDetected average lo-cut frequency: 1.302000e+004 HzMaximum probablis boundary frequency: 2.189100e+004 HzCoefficient of nonlinearity of a phase: 4.709919e-001First order smothness: 3.806477e-001Second order smothness: 6.891244e-001

------------------------------------------------------------This track looks like CDDA with probability 100%

=========================================== Track: 12. How Long

Processing file: [12. How Long.aucdtect]Detected average hi-boundary frequency: 2.010219e+004 HzDetected average lo-boundary frequency: 1.422096e+004 HzDetected average hi-cut frequency: 2.179393e+004 HzDetected average lo-cut frequency: 1.137308e+004 HzMaximum probablis boundary frequency: 2.189100e+004 HzCoefficient of nonlinearity of a phase: 5.928960e-001First order smothness: 4.244021e-001Second order smothness: 6.112687e-001

------------------------------------------------------------This track looks like CDDA with probability 100%

===========================================
01 Calling Elvis (10:25)
02 Walk Of Life (5:06)
03 Heavy Fuel (5:23)
04 Romeo And Juliet (10:06)
05 Private Investigations (9:43)
06 Your Latest Trick (5:35)
07 On Every Street (7:01)
08 You And Your Friend (6:48)
09 Money For Nothing (6:28)
10 Brothers In Arms (8:55)
  
Exact Audio Copy V0.99 prebeta 4 from 23. January 2008

Отчёт EAC об извлечении, выполненном 13. марта 2009, 12:08

Dire Straits / On The Night

Дисковод: HL-DT-STDVDRAM GSA-H62N Adapter: 4 ID: 0

Режим чтения : ДостоверностьИспользование точного потока : ДаОтключение кэша аудио : ДаИспользование указателей C2 : Нет

Коррекция смещения при чтении : 667Способность читать области Lead-in и Lead-out : НетЗаполнение пропущенных сэмплов тишиной : ДаУдаление блоков с тишиной в начале и конце : НетПри вычислениях CRC использовались нулевые сэмплы : ДаИнтерфейс : Встроенный Win32-интерфейс для Win NT/2000

Выходной формат : Внутренние WAV-операцииФормат сэмплов : 44.100 Гц; 16 бит; стерео

TOC извлечённого CD

Трек | Старт | Длительность | Начальный сектор | Конечный сектор --------------------------------------------------------------------- 1 | 0:00.00 | 10:25.25 | 0 | 46899 2 | 10:25.25 | 5:06.05 | 46900 | 69854 3 | 15:31.30 | 5:22.65 | 69855 | 94069 4 | 20:54.20 | 10:05.60 | 94070 | 139504 5 | 31:00.05 | 9:43.05 | 139505 | 183234 6 | 40:43.10 | 5:35.00 | 183235 | 208359 7 | 46:18.10 | 7:01.22 | 208360 | 239956 8 | 53:19.32 | 6:47.73 | 239957 | 270554 9 | 60:07.30 | 6:27.47 | 270555 | 299626 10 | 66:35.02 | 8:55.33 | 299627 | 339784

Характеристики диапазона извлечения и сообщения об ошибках

Выбранный диапазон

Имя файла F:\1993_Dire Straits - On The Night\Dire Straits - On The Night.wav

Пиковый уровень 98.8 % Качество диапазона 100.0 % CRC копии 04ED5929 Копирование... OK

Ошибок не произошло

Конец отчёта
  
fooCDtect - foobar2000 + auCDtect, baralgin.

auCDtect: CD records authenticity detector, version 0.8.2Copyright (c) 2004 Oleg Berngardt. All rights reserved.Copyright (c) 2004 Alexander Djourik. All rights reserved.

mode: 0

=========================================== Track: 01. Calling Elvis

Processing file: [01. Calling Elvis.aucdtect]Detected average hi-boundary frequency: 2.015812e+004 HzDetected average lo-boundary frequency: 1.318250e+004 Hz

Detected average hi-cut frequency: 2.169856e+004 HzDetected average lo-cut frequency: 1.159421e+004 HzMaximum probablis boundary frequency: 2.189100e+004 HzCoefficient of nonlinearity of a phase: 2.803250e-001First order smothness: 3.694845e-001Second order smothness: 5.326103e-001

------------------------------------------------------------This track looks like CDDA with probability 100%

=========================================== Track: 02. Walk Of Life

Processing file: [02. Walk Of Life.aucdtect]Detected average hi-boundary frequency: 2.021194e+004 HzDetected average lo-boundary frequency: 1.328604e+004 HzDetected average hi-cut frequency: 2.185399e+004 HzDetected average lo-cut frequency: 1.375946e+004 HzMaximum probablis boundary frequency: 2.189100e+004 HzCoefficient of nonlinearity of a phase: 3.900335e-001First order smothness: 3.510316e-001Second order smothness: 6.523058e-001

------------------------------------------------------------This track looks like CDDA with probability 100%

=========================================== Track: 03. Heavy Fuel

Processing file: [03. Heavy Fuel.aucdtect]Detected average hi-boundary frequency: 1.997153e+004 HzDetected average lo-boundary frequency: 1.239253e+004 HzDetected average hi-cut frequency: 2.129347e+004 HzDetected average lo-cut frequency: 1.652715e+004 HzMaximum probablis boundary frequency: 2.126700e+004 HzCoefficient of nonlinearity of a phase: 3.847853e-001First order smothness: 3.629566e-001Second order smothness: 6.028185e-001

------------------------------------------------------------This track looks like CDDA with probability 100%

=========================================== Track: 04. Romeo And Juliet

Processing file: [04. Romeo And Juliet.aucdtect]Detected average hi-boundary frequency: 2.179957e+004 HzDetected average lo-boundary frequency: 1.368061e+004 HzDetected average hi-cut frequency: 2.198935e+004 HzDetected average lo-cut frequency: 2.194312e+004 HzMaximum probablis boundary frequency: 2.189100e+004 HzCoefficient of nonlinearity of a phase: 7.240775e-001First order smothness: 3.440135e-001Second order smothness: 9.967806e-001

------------------------------------------------------------Could not qualify the source of this track.

=========================================== Track: 05. Private Investigations

Processing file: [05. Private Investigations.aucdtect]Detected average hi-boundary frequency: 2.009252e+004 HzDetected average lo-boundary frequency: 1.361554e+004 HzDetected average hi-cut frequency: 2.170728e+004 HzDetected average lo-cut frequency: 1.391419e+004 HzMaximum probablis boundary frequency: 2.189100e+004 HzCoefficient of nonlinearity of a phase: 3.067604e-001First order smothness: 3.700223e-001Second order smothness: 6.863651e-001

------------------------------------------------------------This track looks like CDDA with probability 100%

=========================================== Track: 06. Your Latest Trick

Processing file: [06. Your Latest Trick.aucdtect]Detected average hi-boundary frequency: 2.023708e+004 HzDetected average lo-boundary frequency: 1.346093e+004 HzDetected average hi-cut frequency: 2.184834e+004 HzDetected average lo-cut frequency: 1.252839e+004 HzMaximum probablis boundary frequency: 2.189100e+004 HzCoefficient of nonlinearity of a phase: 5.589042e-001First order smothness: 3.753812e-001Second order smothness: 6.609371e-001

------------------------------------------------------------This track looks like CDDA with probability 100%

=========================================== Track: 07. On Every Street

Processing file: [07. On Every Street.aucdtect]Detected average hi-boundary frequency: 2.012050e+004 HzDetected average lo-boundary frequency: 1.359176e+004 HzDetected average hi-cut frequency: 2.171327e+004 HzDetected average lo-cut frequency: 1.324903e+004 HzMaximum probablis boundary frequency: 2.189100e+004 HzCoefficient of nonlinearity of a phase: 3.552418e-001First order smothness: 3.339947e-001Second order smothness: 7.217813e-001

------------------------------------------------------------This track looks like CDDA with probability 100%

=========================================== Track: 08. You And Your Friend

Processing file: [08. You And Your Friend.aucdtect]Detected average hi-boundary frequency: 2.012052e+004 HzDetected average lo-boundary frequency: 1.357115e+004 HzDetected average hi-cut frequency: 2.175420e+004 HzDetected average lo-cut frequency: 1.178153e+004 HzMaximum probablis boundary frequency: 2.189100e+004 HzCoefficient of nonlinearity of a phase: 2.073626e-001First order smothness: 3.724107e-001Second order smothness: 6.683360e-001

------------------------------------------------------------This track looks like CDDA with probability 100%

=========================================== Track: 09. Money For Nothing

Processing file: [09. Money For Nothing.aucdtect]Detected average hi-boundary frequency: 2.012504e+004 HzDetected average lo-boundary frequency: 1.330323e+004 HzDetected average hi-cut frequency: 2.176036e+004 HzDetected average lo-cut frequency: 1.106367e+004 HzMaximum probablis boundary frequency: 2.189100e+004 HzCoefficient of nonlinearity of a phase: 5.138225e-001First order smothness: 3.663153e-001Second order smothness: 4.592717e-001

------------------------------------------------------------This track looks like CDDA with probability 99%

=========================================== Track: 10. Brothers In Arms

Processing file: [10. Brothers In Arms.aucdtect]Detected average hi-boundary frequency: 2.018527e+004 HzDetected average lo-boundary frequency: 1.379212e+004 HzDetected average hi-cut frequency: 2.175009e+004 HzDetected average lo-cut frequency: 1.363514e+004 HzMaximum probablis boundary frequency: 2.189100e+004 HzCoefficient of nonlinearity of a phase: 2.033717e-001First order smothness: 3.824397e-001Second order smothness: 7.065764e-001

------------------------------------------------------------This track looks like CDDA with probability 100%

===========================================
01 Down To The Waterline (4:10)
02 Six Blade Knife (3:48)
03 Water Of Love (5:29)
04 Wild West End (5:12)
05 Sultans Of Swing (6:39)
06 Lions (5:27)
07 What's The Matter Baby? (3:21)
08 Tunnel Of Love (11:56)
  
Exact Audio Copy V0.99 prebeta 4 from 23. January 2008

Отчёт EAC об извлечении, выполненном 12. марта 2009, 17:10

Dire Straits / Live At The BBC

Дисковод: HL-DT-STDVDRAM GSA-H62N Adapter: 4 ID: 0

Режим чтения : ДостоверностьИспользование точного потока : ДаОтключение кэша аудио : ДаИспользование указателей C2 : Нет

Коррекция смещения при чтении : 667Способность читать области Lead-in и Lead-out : НетЗаполнение пропущенных сэмплов тишиной : ДаУдаление блоков с тишиной в начале и конце : НетПри вычислениях CRC использовались нулевые сэмплы : ДаИнтерфейс : Встроенный Win32-интерфейс для Win NT/2000

Выходной формат : Внутренние WAV-операцииФормат сэмплов : 44.100 Гц; 16 бит; стерео

TOC извлечённого CD

Трек | Старт | Длительность | Начальный сектор | Конечный сектор --------------------------------------------------------------------- 1 | 0:00.00 | 4:10.08 | 0 | 18757 2 | 4:10.08 | 3:47.40 | 18758 | 35822 3 | 7:57.48 | 5:29.37 | 35823 | 60534 4 | 13:27.10 | 5:12.33 | 60535 | 83967 5 | 18:39.43 | 6:38.67 | 83968 | 113884 6 | 25:18.35 | 5:26.38 | 113885 | 138372 7 | 30:44.73 | 3:20.55 | 138373 | 153427 8 | 34:05.53 | 11:56.22 | 153428 | 207149

Характеристики диапазона извлечения и сообщения об ошибках

Выбранный диапазон

Имя файла F:\1995_Dire Straits - Live at the BBC\Dire Straits - Live At The BBC.wav

Пиковый уровень 100.0 % Качество диапазона 100.0 % CRC копии 9DA1B5DB Копирование... OK

Ошибок не произошло

Конец отчёта
  
fooCDtect - foobar2000 + auCDtect, baralgin.

auCDtect: CD records authenticity detector, version 0.8.2Copyright (c) 2004 Oleg Berngardt. All rights reserved.Copyright (c) 2004 Alexander Djourik. All rights reserved.

mode: 0

=========================================== Track: 01. Down To The Waterline

Processing file: [01. Down To The Waterline.aucdtect]Detected average hi-boundary frequency: 2.042251e+004 HzDetected average lo-boundary frequency: 1.501025e+004 HzDetected average hi-cut frequency: 2.134314e+004 HzDetected average lo-cut frequency: 1.220550e+004 HzMaximum probablis boundary frequency: 2.189100e+004 HzCoefficient of nonlinearity of a phase: 5.124304e-002First order smothness: 3.832960e-001Second order smothness: 5.346756e-001

------------------------------------------------------------This track looks like CDDA with probability 100%

=========================================== Track: 02. Six Blade Knife

Processing file: [02. Six Blade Knife.aucdtect]Detected average hi-boundary frequency: 2.048164e+004 HzDetected average lo-boundary frequency: 1.499767e+004 HzDetected average hi-cut frequency: 2.139586e+004 HzDetected average lo-cut frequency: 1.292378e+004 HzMaximum probablis boundary frequency: 2.189100e+004 HzCoefficient of nonlinearity of a phase: 6.371200e-002First order smothness: 4.257143e-001Second order smothness: 5.004082e-001

------------------------------------------------------------This track looks like CDDA with probability 100%

=========================================== Track: 03. Water Of Love

Processing file: [03. Water Of Love.aucdtect]Detected average hi-boundary frequency: 2.040183e+004 HzDetected average lo-boundary frequency: 1.440730e+004 Hz

Detected average hi-cut frequency: 2.140923e+004 HzDetected average lo-cut frequency: 1.128828e+004 HzMaximum probablis boundary frequency: 2.189100e+004 HzCoefficient of nonlinearity of a phase: 8.552785e-002First order smothness: 4.106539e-001Second order smothness: 5.419955e-001

------------------------------------------------------------This track looks like CDDA with probability 100%

=========================================== Track: 04. Wild West End

Processing file: [04. Wild West End.aucdtect]Detected average hi-boundary frequency: 2.038504e+004 HzDetected average lo-boundary frequency: 1.513861e+004 Hz

Detected average hi-cut frequency: 2.144819e+004 HzDetected average lo-cut frequency: 1.162572e+004 HzMaximum probablis boundary frequency: 2.189100e+004 HzCoefficient of nonlinearity of a phase: 5.932098e-002First order smothness: 4.131986e-001Second order smothness: 5.505351e-001

------------------------------------------------------------This track looks like CDDA with probability 100%

=========================================== Track: 05. Sultans Of Swing

Processing file: [05. Sultans Of Swing.aucdtect]Detected average hi-boundary frequency: 2.065262e+004 HzDetected average lo-boundary frequency: 1.607401e+004 HzDetected average hi-cut frequency: 2.144542e+004 HzDetected average lo-cut frequency: 1.355703e+004 HzMaximum probablis boundary frequency: 2.189100e+004 HzCoefficient of nonlinearity of a phase: 3.446987e-002First order smothness: 4.686845e-001Second order smothness: 4.519208e-001

------------------------------------------------------------This track looks like CDDA with probability 100%

=========================================== Track: 06. Lions

Processing file: [06. Lions.aucdtect]Detected average hi-boundary frequency: 2.055862e+004 HzDetected average lo-boundary frequency: 1.556035e+004 HzDetected average hi-cut frequency: 2.140170e+004 HzDetected average lo-cut frequency: 1.295383e+004 HzMaximum probablis boundary frequency: 2.189100e+004 HzCoefficient of nonlinearity of a phase: 6.061276e-002First order smothness: 4.286121e-001Second order smothness: 5.361206e-001

------------------------------------------------------------This track looks like CDDA with probability 99%

=========================================== Track: 07. What's The Matter Baby

Processing file: [07. What's The Matter Baby.aucdtect]Detected average hi-boundary frequency: 2.059772e+004 HzDetected average lo-boundary frequency: 1.585906e+004 HzDetected average hi-cut frequency: 2.134114e+004 HzDetected average lo-cut frequency: 1.386768e+004 HzMaximum probablis boundary frequency: 2.166000e+004 HzCoefficient of nonlinearity of a phase: 4.560423e-002First order smothness: 4.517032e-001Second order smothness: 4.372375e-001

------------------------------------------------------------This track looks like CDDA with probability 100%

=========================================== Track: 08. Tunnel Of Love

Processing file: [08. Tunnel Of Love.aucdtect]Detected average hi-boundary frequency: 2.035423e+004 HzDetected average lo-boundary frequency: 1.495205e+004 HzDetected average hi-cut frequency: 2.149004e+004 HzDetected average lo-cut frequency: 1.632882e+004 HzMaximum probablis boundary frequency: 2.149300e+004 HzCoefficient of nonlinearity of a phase: 1.939566e-001First order smothness: 4.688354e-001Second order smothness: 7.789200e-001

------------------------------------------------------------This track looks like CDDA with probability 100%

===========================================


Издание



Трекер:  [ 30-Июл-2012 13:51 ]

  

Скачать .torrent

Размер .torrent файла 44 KB


Размер: 3.14 GB
Хэш (hash) релиза: fa57f8d4ef78c169542c3e0d5bbe71b5f7556f2a

Еще никто не оставлял запись к записи скачать торрент Дискография Dire Straits . Будь первым!

!Обратная связь