..."/> ...">

Скачать через торрент музыку Umphreys McGee - Mantis бесплатно без регистрации torrent

Если у вас наблюдаются проблемы со скриншотами, переходом по ссылками, скачиванием торрентов - проблемы в блокировщике рекламы AdBlock. #хорошегоДня!


Статистика раздачи
Размер:  1.12 GB   |    Зарегистрирован:  5 лет 4 месяца   |    .torrent скачан:  7 раз   |   
Раздают:  1  
   
Загрузка...
 
Автор Сообщение

Galfimbul

avatar Galfimbul


Umphrey's McGee / Mantis (2CD)

Жанр: Prog/Jam
Страна-производитель диска: USA
Год издания: 2009
Издатель (лейбл): freeworld
Номер по каталогу: FREECD5013
Страна: USA
Аудиокодек: WavPack (*.wv)
Тип рипа: iso.wv
Битрейт аудио: lossless
Продолжительность: 54:04+72:35
Источник (релизер): tatuk (из личного шкафчика)
Наличие сканов в содержимом раздачи: да

Доп. информация: Предлагаю добрякам двухдисковый вариант "Mantis" в дополнение к раздающемуся добряком erro однодисковому. Добавлено 6 концертных композиций, и три песни перепечатаны с предыдущих студиек (правда, непонятно зачем).
Очень люблю этот диск. Самый, наверное, ругаемый (потому как краеугольный) среди всех. Ибо чикагские хлопцы от трёхминутных radio-ready студийных композиций предыдущих дисков вдруг неожиданно пошли по извилистой дороге прог-заумных мелодий... Ну кто ж такое стерпит???
Треклист:
1. Made to Measure 3:12
2. Preamble 0:36
3. Mantis 11:49
4. Cemetery Walk 7:30
5. Cemetery Walk II 2:19
6. Turn & Run 7:25
7. Spires 7:41
8. Prophecy Now 2:47
9. Red Tape 5:43
10. 1348 4:49
  
Exact Audio Copy V1.0 beta 3 from 29. August 2011

EAC extraction logfile from 7. June 2012, 9:00

Umphrey's McGee / Mantis

Used drive : SONY DVD RW DRU-830A Adapter: 1 ID: 0

Read mode : SecureUtilize accurate stream : YesDefeat audio cache : YesMake use of C2 pointers : No

Read offset correction : 6Overread into Lead-In and Lead-Out : NoFill up missing offset samples with silence : YesDelete leading and trailing silent blocks : NoNull samples used in CRC calculations : YesUsed interface : Native Win32 interface for Win NT & 2000

Used output format : User Defined EncoderSelected bitrate : 768 kBit/sQuality : HighAdd ID3 tag : NoCommand line compressor : C:\Program Files (x86)\Exact Audio Copy\wavpack\wavpack.exeAdditional command line options : -hlm %source%

TOC of the extracted CD

Track | Start | Length | Start sector | End sector --------------------------------------------------------- 1 | 0:00.00 | 3:14.56 | 0 | 14605 2 | 3:14.56 | 0:36.33 | 14606 | 17338 3 | 3:51.14 | 11:51.28 | 17339 | 70691 4 | 15:42.42 | 7:30.42 | 70692 | 104483 5 | 23:13.09 | 2:21.74 | 104484 | 115132 6 | 25:35.08 | 7:28.09 | 115133 | 148741 7 | 33:03.17 | 7:42.02 | 148742 | 183393 8 | 40:45.19 | 2:48.03 | 183394 | 195996 9 | 43:33.22 | 5:43.17 | 195997 | 221738 10 | 49:16.39 | 4:50.61 | 221739 | 243549

Range status and errors

Selected range

Filename D:\_NL+_by_TATUK\Umphrey's McGee - Mantis.wav

Peak level 100.0 % Extraction speed 7.0 X Range quality 99.9 % Copy CRC 15C22EFC Copy OK

No errors occurred

AccurateRip summary

Track 1 cannot be verified as accurate (confidence 27) [A450EDF8], AccurateRip returned [E771A2F2] (AR v2)Track 2 cannot be verified as accurate (confidence 28) [2F5EDF0F], AccurateRip returned [5F1B129C] (AR v2)Track 3 cannot be verified as accurate (confidence 27) [977A9518], AccurateRip returned [0C449BF7] (AR v2)Track 4 cannot be verified as accurate (confidence 27) [CD2CFFE9], AccurateRip returned [F5C20A0C] (AR v2)Track 5 cannot be verified as accurate (confidence 27) [C4499765], AccurateRip returned [959E9F26] (AR v2)Track 6 cannot be verified as accurate (confidence 28) [1B678211], AccurateRip returned [5FB95AA3] (AR v2)Track 7 cannot be verified as accurate (confidence 27) [88C968F7], AccurateRip returned [BCBCE7AA] (AR v2)Track 8 cannot be verified as accurate (confidence 27) [B37776AD], AccurateRip returned [C08FAF8A] (AR v2)Track 9 cannot be verified as accurate (confidence 27) [93BE8D5E], AccurateRip returned [BEED9121] (AR v2)Track 10 cannot be verified as accurate (confidence 28) [8A6EFB5D], AccurateRip returned [AB2C1CAE] (AR v2)

No tracks could be verified as accurateYou may have a different pressing from the one(s) in the database

End of status report

==== Log checksum 62025B3A80D567597D90CD52010B3F91FB3A2DABD05DF8445A0A599F2B0E7AC9 ====
  
REM GENRE "Progressive Rock"REM DATE 2009REM DISCID 9B0CAF0AREM COMMENT "ExactAudioCopy v1.0b3"PERFORMER "Umphrey's McGee"TITLE "Mantis"FILE "Umphrey's McGee - Mantis 2009.wv" WAVE TRACK 01 AUDIO TITLE "Made To Measure" PERFORMER "Umphrey's McGee" INDEX 01 00:00:00 TRACK 02 AUDIO TITLE "Preamble" PERFORMER "Umphrey's McGee" INDEX 00 03:13:37 INDEX 01 03:14:56 TRACK 03 AUDIO TITLE "Mantis" PERFORMER "Umphrey's McGee" INDEX 01 03:51:14 TRACK 04 AUDIO TITLE "Cemetery Walk" PERFORMER "Umphrey's McGee" INDEX 00 15:40:38 INDEX 01 15:42:42 TRACK 05 AUDIO TITLE "Cemetery Walk II" PERFORMER "Umphrey's McGee" INDEX 01 23:13:09 TRACK 06 AUDIO TITLE "Turn & Run" PERFORMER "Umphrey's McGee" INDEX 00 25:31:52 INDEX 01 25:35:08 TRACK 07 AUDIO TITLE "Spires" PERFORMER "Umphrey's McGee" INDEX 00 33:00:24 INDEX 01 33:03:17 TRACK 08 AUDIO TITLE "Prophecy Now" PERFORMER "Umphrey's McGee" INDEX 00 40:44:35 INDEX 01 40:45:19 TRACK 09 AUDIO TITLE "Red Tape" PERFORMER "Umphrey's McGee" INDEX 00 43:32:25 INDEX 01 43:33:22 TRACK 10 AUDIO TITLE "1348" PERFORMER "Umphrey's McGee" INDEX 01 49:16:39
  
-----------------------

DON'T MODIFY THIS FILE

-----------------------

PERFORMER: auCDtect Task Manager, ver. 1.5.1RC3 build 1.5.1.4Copyright (c) 2008-2010 y-soft. All rights reservedhttp://y-soft.org

ANALYZER: auCDtect: CD records authenticity detector, version 0.8.2Copyright (c) 2004 Oleg Berngardt. All rights reserved.Copyright (c) 2004 Alexander Djourik. All rights reserved.

FILE: Umphrey's McGee - Mantis 2009.wv Size: 372664260 Hash: 5079F6504E3EF76E0808E0ED908DD2B4 Accuracy: -m0 Conclusion: CDDA 100% Signature: 1C2A48BD39671B86AE71E781CDA872FA29DE551F
freeworld FREECD5013.sig
cd.jpg
back.jpg
Umphrey's McGee - Mantis 2009.log
Umphrey's McGee - Mantis 2009.wv
Umphrey's McGee - Mantis 2009.wv.cue
front.jpg
checkers\matrix.jpg
checkers\spectral.jpg
checkers\Umphrey's McGee - Mantis 2009.accurip
checkers\Umphrey's McGee - Mantis 2009.wv.auCDtect.txt
checkers\wave.jpg
checkers\EAC.jpg
misc\info.txt
readme\[RUS] README No unpacking needed to play or burn this release.txt
readme\[ENG] README No unpacking needed to play or burn this release.txt
scans\back.png
scans\booklet1-8.png
scans\booklet2-3.png
scans\booklet4-5.png
scans\booklet6-7.png
scans\cd.png
scans\inlay.png
Треклист:
FROM "LIVE AT THE MURAT", INDIANAPOLIS, IN, APRIL 6 & 7. 2007
01 HIGGINS
02 PUSH THE PIG
03 OUT OF ORDER
04 EAT

FROM "SAFETY IN NUMBERS" STUDIO RELEASE
05 WORDS
06 OCEAN BILLY

FROM "ANCHOR DROPS" STUDIO RELEASE
07 PLUNGER

LIVE FROM THE BARRYMORE THEATER, MADISON, WI, FEBRUARY 15,2009
08 BRIDGELESS
09 PROPHECY NOW
10 BRIDGELESS
  
Exact Audio Copy V1.0 beta 3 from 29. August 2011

EAC extraction logfile from 7. June 2012, 9:22

Umphreys McGee / Mantis CD2

Used drive : SONY DVD RW DRU-830A Adapter: 1 ID: 0

Read mode : SecureUtilize accurate stream : YesDefeat audio cache : YesMake use of C2 pointers : No

Read offset correction : 6Overread into Lead-In and Lead-Out : NoFill up missing offset samples with silence : YesDelete leading and trailing silent blocks : NoNull samples used in CRC calculations : YesUsed interface : Native Win32 interface for Win NT & 2000

Used output format : User Defined EncoderSelected bitrate : 768 kBit/sQuality : HighAdd ID3 tag : NoCommand line compressor : C:\Program Files (x86)\Exact Audio Copy\wavpack\wavpack.exeAdditional command line options : -hlm %source%

TOC of the extracted CD

Track | Start | Length | Start sector | End sector --------------------------------------------------------- 1 | 0:00.00 | 9:19.52 | 0 | 41976 2 | 9:19.52 | 10:58.19 | 41977 | 91345 3 | 20:17.71 | 9:00.29 | 91346 | 131874 4 | 29:18.25 | 4:33.60 | 131875 | 152409 5 | 33:52.10 | 7:10.12 | 152410 | 184671 6 | 41:02.22 | 6:39.15 | 184672 | 214611 7 | 47:41.37 | 6:03.64 | 214612 | 241900 8 | 53:45.26 | 10:31.38 | 241901 | 289263 9 | 64:16.64 | 1:43.61 | 289264 | 297049 10 | 66:00.50 | 6:34.31 | 297050 | 326630

Range status and errors

Selected range

Filename D:\_NL+_by_TATUK\Umphreys McGee - Mantis CD2.wav

Peak level 100.0 % Extraction speed 7.8 X Range quality 100.0 % Copy CRC 5D4B63DA Copy OK

No errors occurred

AccurateRip summary

Track 1 not present in databaseTrack 2 not present in databaseTrack 3 not present in databaseTrack 4 not present in databaseTrack 5 not present in databaseTrack 6 not present in databaseTrack 7 not present in databaseTrack 8 not present in databaseTrack 9 not present in databaseTrack 10 not present in database

None of the tracks are present in the AccurateRip database

End of status report

==== Log checksum 3E5F4D6CB0C371DA27744602CA4865388B5200F82DC22D36AC8B40E274CD3981 ====
  
REM GENRE "Progressive Rock"REM DATE 2009REM DISCID 8F11030AREM COMMENT "ExactAudioCopy v1.0b3"PERFORMER "Umphrey's McGee"TITLE "Mantis CD2"FILE "Umphrey's McGee - Mantis CD2 2009.wv" WAVE TRACK 01 AUDIO TITLE "Higgins Live" PERFORMER "Umphrey's McGee" FLAGS DCP INDEX 01 00:00:00 TRACK 02 AUDIO TITLE "Push The Pig Live" PERFORMER "Umphrey's McGee" FLAGS DCP INDEX 00 09:17:52 INDEX 01 09:19:52 TRACK 03 AUDIO TITLE "Out Of Order Live" PERFORMER "Umphrey's McGee" FLAGS DCP INDEX 01 20:17:71 TRACK 04 AUDIO TITLE "Eat Live" PERFORMER "Umphrey's McGee" FLAGS DCP INDEX 00 29:16:25 INDEX 01 29:18:25 TRACK 05 AUDIO TITLE "Words" PERFORMER "Umphrey's McGee" FLAGS DCP INDEX 00 33:50:10 INDEX 01 33:52:10 TRACK 06 AUDIO TITLE "Ocean Billy" PERFORMER "Umphrey's McGee" FLAGS DCP INDEX 00 41:00:22 INDEX 01 41:02:22 TRACK 07 AUDIO TITLE "Plunger" PERFORMER "Umphrey's McGee" FLAGS DCP INDEX 00 47:39:37 INDEX 01 47:41:37 TRACK 08 AUDIO TITLE "Bridgeless Live" PERFORMER "Umphrey's McGee" FLAGS DCP INDEX 00 53:43:26 INDEX 01 53:45:26 TRACK 09 AUDIO TITLE "Prophecy Now Live" PERFORMER "Umphrey's McGee" FLAGS DCP INDEX 01 64:16:64 TRACK 10 AUDIO TITLE "Bridgeless Live" PERFORMER "Umphrey's McGee" FLAGS DCP INDEX 01 66:00:50
  
-----------------------

DON'T MODIFY THIS FILE

-----------------------

PERFORMER: auCDtect Task Manager, ver. 1.5.1RC3 build 1.5.1.4Copyright (c) 2008-2010 y-soft. All rights reservedhttp://y-soft.org

ANALYZER: auCDtect: CD records authenticity detector, version 0.8.2Copyright (c) 2004 Oleg Berngardt. All rights reserved.Copyright (c) 2004 Alexander Djourik. All rights reserved.

FILE: Umphrey's McGee - Mantis CD2 2009.wv Size: 461792962 Hash: AD132D42F88B0868FCC27674D5BD4CF3 Accuracy: -m0 Conclusion: CDDA 100% Signature: BC6FA6769909DF9308DF5E78A9AE9CD7EDF381F8
freeworld FREECD5013.sig
cd.jpg
back.jpg
Umphrey's McGee - Mantis CD2 2009.log
Umphrey's McGee - Mantis CD2 2009.wv
Umphrey's McGee - Mantis CD2 2009.wv.cue
front.jpg
checkers\matrix.jpg
checkers\spectral.jpg
checkers\Umphrey's McGee - Mantis CD2 2009.accurip
checkers\Umphrey's McGee - Mantis CD2 2009.wv.auCDtect.txt
checkers\wave.jpg
checkers\EAC.jpg
misc\info.txt
readme\[RUS] README No unpacking needed to play or burn this release.txt
readme\[ENG] README No unpacking needed to play or burn this release.txt
scans\back.png
scans\booklet1-8.png
scans\booklet2-3.png
scans\booklet4-5.png
scans\booklet6-7.png
scans\cd.png
scans\inlay.png
- Brendan Bayliss / guitar, vocals
- Jake Cinninger / guitar, keyboards, vocals
- Joel Cummins / keyboards, vocals
- Andy Farag / percussion
- Kris Meyers / drums, vocals
- Ryan Stasik / bass


Трекер:  [ 19-Июл-2012 17:15 ]

  

Скачать .torrent

Размер .torrent файла 3 KB


Размер: 1.12 GB
Хэш (hash) релиза: 041118d3f1aae583a46653ddeb9d244c4a1b49a1

Еще никто не оставлял запись к записи скачать торрент Umphreys McGee - Mantis . Будь первым!

!Обратная связь