Скачать через торрент VA - Инструментальные шедевры. Музыка русского кино - 2012 бесплатно русская версия torrent активатор

Если у вас наблюдаются проблемы со скриншотами, переходом по ссылками, скачиванием торрентов - проблемы в блокировщике рекламы AdBlock. #хорошегоДня!


Статистика раздачи
Размер:  505 MB   |    Зарегистрирован:  5 лет 2 месяца   |    .torrent скачан:  68 раз   |   
Раздают:  1  
   
Загрузка...
 
Автор Сообщение

Galfimbul

avatar Galfimbul


VA - Инструментальные шедевры. Музыка русского кино

Год: 2012
Страна: Беларусь
Страна-производитель диска: Беларусь
Жанр: Soundtrack
Тип издания: сборник
Издатель (лейбл): ВИГМА
Номер по каталогу: 3732
Наличие сканов в содержимом раздачи: да
Продолжительность: 01:03:06
Тексты: не требуются
Кодек: ALAC
Программа-риповщик : foobar2000 + iTunes (lossless)
Битрейт: lossless
Треклист:
01. М.Таривердиев - Воспоминание (Семнадцать мгновений весны)
02. А.Петров - Вальс (Берегись автомобиля)
03. А.Петров - Дождь (Служебный роман)
04. М.Таривердиев - На третьей улице Строителей (Ирония судьбы, или с лёгким паром!)
05. С.Никитин - Инструментальная тема (Москва слезам не верит)
06. В.Дашкевич - Увертюра (Приключения Шерлока Холмса и доктора Ватсона)
07. А.Петров - Румба (Человек-амфибия)
08. В.Лебедев - Танго (Зависть богов)
09. А.Флярковский - Лимба (Ещё раз про любовь)
10. А.Зацепин - На танцевальной площадке (Кавказская пленница)
11. А.Зацепин - Дорога (Кавказская пленница)
12. А.Зацепин - Погоня (Иван Васильевич меняет профессию)
13. Б.Мокроусов - Погоня (Неуловимые мстители)
14. Г.Гладков - Джентльмены удачи (Джентльмены удачи)
15. Е.Геворкян - Инструментальная тема (Пираты ХХ века)
16. А.Зацепин - Лето прошло (Бриллиантовая рука)
17. Г.Гладков - Инструментальная тема (Формула любви)
18. А.Петров - Поезд (Белый Бим чёрное ухо)
19. Е.Крылатов - Талисман (Конец императора тайги)
20. А.Пахмутова - Нежность (Три тополя на Плющихе)
21. Г.Гладков - Инструментальная тема (Обыкновенное чудо)
22. Е.Крылатов - Инструментальная тема (С любимыми не расставайтесь!)
23. Е.Дога, В.Зубков - Дорога (Табор уходит в небо)
  
Exact Audio Copy V0.99 prebeta 5 from 4. May 2009

Отчёт EAC об извлечении, выполненном 16. июля 2012, 13:43

Various / Инструментальные шедевры. Музыка русского кино

Дисковод: _NEC DVD_RW ND-3550A Adapter: 0 ID: 0

Режим чтения : ДостоверностьИспользование точного потока : ДаОтключение кэша аудио : ДаИспользование указателей C2 : Нет

Коррекция смещения при чтении : 48Способность читать области Lead-in и Lead-out : НетЗаполнение пропущенных сэмплов тишиной : ДаУдаление блоков с тишиной в начале и конце : НетПри вычислениях CRC использовались нулевые сэмплы : ДаИнтерфейс : Установленный внешний ASPI-интерфейс

Выходной формат : Внутренние WAV-операцииФормат сэмплов : 44.100 Гц; 16 бит; стерео

TOC извлечённого CD

Трек | Старт | Длительность | Начальный сектор | Конечный сектор --------------------------------------------------------------------- 1 | 0:00.00 | 4:26.36 | 0 | 19985 2 | 4:26.36 | 3:57.64 | 19986 | 37824 3 | 8:24.25 | 2:54.09 | 37825 | 50883 4 | 11:18.34 | 1:14.69 | 50884 | 56502 5 | 12:33.28 | 3:08.63 | 56503 | 70665 6 | 15:42.16 | 2:07.51 | 70666 | 80241 7 | 17:49.67 | 3:02.36 | 80242 | 93927 8 | 20:52.28 | 4:35.66 | 93928 | 114618 9 | 25:28.19 | 2:22.72 | 114619 | 125340 10 | 27:51.16 | 2:49.42 | 125341 | 138057 11 | 30:40.58 | 2:02.30 | 138058 | 147237 12 | 32:43.13 | 1:43.18 | 147238 | 154980 13 | 34:26.31 | 3:10.27 | 154981 | 169257 14 | 37:36.58 | 1:20.25 | 169258 | 175282 15 | 38:57.08 | 3:18.37 | 175283 | 190169 16 | 42:15.45 | 2:24.46 | 190170 | 201015 17 | 44:40.16 | 2:57.15 | 201016 | 214305 18 | 47:37.31 | 3:27.13 | 214306 | 229843 19 | 51:04.44 | 1:49.27 | 229844 | 238045 20 | 52:53.71 | 3:21.47 | 238046 | 253167 21 | 56:15.43 | 1:32.57 | 253168 | 260124 22 | 57:48.25 | 1:33.54 | 260125 | 267153 23 | 59:22.04 | 3:44.19 | 267154 | 283972

Характеристики диапазона извлечения и сообщения об ошибках

Выбранный диапазон

Имя файла F:\Music lossless\Various - Инструментальные шедевры. Музыка русского кино.wav

Пиковый уровень 97.7 % Качество диапазона 100.0 % CRC теста 614D15E4 CRC копии 614D15E4 Копирование... OK

Ошибок не произошло

AccurateRip: сводка

Трек 1 нет в базе данныхТрек 2 нет в базе данныхТрек 3 нет в базе данныхТрек 4 нет в базе данныхТрек 5 нет в базе данныхТрек 6 нет в базе данныхТрек 7 нет в базе данныхТрек 8 нет в базе данныхТрек 9 нет в базе данныхТрек 10 нет в базе данныхТрек 11 нет в базе данныхТрек 12 нет в базе данныхТрек 13 нет в базе данныхТрек 14 нет в базе данныхТрек 15 нет в базе данныхТрек 16 нет в базе данныхТрек 17 нет в базе данныхТрек 18 нет в базе данныхТрек 19 нет в базе данныхТрек 20 нет в базе данныхТрек 21 нет в базе данныхТрек 22 нет в базе данныхТрек 23 нет в базе данных

Ни одного трека нет в базе AccurateRip

Конец отчёта
  
Started at: среда, 18. 07. 2012. - 11:09.121 file found

1 -===- F:\Music lossless\Инструментальные шедевры. Музыка русского кино lossless\Various - Инструментальные шедевры. Музыка русского кино.flac Extracted successfully Conclusion: this track is CDDA with probability 100% Tempfile successfully deleted.

Finished at: среда, 18. 07. 2012. - 11:13.33 (operation time: 0:04.21)


Трекер:  [ 30-Июл-2012 13:51 ]

  

Скачать .torrent

Размер .torrent файла 22 KB


Размер: 505 MB
Хэш (hash) релиза: 3f8c6d8ead9f1427ff642844a64ef3e4b9e3c233

Еще никто не оставлял запись к записи скачать торрент VA - Инструментальные шедевры. Музыка русского кино - 2012 . Будь первым!

!Обратная связь