Скачать через торрент Field Music Plumb - 2012 ALAC, lossless бесплатно русская версия torrent активатор

Если у вас наблюдаются проблемы со скриншотами, переходом по ссылками, скачиванием торрентов - проблемы в блокировщике рекламы AdBlock. #хорошегоДня!


Статистика раздачи
Размер:  220 MB   |    Зарегистрирован:  5 лет 2 месяца   |    .torrent скачан:  46 раз   |   
Раздают:  1  
   
Загрузка...
 
Автор Сообщение

Galfimbul

avatar Galfimbul


Field Music / Plumb

Год: 2012
Страна: UK
Жанр: Indie Rock
Продолжительность: 35:39
Тексты: отсутствуют
Кодек: ALAC
Программа-риповщик : foobar2000 + iTunes (lossless)
Битрейт: lossless
Треклист:
01 Start The Day Right 2:19
02 It's Okay To Change 0:59
03 Sorry Again, Mate 2:08
04 A New Town 3:59
05 Choosing Sides 3:12
06 A Prelude To Pilgrim Street 1:48
07 Guillotine 3:13
08 Who'll Pay The Bills? 2:21
09 So Long Then 2:06
10 Is This The Picture? 2:41
11 From Hide And Seek To Heartache 2:50
12 How Many More Times? 0:41
13 Ce Soir 1:14
14 Just Like Everyone Else 3:01
15 (I Keep Thinking About) A New Thing 3:16
  
Exact Audio Copy V1.0 beta 3 from 29. August 2011

EAC extraction logfile from 13. February 2012, 22:31

Field Music / Plumb

Used drive : PIONEER DVD-RW DVR-217F Adapter: 2 ID: 1

Read mode : SecureUtilize accurate stream : YesDefeat audio cache : YesMake use of C2 pointers : No

Read offset correction : 96Overread into Lead-In and Lead-Out : NoFill up missing offset samples with silence : YesDelete leading and trailing silent blocks : NoNull samples used in CRC calculations : YesUsed interface : Native Win32 interface for Win NT & 2000Gap handling : Appended to previous track

Used output format : User Defined EncoderSelected bitrate : 1024 kBit/sQuality : HighAdd ID3 tag : NoCommand line compressor : C:\Program Files (x86)\FLAC\flac.exeAdditional command line options : -8 -V -T "ARTIST=%artist%" -T "TITLE=%title%" -T "ALBUM=%albumtitle%" -T "DATE=%year%" -T "TRACKNUMBER=%tracknr%" -T "GENRE=%genre%" -T "PERFORMER=%albuminterpret%" -T "COMPOSER=%composer%" %haslyrics%--tag-from-file=LYRICS="%lyricsfile%"%haslyrics% -T "ALBUMARTIST=%albumartist%" -T "DISCNUMBER=%cdnumber%" -T "TOTALDISCS=%totalcds%" -T "TOTALTRACKS=%numtracks%" -T "COMMENT=%comment%" %source% -o %dest%

TOC of the extracted CD

Track | Start | Length | Start sector | End sector --------------------------------------------------------- 1 | 0:00.00 | 2:18.65 | 0 | 10414 2 | 2:18.65 | 0:58.58 | 10415 | 14822 3 | 3:17.48 | 2:08.03 | 14823 | 24425 4 | 5:25.51 | 3:58.48 | 24426 | 42323 5 | 9:24.24 | 3:12.09 | 42324 | 56732 6 | 12:36.33 | 1:48.27 | 56733 | 64859 7 | 14:24.60 | 3:12.61 | 64860 | 79320 8 | 17:37.46 | 2:20.41 | 79321 | 89861 9 | 19:58.12 | 2:06.14 | 89862 | 99325 10 | 22:04.26 | 2:41.29 | 99326 | 111429 11 | 24:45.55 | 2:49.71 | 111430 | 124175 12 | 27:35.51 | 0:40.62 | 124176 | 127237 13 | 28:16.38 | 1:13.53 | 127238 | 132765 14 | 29:30.16 | 3:00.48 | 132766 | 146313 15 | 32:30.64 | 3:16.31 | 146314 | 161044

Track 1

Filename C:\Users\Gerard\Desktop\Field Music - Plumb (2012) [FLAC]\01 - Start The Day Right.wav

Pre-gap length 0:00:02.00

Peak level 96.6 % Extraction speed 4.0 X Track quality 100.0 % Test CRC 28906EA9 Copy CRC 28906EA9 Track not present in AccurateRip database Copy OK

Track 2

Filename C:\Users\Gerard\Desktop\Field Music - Plumb (2012) [FLAC]\02 - It's Okay To Change.wav

Peak level 98.5 % Extraction speed 2.3 X Track quality 99.8 % Test CRC C09139B6 Copy CRC C09139B6 Track not present in AccurateRip database Copy OK

Track 3

Filename C:\Users\Gerard\Desktop\Field Music - Plumb (2012) [FLAC]\03 - Sorry Again, Mate.wav

Peak level 96.7 % Extraction speed 4.2 X Track quality 100.0 % Test CRC 6EE4CB82 Copy CRC 6EE4CB82 Track not present in AccurateRip database Copy OK

Track 4

Filename C:\Users\Gerard\Desktop\Field Music - Plumb (2012) [FLAC]\04 - A New Town.wav

Peak level 97.4 % Extraction speed 5.1 X Track quality 100.0 % Test CRC 9B52D588 Copy CRC 9B52D588 Track not present in AccurateRip database Copy OK

Track 5

Filename C:\Users\Gerard\Desktop\Field Music - Plumb (2012) [FLAC]\05 - Choosing Sides.wav

Peak level 97.1 % Extraction speed 5.3 X Track quality 100.0 % Test CRC 7F8DA937 Copy CRC 7F8DA937 Track not present in AccurateRip database Copy OK

Track 6

Filename C:\Users\Gerard\Desktop\Field Music - Plumb (2012) [FLAC]\06 - A Prelude To Pilgrim Street.wav

Peak level 96.1 % Extraction speed 4.8 X Track quality 100.0 % Test CRC 2B57CA95 Copy CRC 2B57CA95 Track not present in AccurateRip database Copy OK

Track 7

Filename C:\Users\Gerard\Desktop\Field Music - Plumb (2012) [FLAC]\07 - Guillotine.wav

Peak level 96.5 % Extraction speed 5.7 X Track quality 100.0 % Test CRC F975E2F4 Copy CRC F975E2F4 Track not present in AccurateRip database Copy OK

Track 8

Filename C:\Users\Gerard\Desktop\Field Music - Plumb (2012) [FLAC]\08 - Who'll Pay The Bills.wav

Pre-gap length 0:00:01.01

Peak level 97.2 % Extraction speed 5.5 X Track quality 100.0 % Test CRC 471E030A Copy CRC 471E030A Track not present in AccurateRip database Copy OK

Track 9

Filename C:\Users\Gerard\Desktop\Field Music - Plumb (2012) [FLAC]\09 - So Long Then.wav

Peak level 95.9 % Extraction speed 5.6 X Track quality 100.0 % Test CRC EF2373A5 Copy CRC EF2373A5 Track not present in AccurateRip database Copy OK

Track 10

Filename C:\Users\Gerard\Desktop\Field Music - Plumb (2012) [FLAC]\10 - Is This The Picture.wav

Peak level 97.5 % Extraction speed 6.0 X Track quality 100.0 % Test CRC CB781B0A Copy CRC CB781B0A Track not present in AccurateRip database Copy OK

Track 11

Filename C:\Users\Gerard\Desktop\Field Music - Plumb (2012) [FLAC]\11 - From Hide And Seek To Heartache.wav

Peak level 97.3 % Extraction speed 5.3 X Track quality 99.9 % Test CRC B1C3C1CE Copy CRC B1C3C1CE Track not present in AccurateRip database Copy OK

Track 12

Filename C:\Users\Gerard\Desktop\Field Music - Plumb (2012) [FLAC]\12 - How Many More Times.wav

Peak level 96.0 % Extraction speed 2.7 X Track quality 99.7 % Test CRC 65F6D2F9 Copy CRC 65F6D2F9 Track not present in AccurateRip database Copy OK

Track 13

Filename C:\Users\Gerard\Desktop\Field Music - Plumb (2012) [FLAC]\13 - Ce Soir.wav

Peak level 96.0 % Extraction speed 3.9 X Track quality 99.8 % Test CRC FE94668D Copy CRC FE94668D Track not present in AccurateRip database Copy OK

Track 14

Filename C:\Users\Gerard\Desktop\Field Music - Plumb (2012) [FLAC]\14 - Just Like Everyone Else.wav

Peak level 96.0 % Extraction speed 6.6 X Track quality 100.0 % Test CRC F4E44310 Copy CRC F4E44310 Track not present in AccurateRip database Copy OK

Track 15

Filename C:\Users\Gerard\Desktop\Field Music - Plumb (2012) [FLAC]\15 - (I Keep Thinking About) A New Thing.wav

Peak level 96.9 % Extraction speed 6.9 X Track quality 100.0 % Test CRC 18D6C97B Copy CRC 18D6C97B Track not present in AccurateRip database Copy OK

None of the tracks are present in the AccurateRip database

No errors occurred

End of status report

---- CUETools DB Plugin V2.1.3

[CTDB TOCID: VicSztjGFNZBY21S8lY7pVr66C0-] found, Submit result: already submitted[4df9c575] (1/1) Accurately ripped

==== Log checksum 64E7A077707C1301D301B459078E9605C2215437CC75F1D12BE3202EA5F37D79 ====
  
REM GENRE IndieREM DATE 2012REM DISCID DE08630FREM COMMENT "ExactAudioCopy v1.0b3"PERFORMER "Field Music"TITLE "Plumb"FILE "01 - Start The Day Right.wav" WAVE TRACK 01 AUDIO TITLE "Start The Day Right" PERFORMER "Field Music" ISRC GBCSG1200001 INDEX 01 00:00:00FILE "02 - It's Okay To Change.wav" WAVE TRACK 02 AUDIO TITLE "It's Okay To Change" PERFORMER "Field Music" ISRC GBCSG1200002 INDEX 01 00:00:00FILE "03 - Sorry Again, Mate.wav" WAVE TRACK 03 AUDIO TITLE "Sorry Again, Mate" PERFORMER "Field Music" ISRC GBCSG1200003 INDEX 01 00:00:00FILE "04 - A New Town.wav" WAVE TRACK 04 AUDIO TITLE "A New Town" PERFORMER "Field Music" ISRC GBCSG1200004 INDEX 01 00:00:00FILE "05 - Choosing Sides.wav" WAVE TRACK 05 AUDIO TITLE "Choosing Sides" PERFORMER "Field Music" ISRC GBCSG1200005 INDEX 01 00:00:00FILE "06 - A Prelude To Pilgrim Street.wav" WAVE TRACK 06 AUDIO TITLE "A Prelude To Pilgrim Street" PERFORMER "Field Music" ISRC GBCSG1200006 INDEX 01 00:00:00FILE "07 - Guillotine.wav" WAVE TRACK 07 AUDIO TITLE "Guillotine" PERFORMER "Field Music" ISRC GBCSG1200007 INDEX 01 00:00:00 TRACK 08 AUDIO TITLE "Who'll Pay The Bills?" PERFORMER "Field Music" ISRC GBCSG1200008 INDEX 00 03:11:60FILE "08 - Who'll Pay The Bills.wav" WAVE INDEX 01 00:00:00FILE "09 - So Long Then.wav" WAVE TRACK 09 AUDIO TITLE "So Long Then" PERFORMER "Field Music" ISRC GBCSG1200009 INDEX 01 00:00:00FILE "10 - Is This The Picture.wav" WAVE TRACK 10 AUDIO TITLE "Is This The Picture?" PERFORMER "Field Music" ISRC GBCSG1200010 INDEX 01 00:00:00FILE "11 - From Hide And Seek To Heartache.wav" WAVE TRACK 11 AUDIO TITLE "From Hide And Seek To Heartache" PERFORMER "Field Music" ISRC GBCSG1200011 INDEX 01 00:00:00FILE "12 - How Many More Times.wav" WAVE TRACK 12 AUDIO TITLE "How Many More Times?" PERFORMER "Field Music" ISRC GBCSG1200012 INDEX 01 00:00:00FILE "13 - Ce Soir.wav" WAVE TRACK 13 AUDIO TITLE "Ce Soir" PERFORMER "Field Music" ISRC GBCSG1200013 INDEX 01 00:00:00FILE "14 - Just Like Everyone Else.wav" WAVE TRACK 14 AUDIO TITLE "Just Like Everyone Else" PERFORMER "Field Music" ISRC GBCSG1200014 INDEX 01 00:00:00FILE "15 - (I Keep Thinking About) A New Thing.wav" WAVE TRACK 15 AUDIO TITLE "(I Keep Thinking About) A New Thing" PERFORMER "Field Music" ISRC GBCSG1200015 INDEX 01 00:00:00


Трекер:  [ 30-Июл-2012 13:51 ]

  

Скачать .torrent

Размер .torrent файла 18 KB


Размер: 220 MB
Хэш (hash) релиза: 01231c60529a724121ed2910c06275e4effb5422

Еще никто не оставлял запись к записи скачать торрент Field Music Plumb - 2012 ALAC, lossless . Будь первым!

!Обратная связь