Скачать через торрент Passion PitManners - 2009 ALAC, lossless бесплатно русская версия torrent активатор

Если у вас наблюдаются проблемы со скриншотами, переходом по ссылками, скачиванием торрентов - проблемы в блокировщике рекламы AdBlock. #хорошегоДня!


Статистика раздачи
Размер:  323 MB   |    Зарегистрирован:  5 лет 2 месяца   |    .torrent скачан:  28 раз   |   
Раздают:  1  
   
Загрузка...
 
Автор Сообщение

Galfimbul

avatar Galfimbul


Passion Pit/Manners

Год: 2009
Страна: US
Жанр: Electronic, Indie
Продолжительность: 45:40
Тексты: вшиты
Кодек: ALAC
Программа-риповщик : foobar2000 + iTunes (lossless)
Битрейт: lossless
Треклист:
01 Make Light 4:56
02 Little Secrets 3:59
03 Moth's Wings 4:16
04 The Reeling 4:48
05 Eyes as Candles 4:04
06 Swimming in the Floods 4:58
07 Folds in Your Hands 3:39
08 To Kingdom Come 4:08
09 Sleepyhead 2:55
10 Let Your Love Grow Tall 3:32
11 Seaweed Song 4:25
Доп. информация: Скоро должен выйти новый альбом. Если уже не вышел
  
X Lossless Decoder version 20090320 (105.1)

XLD extraction logfile from 2009-05-11 15:16:39 -0400

Passion Pit / Manners

Used drive : MATSHITA DVD-R UJ-868 (revision KA14)

Use cdparanoia mode : YES (CDParanoia III 10.2 engine) Disable audio cache : OK for the drive with cache less than 2750KB Make use of C2 pointers : NO Read offset correction : 102 Max retry count : 100

TOC of the extracted CD Track | Start | Length | Start sector | End sector --------------------------------------------------------- 1 | 00:00:00 | 04:56:30 | 0 | 22229 2 | 04:56:30 | 03:58:73 | 22230 | 40152 3 | 08:55:28 | 04:16:24 | 40153 | 59376 4 | 13:11:52 | 04:47:68 | 59377 | 80969 5 | 17:59:45 | 04:03:52 | 80970 | 99246 6 | 22:03:22 | 04:58:45 | 99247 | 121641 7 | 27:01:67 | 03:38:74 | 121642 | 138065 8 | 30:40:66 | 04:07:40 | 138066 | 156630 9 | 34:48:31 | 02:54:57 | 156631 | 169737 10 | 37:43:13 | 03:32:03 | 169738 | 185640 11 | 41:15:16 | 04:24:52 | 185641 | 205492

Track 01 Filename : 01 Passion Pit - Make Light.flac

CRC32 hash (test run) : CF3C6D3F CRC32 hash : CF3C6D3F CRC32 hash (skip zero) : 7D02A0E8 Statistics Read error : 0 Skipped (treated as error) : 0 Edge jitter error (maybe fixed) : 0 Atom jitter error (maybe fixed) : 0 Drift error (maybe fixed) : 0 Dropped bytes error (maybe fixed) : 0 Duplicated bytes error (maybe fixed) : 0 Inconsistency in error sectors : 0

Track 02 Filename : 02 Passion Pit - Little Secrets.flac

CRC32 hash (test run) : 0B107BD4 CRC32 hash : 0B107BD4 CRC32 hash (skip zero) : CE465DB8 Statistics Read error : 0 Skipped (treated as error) : 0 Edge jitter error (maybe fixed) : 0 Atom jitter error (maybe fixed) : 0 Drift error (maybe fixed) : 0 Dropped bytes error (maybe fixed) : 0 Duplicated bytes error (maybe fixed) : 0 Inconsistency in error sectors : 0

Track 03 Filename : 03 Passion Pit - Moth's Wings.flac

CRC32 hash (test run) : 6671DAC7 CRC32 hash : 6671DAC7 CRC32 hash (skip zero) : F17BEA62 Statistics Read error : 0 Skipped (treated as error) : 0 Edge jitter error (maybe fixed) : 0 Atom jitter error (maybe fixed) : 0 Drift error (maybe fixed) : 0 Dropped bytes error (maybe fixed) : 0 Duplicated bytes error (maybe fixed) : 0 Inconsistency in error sectors : 0

Track 04 Filename : 04 Passion Pit - The Reeling.flac

CRC32 hash (test run) : 4C194B87 CRC32 hash : 4C194B87 CRC32 hash (skip zero) : BB7CD815 Statistics Read error : 0 Skipped (treated as error) : 0 Edge jitter error (maybe fixed) : 0 Atom jitter error (maybe fixed) : 0 Drift error (maybe fixed) : 0 Dropped bytes error (maybe fixed) : 0 Duplicated bytes error (maybe fixed) : 0 Inconsistency in error sectors : 0

Track 05 Filename : 05 Passion Pit - Eyes as Candles.flac

CRC32 hash (test run) : 007ACCB2 CRC32 hash : 007ACCB2 CRC32 hash (skip zero) : 97C9D2C9 Statistics Read error : 0 Skipped (treated as error) : 0 Edge jitter error (maybe fixed) : 0 Atom jitter error (maybe fixed) : 0 Drift error (maybe fixed) : 0 Dropped bytes error (maybe fixed) : 0 Duplicated bytes error (maybe fixed) : 0 Inconsistency in error sectors : 0

Track 06 Filename : 06 Passion Pit - Swimming in the Floods.flac

CRC32 hash (test run) : 984A84DB CRC32 hash : 984A84DB CRC32 hash (skip zero) : EDBAB1E9 Statistics Read error : 0 Skipped (treated as error) : 0 Edge jitter error (maybe fixed) : 0 Atom jitter error (maybe fixed) : 0 Drift error (maybe fixed) : 0 Dropped bytes error (maybe fixed) : 0 Duplicated bytes error (maybe fixed) : 0 Inconsistency in error sectors : 0

Track 07 Filename : 07 Passion Pit - Folds in Your Hands.flac

CRC32 hash (test run) : BC5F4644 CRC32 hash : BC5F4644 CRC32 hash (skip zero) : 897A9C3B Statistics Read error : 0 Skipped (treated as error) : 0 Edge jitter error (maybe fixed) : 0 Atom jitter error (maybe fixed) : 0 Drift error (maybe fixed) : 0 Dropped bytes error (maybe fixed) : 0 Duplicated bytes error (maybe fixed) : 0 Inconsistency in error sectors : 0

Track 08 Filename : 08 Passion Pit - To Kingdom Come.flac

CRC32 hash (test run) : AE1ECFB2 CRC32 hash : AE1ECFB2 CRC32 hash (skip zero) : 7001777C Statistics Read error : 0 Skipped (treated as error) : 0 Edge jitter error (maybe fixed) : 0 Atom jitter error (maybe fixed) : 0 Drift error (maybe fixed) : 0 Dropped bytes error (maybe fixed) : 0 Duplicated bytes error (maybe fixed) : 0 Inconsistency in error sectors : 0

Track 09 Filename : 09 Passion Pit - Sleepyhead.flac

CRC32 hash (test run) : BA56B9B0 CRC32 hash : BA56B9B0 CRC32 hash (skip zero) : 57C6543B Statistics Read error : 0 Skipped (treated as error) : 0 Edge jitter error (maybe fixed) : 0 Atom jitter error (maybe fixed) : 0 Drift error (maybe fixed) : 0 Dropped bytes error (maybe fixed) : 0 Duplicated bytes error (maybe fixed) : 0 Inconsistency in error sectors : 0

Track 10 Filename : 10 Passion Pit - Let Your Love Grow Tall.flac

CRC32 hash (test run) : BE7256D1 CRC32 hash : BE7256D1 CRC32 hash (skip zero) : ABA247D6 Statistics Read error : 0 Skipped (treated as error) : 0 Edge jitter error (maybe fixed) : 0 Atom jitter error (maybe fixed) : 0 Drift error (maybe fixed) : 0 Dropped bytes error (maybe fixed) : 0 Duplicated bytes error (maybe fixed) : 0 Inconsistency in error sectors : 0

Track 11 Filename : 11 Passion Pit - Seaweed Song.flac

CRC32 hash (test run) : F4431F0C CRC32 hash : F4431F0C CRC32 hash (skip zero) : 2A3DF1F7 Statistics Read error : 0 Skipped (treated as error) : 0 Edge jitter error (maybe fixed) : 0 Atom jitter error (maybe fixed) : 0 Drift error (maybe fixed) : 0 Dropped bytes error (maybe fixed) : 0 Duplicated bytes error (maybe fixed) : 0 Inconsistency in error sectors : 0

No errors occurred

End of status report


Трекер:  [ 30-Июл-2012 13:51 ]

  

Скачать .torrent

Размер .torrent файла 14 KB


Размер: 323 MB
Хэш (hash) релиза: b8cd073ac0bbe5e73c5692ef9a5642d8be59f25f

Еще никто не оставлял запись к записи скачать торрент Passion PitManners - 2009 ALAC, lossless . Будь первым!

!Обратная связь