Скачать через торрент музыку Mark Knopfler - What It Is - 2000, FLAC бесплатно без регистрации torrent

Если у вас наблюдаются проблемы со скриншотами, переходом по ссылками, скачиванием торрентов - проблемы в блокировщике рекламы AdBlock. #хорошегоДня!


Статистика раздачи
Размер:  64 MB   |    Зарегистрирован:  5 лет 4 месяца   |    .torrent скачан:  15 раз   |   
Раздают:  1  
   
Загрузка...
 
Автор Сообщение

Umakiro

avatar Umakiro


Mark Knopfler / What It Is

Жанр: Rock
Страна-производитель диска: Mexico
Год издания: 2000
Издатель (лейбл): Universal
Номер по каталогу: CDP 611-2
Страна: UK
Аудиокодек: FLAC (*.flac)
Тип рипа: image+.cue
Битрейт аудио: lossless
Продолжительность: 00:09:15
Источник (релизер): собственный рип
Наличие сканов в содержимом раздачи: да
Треклист:
01. what it is (radio edit) 3:33
02. what it is (album version) 5:35
  
Exact Audio Copy V1.0 beta 3 from 29. August 2011

EAC extraction logfile from 17. July 2012, 0:01

Mark Knopfler / What It Is (CDP 611)

Used drive : TEAC CD-540E Adapter: 1 ID: 0

Read mode : SecureUtilize accurate stream : YesDefeat audio cache : NoMake use of C2 pointers : No

Read offset correction : -496Overread into Lead-In and Lead-Out : NoFill up missing offset samples with silence : YesDelete leading and trailing silent blocks : NoNull samples used in CRC calculations : YesUsed interface : Native Win32 interface for Win NT & 2000

Used output format : User Defined EncoderSelected bitrate : 768 kBit/sQuality : HighAdd ID3 tag : NoCommand line compressor : C:\Program Files\Exact Audio Copy\FLAC\FLAC.EXEAdditional command line options : -6 -V -T "ARTIST=%artist%" -T "TITLE=%title%" -T "ALBUM=%albumtitle%" -T "DATE=%year%" -T "TRACKNUMBER=%tracknr%" -T "GENRE=%genre%" -T "COMMENT=%comment%" -T "BAND=%albuminterpret%" -T "ALBUMARTIST=%albuminterpret%" -T "COMPOSER=%composer%" %haslyrics%--tag-from-file=LYRICS="%lyricsfile%"%haslyrics% -T "DISCNUMBER=%cdnumber%" -T "TOTALDISCS=%totalcds%" -T "TOTALTRACKS=%numtracks%" %hascover%--picture="%coverfile%"%hascover% %source% -o %dest%

TOC of the extracted CD

Track | Start | Length | Start sector | End sector --------------------------------------------------------- 1 | 0:00.00 | 3:39.48 | 0 | 16472 2 | 3:39.48 | 5:35.43 | 16473 | 41640 3 | 11:47.16 | 8:20.52 | 53041 | 90592

Range status and errors

Selected range

Filename C:\Documents and Settings\test\Мои документы\Моя музыка\mk\Mark Knopfler - What It Is (CDP 611).wav

Peak level 97.6 % Extraction speed 2.3 X Range quality 100.0 % Test CRC CF0D0E3A Copy CRC CF0D0E3A Copy OK

No errors occurred

AccurateRip summary

Track 1 not present in databaseTrack 2 accurately ripped (confidence 2) [9A4A3411] (AR v1)

1 track(s) accurately ripped 1 track(s) not present in the AccurateRip database

Some tracks could not be verified as accurate

End of status report
  
REM GENRE RockREM DATE 2000REM DISCID 1704B703REM COMMENT "ExactAudioCopy v1.0b3"PERFORMER "Mark Knopfler"TITLE "What It Is (CDP 611)"FILE "Mark Knopfler - What It Is (CDP 611).flac" WAVE TRACK 01 AUDIO TITLE "What It Is (Radio Edit)" PERFORMER "Mark Knopfler" INDEX 01 00:00:00 TRACK 02 AUDIO TITLE "What It Is (Album Version)" PERFORMER "Mark Knopfler" INDEX 00 03:37:48 INDEX 01 03:39:48


Трекер:  [ 18-Июл-2012 06:22 ]

  

Скачать .torrent

Размер .torrent файла 10 KB


Размер: 64 MB
Хэш (hash) релиза: 573f96ac8c81ad5faeb9adaa09190a15ea9450cf

Еще никто не оставлял запись к записи скачать торрент Mark Knopfler - What It Is - 2000, FLAC . Будь первым!

!Обратная связь