Скачать через торрент музыку The Power Station - Living In Fear бесплатно без регистрации torrent

Если у вас наблюдаются проблемы со скриншотами, переходом по ссылками, скачиванием торрентов - проблемы в блокировщике рекламы AdBlock. #хорошегоДня!


Статистика раздачи
Размер:  490 MB   |    Зарегистрирован:  5 лет 4 месяца   |    .torrent скачан:  42 раза   |   
Раздают:  1  
   
Загрузка...
 
Автор Сообщение

Umakiro

avatar Umakiro


The Power Station – Living In Fear (1st US Pressing)

Жанр: Pop, Rock, Hard Rock
Страна-производитель диска: USA
Год издания: 1996
Издатель (лейбл): Chrysalis Records
Номер по каталогу: 7243 8 59356 2 6
Страна исполнителя: United Kingdom
Аудиокодек: FLAC (*.flac)
Тип рипа: image+.cue
Битрейт аудио: lossless
Продолжительность: 46:00
Rip by flac jacket
Наличие сканов в содержимом раздачи: да

Треклист:
01. Notoriety (5:06)
02. Scared (4:07)
03. She Can Rock It (4:16)
04. Power Trippin (4:36)
05. Life Forces (4:08)
06. Fancy That (3:41)
07. Living In Fear (4:38)
08. Shut Up (4:12)
09. Dope (2:53)
10. Love Conquers All (4:30)
11. Taxman (3:52)
  
Exact Audio Copy V1.0 beta 2 from 29. April 2011

EAC extraction logfile from 9. July 2012, 19:48

The Power Station / Living In Fear

Used drive : HL-DT-STDVDRAM GH60N Adapter: 0 ID: 1

Read mode : SecureUtilize accurate stream : YesDefeat audio cache : YesMake use of C2 pointers : No

Read offset correction : 667Overread into Lead-In and Lead-Out : NoFill up missing offset samples with silence : YesDelete leading and trailing silent blocks : NoNull samples used in CRC calculations : YesUsed interface : Native Win32 interface for Win NT & 2000

Used output format : User Defined EncoderSelected bitrate : 1024 kBit/sQuality : HighAdd ID3 tag : NoCommand line compressor : C:\Program Files (x86)\Exact Audio Copy\Flac\flac.exeAdditional command line options : -V -8 -T "artist=%albumartist%" -T "title=%title%" -T "album=%albumtitle%" -T "date=%year%" -T "genre=%genre%" -T "tracknumber=%tracknr%" %source%

TOC of the extracted CD

Track | Start | Length | Start sector | End sector --------------------------------------------------------- 1 | 0:00.00 | 5:05.45 | 0 | 22919 2 | 5:05.45 | 4:06.60 | 22920 | 41429 3 | 9:12.30 | 4:16.05 | 41430 | 60634 4 | 13:28.35 | 4:35.57 | 60635 | 81316 5 | 18:04.17 | 4:08.37 | 81317 | 99953 6 | 22:12.54 | 3:41.28 | 99954 | 116556 7 | 25:54.07 | 4:37.68 | 116557 | 137399 8 | 30:32.00 | 4:12.05 | 137400 | 156304 9 | 34:44.05 | 2:53.32 | 156305 | 169311 10 | 37:37.37 | 4:30.08 | 169312 | 189569 11 | 42:07.45 | 3:52.12 | 189570 | 206981

Range status and errors

Selected range

Filename C:\EAC\The Power Station - (1996) Living In Fear\The Power Station - Living In Fear.wav

Peak level 100.0 % Extraction speed 1.9 X Range quality 100.0 % Test CRC EFAEB0EC Copy CRC EFAEB0EC Copy OK

No errors occurred

AccurateRip summary

Track 1 accurately ripped (confidence 12) [6CA11F22] (AR v1)Track 2 accurately ripped (confidence 12) [E0FDC489] (AR v1)Track 3 accurately ripped (confidence 12) [BC036CED] (AR v1)Track 4 accurately ripped (confidence 12) [56FDA4FE] (AR v1)Track 5 accurately ripped (confidence 12) [70CA3908] (AR v1)Track 6 accurately ripped (confidence 12) [B84F3C0D] (AR v1)Track 7 accurately ripped (confidence 12) [0BDD66A8] (AR v1)Track 8 accurately ripped (confidence 12) [3629C6DB] (AR v1)Track 9 accurately ripped (confidence 12) [C5B80DA8] (AR v1)Track 10 accurately ripped (confidence 12) [F7A7C002] (AR v1)Track 11 accurately ripped (confidence 12) [79263333] (AR v1)

All tracks accurately ripped

End of status report

==== Log checksum 94E96011E974A8B4ED9791DEF0D5BC9266793BA6AEB429F12F6D0D46B9DAE440 ====
  
REM GENRE RockREM DATE 1996REM DISCID 920AC70BREM COMMENT "ExactAudioCopy v1.0b2"PERFORMER "The Power Station"TITLE "Living In Fear"FILE "The Power Station - Living In Fear.flac" WAVE TRACK 01 AUDIO TITLE "Notoriety" PERFORMER "The Power Station" INDEX 01 00:00:00 TRACK 02 AUDIO TITLE "Scared" PERFORMER "The Power Station" INDEX 01 05:05:45 TRACK 03 AUDIO TITLE "She Can Rock It" PERFORMER "The Power Station" INDEX 00 09:12:29 INDEX 01 09:12:30 TRACK 04 AUDIO TITLE "Power Trippin" PERFORMER "The Power Station" INDEX 00 13:27:36 INDEX 01 13:28:35 TRACK 05 AUDIO TITLE "Life Forces" PERFORMER "The Power Station" INDEX 00 18:03:53 INDEX 01 18:04:17 TRACK 06 AUDIO TITLE "Fancy That" PERFORMER "The Power Station" INDEX 00 22:11:29 INDEX 01 22:12:54 TRACK 07 AUDIO TITLE "Living In Fear" PERFORMER "The Power Station" INDEX 00 25:53:21 INDEX 01 25:54:07 TRACK 08 AUDIO TITLE "Shut Up" PERFORMER "The Power Station" INDEX 00 30:30:34 INDEX 01 30:32:00 TRACK 09 AUDIO TITLE "Dope" PERFORMER "The Power Station" INDEX 00 34:44:04 INDEX 01 34:44:05 TRACK 10 AUDIO TITLE "Love Conquers All" PERFORMER "The Power Station" INDEX 00 37:35:66 INDEX 01 37:37:37 TRACK 11 AUDIO TITLE "Taxman" PERFORMER "The Power Station" INDEX 00 42:07:44 INDEX 01 42:07:45
  
[CUETools log; Date: 16.07.2012 22:27:17; Version: 2.0.9][CTDB TOCID: UtYODA9xj6bR7QwBBZsPYjac7Ms-] found. [ CTDBID ] Status [cf646f9f] (8/8) Accurately ripped[AccurateRip ID: 0013914e-00a7e476-920ac70b] found.Track [ CRC ] Status 01 [6ca11f22] (12/12) Accurately ripped 02 [e0fdc489] (12/12) Accurately ripped 03 [bc036ced] (12/12) Accurately ripped 04 [56fda4fe] (12/12) Accurately ripped 05 [70ca3908] (12/12) Accurately ripped 06 [b84f3c0d] (12/12) Accurately ripped 07 [0bdd66a8] (12/12) Accurately ripped 08 [3629c6db] (12/12) Accurately ripped 09 [c5b80da8] (12/12) Accurately ripped 10 [f7a7c002] (12/12) Accurately ripped 11 [79263333] (12/12) Accurately ripped

Track Peak [ CRC32 ] [W/O NULL] [ LOG ] -- 99,9 [EFAEB0EC] [42B4450F] CRC32 01 99,9 [D5133037] [8074E704] 02 99,9 [6E67A3F6] [BC42C22D] 03 96,3 [A0530794] [5B4E1573] 04 99,9 [5C18C69C] [4C9E3CBE] 05 99,9 [BA9799B1] [B0AE7416] 06 99,9 [9FA24BAE] [BCD3749B] 07 99,9 [09B1F070] [B2004FEF] 08 96,3 [DED27C69] [59992283] 09 94,8 [9B69B5E5] [9A5F152A] 10 97,4 [B4E82C9D] [81A7ED4D] 11 99,9 [C232D43B] [D3DA1F82]


Трекер:  [ 18-Июл-2012 06:22 ]

  

Скачать .torrent

Размер .torrent файла 20 KB


Размер: 490 MB
Хэш (hash) релиза: c5d24ccab3a8f31fabbdfaf418dfb6cef6503e3d

Еще никто не оставлял запись к записи скачать торрент The Power Station - Living In Fear . Будь первым!

!Обратная связь