Скачать через торрент музыку Sleepy Sun - Дискография - бесплатно без регистрации torrent

Если у вас наблюдаются проблемы со скриншотами, переходом по ссылками, скачиванием торрентов - проблемы в блокировщике рекламы AdBlock. #хорошегоДня!


Статистика раздачи
Размер:  787 MB   |    Зарегистрирован:  5 лет 1 месяц   |    .torrent скачан:  40 раз   |   
Раздают:  1  
   
Загрузка...
 
Автор Сообщение

Umakiro

avatar Umakiro


Sleepy Sun - Discography - 3 CD
Жанр: Psychedelic/Space Rock
Страна: San Francisco, California, USA
Аудио кодек: FLAC
Тип рипа: tracks+.cue
Битрейт аудио: lossless
Источник: waffles.fm/What.CD
www.sleepysun.net
http://www.progarchives.com/artist.asp?id=5579

Albums:
Sleepy Sun - Embrace
Label: ATP Recordings
Country: US
Released: June 16, 2009
Tracklist:

01. New Age (7:25) http://youtu.be/1L-A6YhLGR0
02. Lord (5:39) http://youtu.be/CVdmBvYECWU
03. Red Black (2:11)
04. Ooh Boy (2:05)
05. Golden Artifact (3:42)
06. White Dove (9:23)
07. Snow Goddess (5:38)
08. Duet With The Northern Sky (2:58)

total time: 44:23
  
Exact Audio Copy V0.99 prebeta 4 from 23. January 2008

EAC extraction logfile from 6. October 2009, 14:28

Sleepy Sun / Embrace

Used drive : _NEC DVD+-RW ND-3530A Adapter: 1 ID: 0

Read mode : SecureUtilize accurate stream : YesDefeat audio cache : YesMake use of C2 pointers : No

Read offset correction : 48Overread into Lead-In and Lead-Out : NoFill up missing offset samples with silence : YesDelete leading and trailing silent blocks : NoNull samples used in CRC calculations : YesUsed interface : Native Win32 interface for Win NT & 2000Gap handling : Appended to previous track

Used output format : Internal WAV RoutinesSample format : 44.100 Hz; 16 Bit; Stereo

TOC of the extracted CD

Track | Start | Length | Start sector | End sector --------------------------------------------------------- 1 | 0:00.00 | 7:25.06 | 0 | 33380 2 | 7:25.06 | 5:39.11 | 33381 | 58816 3 | 13:04.17 | 2:11.49 | 58817 | 68690 4 | 15:15.66 | 7:24.05 | 68691 | 101995 5 | 22:39.71 | 3:42.39 | 101996 | 118684 6 | 26:22.35 | 9:23.27 | 118685 | 160936 7 | 35:45.62 | 5:38.59 | 160937 | 186345 8 | 41:24.46 | 2:58.38 | 186346 | 199733

Track 1

Filename C:\01 - New Age.wav

Pre-gap length 0:00:02.00

Peak level 100.0 % Track quality 100.0 % Test CRC 77375594 Copy CRC 77375594 Cannot be verified as accurate (confidence 1) [69868362], AccurateRip returned [83F9235D] Copy OK

Track 2

Filename C:\02 - Lord.wav

Peak level 100.0 % Track quality 100.0 % Test CRC 68EFCA2B Copy CRC 68EFCA2B Cannot be verified as accurate (confidence 1) [ED0AD9B5], AccurateRip returned [289DAF74] Copy OK

Track 3

Filename C:\03 - Red,Black.wav

Peak level 100.0 % Track quality 100.0 % Test CRC 145B9896 Copy CRC 145B9896 Cannot be verified as accurate (confidence 1) [DD834AF4], AccurateRip returned [80D4B492] Copy OK

Track 4

Filename C:\04 - Sleepy Son.wav

Peak level 100.0 % Track quality 100.0 % Test CRC D06F6818 Copy CRC D06F6818 Cannot be verified as accurate (confidence 1) [5EDA75FB], AccurateRip returned [96DCD678] Copy OK

Track 5

Filename C:\05 - Golden Artifact.wav

Peak level 100.0 % Track quality 100.0 % Test CRC 26B97FFB Copy CRC 26B97FFB Cannot be verified as accurate (confidence 1) [BAC192BC], AccurateRip returned [FD9FEA60] Copy OK

Track 6

Filename C:\06 - White Dove.wav

Peak level 100.0 % Track quality 100.0 % Test CRC E31968E9 Copy CRC E31968E9 Cannot be verified as accurate (confidence 1) [36991540], AccurateRip returned [87718E54] Copy OK

Track 7

Filename C:\07 - Snow Goddess.wav

Peak level 100.0 % Track quality 100.0 % Test CRC DE7C6B87 Copy CRC DE7C6B87 Cannot be verified as accurate (confidence 1) [435D1403], AccurateRip returned [AC1589CF] Copy OK

Track 8

Filename C:\08 - Duet With The Northern Sky.wav

Peak level 100.0 % Track quality 100.0 % Test CRC 8440BCBD Copy CRC 8440BCBD Cannot be verified as accurate (confidence 1) [1A0208A4], AccurateRip returned [CA0DADC9] Copy OK

No tracks could be verified as accurateYou may have a different pressing from the one(s) in the database

No errors occurred

End of status report
  
REM GENRE RockREM DATE 2008REM DISCID 760A6708REM COMMENT "ExactAudioCopy v0.99pb4"PERFORMER "Sleepy Sun"TITLE "Embrace"FILE "01 - New Age.wav" WAVE TRACK 01 AUDIO TITLE "New Age" PERFORMER "Sleepy Sun" INDEX 01 00:00:00FILE "02 - Lord.wav" WAVE TRACK 02 AUDIO TITLE "Lord" PERFORMER "Sleepy Sun" INDEX 01 00:00:00FILE "03 - Red,Black.wav" WAVE TRACK 03 AUDIO TITLE "Red/Black" PERFORMER "Sleepy Sun" INDEX 01 00:00:00FILE "04 - Sleepy Son.wav" WAVE TRACK 04 AUDIO TITLE "Sleepy Son" PERFORMER "Sleepy Sun" INDEX 01 00:00:00FILE "05 - Golden Artifact.wav" WAVE TRACK 05 AUDIO TITLE "Golden Artifact" PERFORMER "Sleepy Sun" INDEX 01 00:00:00FILE "06 - White Dove.wav" WAVE TRACK 06 AUDIO TITLE "White Dove" PERFORMER "Sleepy Sun" INDEX 01 00:00:00FILE "07 - Snow Goddess.wav" WAVE TRACK 07 AUDIO TITLE "Snow Goddess" PERFORMER "Sleepy Sun" INDEX 01 00:00:00FILE "08 - Duet With The Northern Sky.wav" WAVE TRACK 08 AUDIO TITLE "Duet With The Northern Sky" PERFORMER "Sleepy Sun" INDEX 01 00:00:00
Sleepy Sun - Fever
Label: ATP Recordings
Country: US
Released: June 1, 2010
Tracklist:

01. Marina (6:22)
02. Rigamaroo (3:23)
03. Wild Machines (6:04)http://youtu.be/buL2JZi43pA
04. Ooh Boy (2:06)
05. Acid Love (2:41)http://youtu.be/HfuEk8jh2Uw
06. Desert God (5:17)
07. Open Eyes (3:38)
08. Freedom Line (3:01)
09. Sandstorm woman (9:51)

total time: 42:22
  
Exact Audio Copy V0.99 prebeta 5 from 4. May 2009

EAC extraction logfile from 28. May 2010, 17:46

Sleepy Sun / Fever

Used drive : TSSTcorpCD/DVDW TS-H652L Adapter: 5 ID: 0

Read mode : SecureUtilize accurate stream : YesDefeat audio cache : YesMake use of C2 pointers : No

Read offset correction : 6Overread into Lead-In and Lead-Out : NoFill up missing offset samples with silence : YesDelete leading and trailing silent blocks : NoNull samples used in CRC calculations : YesUsed interface : Native Win32 interface for Win NT & 2000Gap handling : Appended to previous track

Used output format : User Defined EncoderSelected bitrate : 128 kBit/sQuality : HighAdd ID3 tag : NoCommand line compressor : C:\Program Files\Exact Audio Copy\Flac\flac.exeAdditional command line options : -V -8 -T "artist=%a" -T "title=%t" -T "album=%g" -T "date=%y" -T "tracknumber=%n" -T "genre=%m" %s

TOC of the extracted CD

Track | Start | Length | Start sector | End sector --------------------------------------------------------- 1 | 0:00.00 | 6:21.39 | 0 | 28613 2 | 6:21.39 | 3:23.10 | 28614 | 43848 3 | 9:44.49 | 6:03.69 | 43849 | 71142 4 | 15:48.43 | 2:05.41 | 71143 | 80558 5 | 17:54.09 | 2:41.19 | 80559 | 92652 6 | 20:35.28 | 5:16.58 | 92653 | 116410 7 | 25:52.11 | 3:37.74 | 116411 | 132759 8 | 29:30.10 | 3:01.02 | 132760 | 146336 9 | 32:31.12 | 9:50.45 | 146337 | 190631

Track 1

Filename L:\Sleepy Sun ~ Fever (2010) [FLAC]\01 - Marina.wav

Pre-gap length 0:00:02.00

Peak level 99.9 % Track quality 99.9 % Test CRC 1DBDCBFD Copy CRC 1DBDCBFD Track not present in AccurateRip database Copy OK

Track 2

Filename L:\Sleepy Sun ~ Fever (2010) [FLAC]\02 - Rigamaroo.wav

Peak level 99.9 % Track quality 100.0 % Test CRC 795D9EFB Copy CRC 795D9EFB Track not present in AccurateRip database Copy OK

Track 3

Filename L:\Sleepy Sun ~ Fever (2010) [FLAC]\03 - Wild Machines.wav

Peak level 99.9 % Track quality 99.9 % Test CRC 6EAC6278 Copy CRC 6EAC6278 Track not present in AccurateRip database Copy OK

Track 4

Filename L:\Sleepy Sun ~ Fever (2010) [FLAC]\04 - Ooh Boy.wav

Peak level 99.9 % Track quality 100.0 % Test CRC 56B5360D Copy CRC 56B5360D Track not present in AccurateRip database Copy OK

Track 5

Filename L:\Sleepy Sun ~ Fever (2010) [FLAC]\05 - Acid Love.wav

Peak level 99.9 % Track quality 100.0 % Test CRC A1048E5D Copy CRC A1048E5D Track not present in AccurateRip database Copy OK

Track 6

Filename L:\Sleepy Sun ~ Fever (2010) [FLAC]\06 - Desert God.wav

Peak level 99.9 % Track quality 99.9 % Test CRC 06A364D9 Copy CRC 06A364D9 Track not present in AccurateRip database Copy OK

Track 7

Filename L:\Sleepy Sun ~ Fever (2010) [FLAC]\07 - Open Eyes.wav

Peak level 99.9 % Track quality 100.0 % Test CRC 848EDFC9 Copy CRC 848EDFC9 Track not present in AccurateRip database Copy OK

Track 8

Filename L:\Sleepy Sun ~ Fever (2010) [FLAC]\08 - Freedom Line.wav

Peak level 99.9 % Track quality 100.0 % Test CRC 85EFC421 Copy CRC 85EFC421 Track not present in AccurateRip database Copy OK

Track 9

Filename L:\Sleepy Sun ~ Fever (2010) [FLAC]\09 - Sandstorm Woman.wav

Peak level 99.9 % Track quality 100.0 % Test CRC CAC2E4DF Copy CRC CAC2E4DF Track not present in AccurateRip database Copy OK

None of the tracks are present in the AccurateRip database

No errors occurred

End of status report
  
REM GENRE AlternativeREM DATE 2010REM DISCID 7E09ED09REM COMMENT "ExactAudioCopy v0.99pb5"PERFORMER "Sleepy Sun"TITLE "Fever"FILE "01 - Marina.wav" WAVE TRACK 01 AUDIO TITLE "Marina" PERFORMER "Sleepy Sun" INDEX 01 00:00:00FILE "02 - Rigamaroo.wav" WAVE TRACK 02 AUDIO TITLE "Rigamaroo" PERFORMER "Sleepy Sun" INDEX 01 00:00:00FILE "03 - Wild Machines.wav" WAVE TRACK 03 AUDIO TITLE "Wild Machines" PERFORMER "Sleepy Sun" INDEX 01 00:00:00FILE "04 - Ooh Boy.wav" WAVE TRACK 04 AUDIO TITLE "Ooh Boy" PERFORMER "Sleepy Sun" INDEX 01 00:00:00FILE "05 - Acid Love.wav" WAVE TRACK 05 AUDIO TITLE "Acid Love" PERFORMER "Sleepy Sun" INDEX 01 00:00:00FILE "06 - Desert God.wav" WAVE TRACK 06 AUDIO TITLE "Desert God" PERFORMER "Sleepy Sun" INDEX 01 00:00:00FILE "07 - Open Eyes.wav" WAVE TRACK 07 AUDIO TITLE "Open Eyes" PERFORMER "Sleepy Sun" INDEX 01 00:00:00FILE "08 - Freedom Line.wav" WAVE TRACK 08 AUDIO TITLE "Freedom Line" PERFORMER "Sleepy Sun" INDEX 01 00:00:00FILE "09 - Sandstorm Woman.wav" WAVE TRACK 09 AUDIO TITLE "Sandstorm Woman" PERFORMER "Sleepy Sun" INDEX 01 00:00:00
Sleepy Sun - Spine Hits
Label: The End Records TE262-2
Country: US
Released: April 10, 2012
Tracklist:

01. Stivey Pond(2:52)
02. She Rex (3:55)
03. Siouxsie Blaqq (4:35)
04. Creature (3:16)
05. Boat Trip (3:50)
06. V.O.G. (4:14) http://youtu.be/G1mgiwNJgyk
07. Martyr's Mantra (6:05) http://youtu.be/bS1etI8a4fk
08. Still Breathing (5:02)
09. Yellow End (3:46)
10. Deep War (3:35)
11. Lioness (Requiem) (4:44)

total time: 44:53
  
Exact Audio Copy V1.0 beta 3 from 29. August 2011

EAC extraction logfile from 8. May 2012, 18:15

Sleepy Sun / Spine Hits

Used drive : PLEXTOR DVDR PX-760A Adapter: 0 ID: 0

Read mode : SecureUtilize accurate stream : YesDefeat audio cache : YesMake use of C2 pointers : No

Read offset correction : 30Overread into Lead-In and Lead-Out : YesFill up missing offset samples with silence : YesDelete leading and trailing silent blocks : NoNull samples used in CRC calculations : YesUsed interface : Native Win32 interface for Win NT & 2000Gap handling : Appended to previous track

Used output format : User Defined EncoderSelected bitrate : 1024 kBit/sQuality : HighAdd ID3 tag : NoCommand line compressor : C:\Program Files\FLAC\flac.exeAdditional command line options : -8 -V -T "ARTIST=%artist%" -T "TITLE=%title%" -T "ALBUM=%albumtitle%" -T "DATE=%year%" -T "TRACKNUMBER=%tracknr%" -T "GENRE=%genre%" -T "COMMENT=EAC FLAC -8" %source%

TOC of the extracted CD

Track | Start | Length | Start sector | End sector --------------------------------------------------------- 1 | 0:00.00 | 2:51.74 | 0 | 12898 2 | 2:51.74 | 3:54.41 | 12899 | 30489 3 | 6:46.40 | 4:34.56 | 30490 | 51095 4 | 11:21.21 | 3:15.64 | 51096 | 65784 5 | 14:37.10 | 3:50.04 | 65785 | 83038 6 | 18:27.14 | 4:14.10 | 83039 | 102098 7 | 22:41.24 | 6:04.41 | 102099 | 129439 8 | 28:45.65 | 5:01.42 | 129440 | 152056 9 | 33:47.32 | 3:46.22 | 152057 | 169028 10 | 37:33.54 | 3:34.43 | 169029 | 185121 11 | 41:08.22 | 4:44.30 | 185122 | 206451

Track 1

Filename L:\Torrents\Sleepy Sun - Spine Hits (2012) [FLAC]\01 - Stivey Pond.wav

Pre-gap length 0:00:02.00

Peak level 96.6 % Extraction speed 1.3 X Track quality 99.9 % Test CRC 121C41F2 Copy CRC 121C41F2 Track not present in AccurateRip database Copy OK

Track 2

Filename L:\Torrents\Sleepy Sun - Spine Hits (2012) [FLAC]\02 - She Rex.wav

Peak level 96.6 % Extraction speed 2.1 X Track quality 100.0 % Test CRC 10B425C0 Copy CRC 10B425C0 Track not present in AccurateRip database Copy OK

Track 3

Filename L:\Torrents\Sleepy Sun - Spine Hits (2012) [FLAC]\03 - Siouxsie Blaqq.wav

Peak level 96.6 % Extraction speed 2.2 X Track quality 100.0 % Test CRC A53F3E7D Copy CRC A53F3E7D Track not present in AccurateRip database Copy OK

Track 4

Filename L:\Torrents\Sleepy Sun - Spine Hits (2012) [FLAC]\04 - Creature.wav

Peak level 96.6 % Extraction speed 1.4 X Track quality 99.9 % Test CRC 7ECE9ABF Copy CRC 7ECE9ABF Track not present in AccurateRip database Copy OK

Track 5

Filename L:\Torrents\Sleepy Sun - Spine Hits (2012) [FLAC]\05 - Boat Trip.wav

Peak level 96.6 % Extraction speed 1.5 X Track quality 99.9 % Test CRC ADA7027F Copy CRC ADA7027F Track not present in AccurateRip database Copy OK

Track 6

Filename L:\Torrents\Sleepy Sun - Spine Hits (2012) [FLAC]\06 - V.O.G..wav

Peak level 96.6 % Extraction speed 2.2 X Track quality 100.0 % Test CRC 0F7E0F95 Copy CRC 0F7E0F95 Track not present in AccurateRip database Copy OK

Track 7

Filename L:\Torrents\Sleepy Sun - Spine Hits (2012) [FLAC]\07 - Martyr's Mantra.wav

Peak level 96.6 % Extraction speed 1.8 X Track quality 99.9 % Test CRC 5EA4FAEA Copy CRC 5EA4FAEA Track not present in AccurateRip database Copy OK

Track 8

Filename L:\Torrents\Sleepy Sun - Spine Hits (2012) [FLAC]\08 - Still Breathing.wav

Peak level 96.6 % Extraction speed 2.2 X Track quality 100.0 % Test CRC 491C55C5 Copy CRC 491C55C5 Track not present in AccurateRip database Copy OK

Track 9

Filename L:\Torrents\Sleepy Sun - Spine Hits (2012) [FLAC]\09 - Yellow End.wav

Peak level 96.6 % Extraction speed 2.1 X Track quality 100.0 % Test CRC 930DC0E9 Copy CRC 930DC0E9 Track not present in AccurateRip database Copy OK

Track 10

Filename L:\Torrents\Sleepy Sun - Spine Hits (2012) [FLAC]\10 - Deep War.wav

Peak level 96.6 % Extraction speed 2.1 X Track quality 100.0 % Test CRC 5C25F715 Copy CRC 5C25F715 Track not present in AccurateRip database Copy OK

Track 11

Filename L:\Torrents\Sleepy Sun - Spine Hits (2012) [FLAC]\11 - Lioness (Requiem).wav

Peak level 96.6 % Extraction speed 2.5 X Track quality 100.0 % Test CRC 805EACEF Copy CRC 805EACEF Track not present in AccurateRip database Copy OK

None of the tracks are present in the AccurateRip database

No errors occurred

End of status report

---- CUETools DB Plugin V2.1.3

[CTDB TOCID: Ay_UX2pmkT7zNe7LLS81U0Q1KYY-] found, Submit result: Ay_UX2pmkT7zNe7LLS81U0Q1KYY- has been confirmed[28bbb2a6] (1/1) Accurately ripped

==== Log checksum E0C0000BA8633E40D753211BC0B042995E77242435F06C5FF6BF0912D337EF93 ====
  
REM GENRE PsychedelicREM DATE 2012REM DISCID 930AC00BREM COMMENT "ExactAudioCopy v1.0b3"PERFORMER "Sleepy Sun"TITLE "Spine Hits"FILE "01 - Stivey Pond.wav" WAVE TRACK 01 AUDIO TITLE "Stivey Pond" PERFORMER "Sleepy Sun" INDEX 01 00:00:00FILE "02 - She Rex.wav" WAVE TRACK 02 AUDIO TITLE "She Rex" PERFORMER "Sleepy Sun" INDEX 01 00:00:00FILE "03 - Siouxsie Blaqq.wav" WAVE TRACK 03 AUDIO TITLE "Siouxsie Blaqq" PERFORMER "Sleepy Sun" INDEX 01 00:00:00FILE "04 - Creature.wav" WAVE TRACK 04 AUDIO TITLE "Creature" PERFORMER "Sleepy Sun" INDEX 01 00:00:00FILE "05 - Boat Trip.wav" WAVE TRACK 05 AUDIO TITLE "Boat Trip" PERFORMER "Sleepy Sun" INDEX 01 00:00:00FILE "06 - V.O.G..wav" WAVE TRACK 06 AUDIO TITLE "V.O.G." PERFORMER "Sleepy Sun" INDEX 01 00:00:00FILE "07 - Martyr's Mantra.wav" WAVE TRACK 07 AUDIO TITLE "Martyr's Mantra" PERFORMER "Sleepy Sun" INDEX 01 00:00:00FILE "08 - Still Breathing.wav" WAVE TRACK 08 AUDIO TITLE "Still Breathing" PERFORMER "Sleepy Sun" INDEX 01 00:00:00FILE "09 - Yellow End.wav" WAVE TRACK 09 AUDIO TITLE "Yellow End" PERFORMER "Sleepy Sun" INDEX 01 00:00:00FILE "10 - Deep War.wav" WAVE TRACK 10 AUDIO TITLE "Deep War" PERFORMER "Sleepy Sun" INDEX 01 00:00:00FILE "11 - Lioness (Requiem).wav" WAVE TRACK 11 AUDIO TITLE "Lioness (Requiem)" PERFORMER "Sleepy Sun" INDEX 01 00:00:00


Трекер:  [ 18-Июл-2012 06:22 ]

  

Скачать .torrent

Размер .torrent файла 19 KB


Размер: 787 MB
Хэш (hash) релиза: f53259e2084669116a77515ea5d1bf3bacfd5aa8

Еще никто не оставлял запись к записи скачать торрент Sleepy Sun - Дискография - . Будь первым!

!Обратная связь