Скачать через торрент музыку Headspace - I Am Anonymous - 2012, FLAC бесплатно без регистрации torrent

Если у вас наблюдаются проблемы со скриншотами, переходом по ссылками, скачиванием торрентов - проблемы в блокировщике рекламы AdBlock. #хорошегоДня!


Статистика раздачи
Размер:  487 MB   |    Зарегистрирован:  5 лет 1 месяц   |    .torrent скачан:  27 раз   |   
Раздают:  1  
   
Загрузка...
 
Автор Сообщение

Umakiro

avatar Umakiro


Headspace / I Am Anonymous

Жанр: Heavy Prog
Год издания: 2012
Издатель (лейбл): InsideOut Music
Номер по каталогу: 0588-2
Страна: UK
Аудиокодек: FLAC (*.flac)
Тип рипа: tracks+.cue
Битрейт аудио: lossless
Продолжительность: 73:37
Источник (релизер): My CD
Наличие сканов в содержимом раздачи: да
Треклист:
1. Stalled Armageddon (8:07)
2. Fall Of America (10:28)
3. Soldier (3:44)
4. Die With A Bullet (8:25)
5. In Hell's Name (9:31)
6. Daddy Fucking Loves You (15:00)
7. Invasion (8:28)
8. The Big Day (9:54)
  
Exact Audio Copy V1.0 beta 3 from 29. August 2011

EAC extraction logfile from 17. July 2012, 16:52

Headspace / I Am Anonymous

Used drive : Optiarc DVD RW AD-7560A Adapter: 0 ID: 0

Read mode : SecureUtilize accurate stream : YesDefeat audio cache : YesMake use of C2 pointers : No

Read offset correction : 6Overread into Lead-In and Lead-Out : NoFill up missing offset samples with silence : YesDelete leading and trailing silent blocks : NoNull samples used in CRC calculations : YesUsed interface : Native Win32 interface for Win NT & 2000Gap handling : Appended to previous track

Used output format : User Defined EncoderSelected bitrate : 1024 kBit/sQuality : HighAdd ID3 tag : NoCommand line compressor : C:\Program Files\Exact Audio Copy\Flac\flac.exeAdditional command line options : -V -8 -T "Genre=%genre%" -T "Artist=%artist%" -T "Title=%title%" -T "Album=%albumtitle%" -T "Date=%year%" -T "Tracknumber=%tracknr%" -T "Comment=%comment%" %source%

TOC of the extracted CD

Track | Start | Length | Start sector | End sector --------------------------------------------------------- 1 | 0:00.00 | 8:06.27 | 0 | 36476 2 | 8:06.27 | 10:28.08 | 36477 | 83584 3 | 18:34.35 | 3:44.06 | 83585 | 100390 4 | 22:18.41 | 8:24.61 | 100391 | 138251 5 | 30:43.27 | 9:31.17 | 138252 | 181093 6 | 40:14.44 | 15:00.18 | 181094 | 248611 7 | 55:14.62 | 8:27.39 | 248612 | 286675 8 | 63:42.26 | 9:54.35 | 286676 | 331260

Track 1

Filename D:\Veushka\Headspace - I Am Anonymous 2012\01. Stalled Armageddon.wav

Pre-gap length 0:00:02.00

Peak level 99.2 % Extraction speed 3.1 X Track quality 99.9 % Test CRC 54A84612 Copy CRC 54A84612 Cannot be verified as accurate (confidence 2) [A3E3ED26], AccurateRip returned [4CE0B46E] (AR v2) Copy OK

Track 2

Filename D:\Veushka\Headspace - I Am Anonymous 2012\02. Fall Of America.wav

Peak level 99.2 % Extraction speed 3.7 X Track quality 99.9 % Test CRC 017EDE34 Copy CRC 017EDE34 Cannot be verified as accurate (confidence 2) [92CED682], AccurateRip returned [B71B3BA4] (AR v2) Copy OK

Track 3

Filename D:\Veushka\Headspace - I Am Anonymous 2012\03. Soldier.wav

Peak level 76.5 % Extraction speed 3.3 X Track quality 99.9 % Test CRC 2EE1A6B6 Copy CRC 2EE1A6B6 Cannot be verified as accurate (confidence 2) [C2F3BC6A], AccurateRip returned [D2011CC8] (AR v2) Copy OK

Track 4

Filename D:\Veushka\Headspace - I Am Anonymous 2012\04. Die With A Bullet.wav

Peak level 99.2 % Extraction speed 4.8 X Track quality 100.0 % Test CRC FB61CE72 Copy CRC FB61CE72 Cannot be verified as accurate (confidence 2) [FC2AB230], AccurateRip returned [2BAAAD57] (AR v2) Copy OK

Track 5

Filename D:\Veushka\Headspace - I Am Anonymous 2012\05. In Hell's Name.wav

Peak level 99.2 % Extraction speed 5.2 X Track quality 100.0 % Test CRC 69C9E839 Copy CRC 69C9E839 Cannot be verified as accurate (confidence 2) [467C1966], AccurateRip returned [6BCA96C9] (AR v2) Copy OK

Track 6

Filename D:\Veushka\Headspace - I Am Anonymous 2012\06. Daddy Fucking Loves You.wav

Peak level 99.2 % Extraction speed 5.9 X Track quality 100.0 % Test CRC F8CE111E Copy CRC F8CE111E Cannot be verified as accurate (confidence 2) [7B216E51], AccurateRip returned [5D5F0E6B] (AR v2) Copy OK

Track 7

Filename D:\Veushka\Headspace - I Am Anonymous 2012\07. Invasion.wav

Peak level 99.2 % Extraction speed 6.2 X Track quality 100.0 % Test CRC E1B656F2 Copy CRC E1B656F2 Cannot be verified as accurate (confidence 2) [B8981FA9], AccurateRip returned [86A96AE2] (AR v2) Copy OK

Track 8

Filename D:\Veushka\Headspace - I Am Anonymous 2012\08. The Big Day.wav

Peak level 99.2 % Extraction speed 6.6 X Track quality 100.0 % Test CRC 4A19CD6B Copy CRC 4A19CD6B Cannot be verified as accurate (confidence 2) [11CEEF74], AccurateRip returned [72AD5339] (AR v2) Copy OK

No tracks could be verified as accurateYou may have a different pressing from the one(s) in the database

No errors occurred

End of status report

==== Log checksum 562C7718E68ED2DEA3D52EBD2CA5F1C380C13BCE41816A75F16A99AEE473E75C ====
  
REM GENRE "Progressive Rock"REM DATE 2012REM DISCID 64114008REM COMMENT "ExactAudioCopy v1.0b3"PERFORMER "Headspace"TITLE "I Am Anonymous"FILE "01. Stalled Armageddon.wav" WAVE TRACK 01 AUDIO TITLE "Stalled Armageddon" PERFORMER "Headspace" INDEX 01 00:00:00FILE "02. Fall Of America.wav" WAVE TRACK 02 AUDIO TITLE "Fall Of America" PERFORMER "Headspace" INDEX 01 00:00:00FILE "03. Soldier.wav" WAVE TRACK 03 AUDIO TITLE "Soldier" PERFORMER "Headspace" INDEX 01 00:00:00FILE "04. Die With A Bullet.wav" WAVE TRACK 04 AUDIO TITLE "Die With A Bullet" PERFORMER "Headspace" INDEX 01 00:00:00FILE "05. In Hell's Name.wav" WAVE TRACK 05 AUDIO TITLE "In Hell's Name" PERFORMER "Headspace" INDEX 01 00:00:00FILE "06. Daddy Fucking Loves You.wav" WAVE TRACK 06 AUDIO TITLE "Daddy Fucking Loves You" PERFORMER "Headspace" INDEX 01 00:00:00FILE "07. Invasion.wav" WAVE TRACK 07 AUDIO TITLE "Invasion" PERFORMER "Headspace" INDEX 01 00:00:00FILE "08. The Big Day.wav" WAVE TRACK 08 AUDIO TITLE "The Big Day" PERFORMER "Headspace" INDEX 01 00:00:00
  
[CUETools log; Date: 17.07.2012 17:05:37; Version: 2.1.4][CTDB TOCID: z.1EI2CQrbleZad7sC4HXfWzUD0-] found.Track | CTDB Status 1 | (3/3) Accurately ripped 2 | (3/3) Accurately ripped 3 | (3/3) Accurately ripped 4 | (3/3) Accurately ripped 5 | (3/3) Accurately ripped 6 | (3/3) Accurately ripped 7 | (3/3) Accurately ripped 8 | (3/3) Accurately ripped[AccurateRip ID: 0015758c-00913c3b-64114008] found.Track [ CRC | V2 ] Status 01 [79e328c7|a3e3ed26] (0+0/2) No match 02 [222fc4d0|92ced682] (0+0/2) No match 03 [4a4ae551|c2f3bc6a] (0+0/2) No match 04 [2224a964|fc2ab230] (0+0/2) No match 05 [f19cc055|467c1966] (0+0/2) No match 06 [ffd10912|7b216e51] (0+0/2) No match 07 [3a086cc4|b8981fa9] (0+0/2) No match 08 [5a73c03a|11ceef74] (0+0/2) No matchOffsetted by -6: 01 [1f0e0393] (0/2) No match (V2 was not tested) 02 [418887cc] (0/2) No match (V2 was not tested) 03 [5b236783] (0/2) No match (V2 was not tested) 04 [4dadcc06] (0/2) No match (V2 was not tested) 05 [1272ab79] (0/2) No match (V2 was not tested) 06 [db020ff0] (0/2) No match (V2 was not tested) 07 [04259786] (0/2) No match (V2 was not tested) 08 [b6b902a8] (0/2) No match (V2 was not tested)

Track Peak [ CRC32 ] [W/O NULL] [ LOG ] -- 99,2 [9B34D595] [AF36BF98] 01 99,2 [54A84612] [D371C451] CRC32 02 99,2 [017EDE34] [B6F0E4BA] CRC32 03 76,5 [2EE1A6B6] [A3759FAA] CRC32 04 99,2 [FB61CE72] [AC1B7BD5] CRC32 05 99,2 [69C9E839] [7D60EDD7] CRC32 06 99,2 [F8CE111E] [4FBB7EA0] CRC32 07 99,2 [E1B656F2] [3BE270CA] CRC32 08 99,2 [4A19CD6B] [799C0D76] CRC32
Доп. информация: Этот альбом в mp3 скачан более 1000 раз; там немножко поломали копья на тему: уделали эти товарищи Haken или не уделали. Я лично считаю, что не уделали, но старались
- Damian Wilson / vocals
- Adam Wakeman / keyboards
- Richard Brook / drums
- Pete Rinaldi / guitar
- Lee Pomeroy / bass


Трекер:  [ 18-Июл-2012 06:22 ]

  

Скачать .torrent

Размер .torrent файла 20 KB


Размер: 487 MB
Хэш (hash) релиза: e737bb7cf5ad37285d098bddf2f4f33db28aba09

Еще никто не оставлял запись к записи скачать торрент Headspace - I Am Anonymous - 2012, FLAC . Будь первым!

!Обратная связь