Скачать через торрент музыку Ordinary Brainwash - Me 2.0 бесплатно без регистрации torrent

Если у вас наблюдаются проблемы со скриншотами, переходом по ссылками, скачиванием торрентов - проблемы в блокировщике рекламы AdBlock. #хорошегоДня!


Статистика раздачи
Размер:  310 MB   |    Зарегистрирован:  5 лет 3 месяца   |    .torrent скачан:  12 раз   |   
Раздают:  1  
   
Загрузка...
 
Автор Сообщение

Umakiro

avatar Umakiro


Ordinary Brainwash - Me 2.0 (2012)

Жанр: Crossover prog
Страна: Poland
Год выпуска диска: 2012
Label: Metal Mind
Catalog Nr.: MMPCD0706DG
Аудио кодек: FLAC
Тип рипа: image+.cue(test&copy)
Битрейт аудио: lossless
Источник: свой рип
Продолжительность: 47:09

Трэклист:

1. Outdated (6:08)
2. Me 2.0 (4:48)
3. Unbirthday (7:41)
4. Stay Foolish (5:48)
5. Don't Look Back (3:40)
6. Homesick (6:20)
7. Critical Error (6:21)
8. Something New (6:20)

Total time: 47:09

Музыкант
Rafał Żak - Vocals, Guitars, Keyboards, Synthesizers, Strings, Drums, Percussion, Bass
Exact Audio Copy V1.0 beta 3 from 29. August 2011

EAC extraction logfile from 15. July 2012, 23:38

Ordinary Brainwash / Me 2.0

Used drive : ASUS DRW-24B1LT Adapter: 4 ID: 0

Read mode : Secure
Utilize accurate stream : Yes
Defeat audio cache : Yes
Make use of C2 pointers : No

Read offset correction : 6
Overread into Lead-In and Lead-Out : No
Fill up missing offset samples with silence : Yes
Delete leading and trailing silent blocks : No
Null samples used in CRC calculations : Yes
Used interface : Native Win32 interface for Win NT & 2000

Used output format : User Defined Encoder
Selected bitrate : 1024 kBit/s
Quality : High
Add ID3 tag : Yes
Command line compressor : C:\Program Files (x86)\FLAC\flac.exe
Additional command line options : -6 -V -T "ARTIST=%artist%" -T "TITLE=%title%" -T "ALBUM=%albumtitle%" -T "DATE=%year%" -T "TRACKNUMBER=%tracknr%" -T "GENRE=%genre%" -T "COMMENT=%comment%" %source% -o %dest%

TOC of the extracted CD

Track | Start | Length | Start sector | End sector
---------------------------------------------------------
1 | 0:00.00 | 6:08.15 | 0 | 27614
2 | 6:08.15 | 4:48.23 | 27615 | 49237
3 | 10:56.38 | 7:41.37 | 49238 | 83849
4 | 18:38.00 | 5:48.37 | 83850 | 109986
5 | 24:26.37 | 3:40.32 | 109987 | 126518
6 | 28:06.69 | 6:21.00 | 126519 | 155093
7 | 34:27.69 | 6:21.37 | 155094 | 183705
8 | 40:49.31 | 6:20.37 | 183706 | 212242

Range status and errors

Selected range

Filename Y:\EAC\wurensh\Ordinary Brainwash\Ordinary Brainwash - Me 2.0.wav

Peak level 99.9 %
Extraction speed 7.4 X
Range quality 100.0 %
Test CRC 994A0CFF
Copy CRC 994A0CFF
Copy OK

No errors occurred

AccurateRip summary

Track 1 not present in database
Track 2 not present in database
Track 3 not present in database
Track 4 not present in database
Track 5 not present in database
Track 6 not present in database
Track 7 not present in database
Track 8 not present in database

None of the tracks are present in the AccurateRip database

End of status report

---- CUETools DB Plugin V2.1.3

[CTDB TOCID: NQmg2q74wqp9KFerCJEeIh0Z7P8-] disk not present in database, Submit result: NQmg2q74wqp9KFerCJEeIh0Z7P8- has been uploaded
[CUETools log; Date: 17.07.2012 22:12:40; Version: 2.1.4]
[CTDB TOCID: NQmg2q74wqp9KFerCJEeIh0Z7P8-] found.
Track | CTDB Status
1 | (1/1) Accurately ripped
2 | (1/1) Accurately ripped
3 | (1/1) Accurately ripped
4 | (1/1) Accurately ripped
5 | (1/1) Accurately ripped
6 | (1/1) Accurately ripped
7 | (1/1) Accurately ripped
8 | (1/1) Accurately ripped
[AccurateRip ID: 000e781c-006053b7-6a0b0d08] disk not present in database.

Track Peak [ CRC32 ] [W/O NULL] [ LOG ]
-- 99,9 [994A0CFF] [53A60EE6] CRC32
01 99,9 [1CEB2DC1] [6ED26E7E]
02 99,9 [FF6280FE] [E9AD863B]
03 99,9 [C6F70759] [7A7CE593]
04 99,9 [1AE8EF56] [E06875CC]
05 99,9 [2C6C3835] [6FAA5EA6]
06 99,9 [E883A38B] [39CB7A17]
07 99,9 [C0A36640] [6996EEDF]
08 99,9 [8887075E] [4E912857]
Коврики Digipack 300dpi в комплекте.
Progarchives info

Трекер:  [ 18-Июл-2012 06:23 ]

  

Скачать .torrent

Размер .torrent файла 13 KB


Размер: 310 MB
Хэш (hash) релиза: 88d97aa0a43b80fc2548baccfa8501acca053278

Торренты, похожие на Ordinary Brainwash - Me 2.0 скачать торрент

Форум Название Автор Размер S L Добавлен
Rосk | Mеtаl | Аltеrnаtivе, Рunk, Indереndеnt (mр3) ·· (Crossover prog) Ordinary Brainwash - Me 2.0 - 2012, MP3, 320 kbps Galfimbul 135066349129 MB 0 0 1339483200

09:40

12-Июн-12

Еще никто не оставлял запись к записи скачать торрент Ordinary Brainwash - Me 2.0 . Будь первым!

!Обратная связь