Скачать через торрент музыку Hoodoo Gurus - Purity Of Essence - 2010, FLAC бесплатно без регистрации torrent

Если у вас наблюдаются проблемы со скриншотами, переходом по ссылками, скачиванием торрентов - проблемы в блокировщике рекламы AdBlock. #хорошегоДня!


Статистика раздачи
Размер:  447 MB   |    Зарегистрирован:  5 лет 1 месяц   |    .torrent скачан:  23 раза   |   
Раздают:  1  
   
Загрузка...
 
Автор Сообщение

Umakiro

avatar Umakiro


Hoodoo Gurus / Purity Of Essence

Жанр: Rock
Страна-производитель диска: Australia
Год издания: 2010
Издатель (лейбл): Sony
Номер по каталогу: 88697670902
Страна: Australia
Аудиокодек: FLAC (*.flac)
Тип рипа: tracks+.cue
Битрейт аудио: lossless
Продолжительность: 01:01:18
Источник (релизер): вата (CrazyBull )
Наличие сканов в содержимом раздачи: нет

Треклист:

1. Crackin' Up 3:53
2. A Few Home Truths 3:33
3. Are You Sleeping? 4:38
4. Burnt Orange 3:02
5. I Hope You're Happy 3:44
6. Ashamed Of Me 3:36
7. What's In It For Me? 3:23
8. Over Nothing 5:01
9. You've Got Another Thing Coming 2:53
10. Only In America 4:46
11. Somebody Take Me Home 3:06
12. Let Me In 3:25
13. Evening Shade 3:41
14. Why So Sad? 4:28
15. 1968 2:39
16. The Stars Look Down 5:30
  
Exact Audio Copy V0.99 prebeta 5 from 4. May 2009

EAC extraction logfile from 20. September 2010, 20:58

Hoodoo Gurus / Purity Of Essence

Used drive : ASUS DRW-1612BL Adapter: 0 ID: 0

Read mode : SecureUtilize accurate stream : YesDefeat audio cache : YesMake use of C2 pointers : No

Read offset correction : 6Overread into Lead-In and Lead-Out : NoFill up missing offset samples with silence : YesDelete leading and trailing silent blocks : NoNull samples used in CRC calculations : YesUsed interface : Native Win32 interface for Win NT & 2000Gap handling : Appended to previous track

Used output format : User Defined EncoderSelected bitrate : 128 kBit/sQuality : HighAdd ID3 tag : NoCommand line compressor : C:\Program Files\Exact Audio Copy\Flac\flac.exeAdditional command line options : -V -8 -T "artist=%a" -T "title=%t" -T "album=%g" -T "date=%y" -T "tracknumber=%n" -T "genre=%m" %s

TOC of the extracted CD

Track | Start | Length | Start sector | End sector --------------------------------------------------------- 1 | 0:00.00 | 3:53.52 | 0 | 17526 2 | 3:53.52 | 3:33.09 | 17527 | 33510 3 | 7:26.61 | 4:38.32 | 33511 | 54392 4 | 12:05.18 | 3:02.34 | 54393 | 68076 5 | 15:07.52 | 3:44.45 | 68077 | 84921 6 | 18:52.22 | 3:36.60 | 84922 | 101181 7 | 22:29.07 | 3:23.43 | 101182 | 116449 8 | 25:52.50 | 5:01.24 | 116450 | 139048 9 | 30:53.74 | 2:53.49 | 139049 | 152072 10 | 33:47.48 | 4:46.32 | 152073 | 173554 11 | 38:34.05 | 3:06.10 | 173555 | 187514 12 | 41:40.15 | 3:25.28 | 187515 | 202917 13 | 45:05.43 | 3:41.47 | 202918 | 219539 14 | 48:47.15 | 4:28.25 | 219540 | 239664 15 | 53:15.40 | 2:39.11 | 239665 | 251600 16 | 55:54.51 | 5:30.16 | 251601 | 276366

Track 1

Filename E:\Music\Hoodoo Gurus - Purity Of Essence - flac\Hoodoo Gurus - Purity Of Essence - 01 - Crackin' Up.wav

Pre-gap length 0:00:02.00

Peak level 95.3 % Track quality 100.0 % Test CRC 19F9189E Copy CRC 19F9189E Accurately ripped (confidence 3) [A484B123] Copy OK

Track 2

Filename E:\Music\Hoodoo Gurus - Purity Of Essence - flac\Hoodoo Gurus - Purity Of Essence - 02 - A Few Home Truths.wav

Peak level 98.2 % Track quality 100.0 % Test CRC A2551E7E Copy CRC A2551E7E Accurately ripped (confidence 3) [473ED304] Copy OK

Track 3

Filename E:\Music\Hoodoo Gurus - Purity Of Essence - flac\Hoodoo Gurus - Purity Of Essence - 03 - Are You Sleeping .wav

Pre-gap length 0:00:00.94

Peak level 97.1 % Track quality 100.0 % Test CRC 73B14FC6 Copy CRC 73B14FC6 Accurately ripped (confidence 3) [2A69F885] Copy OK

Track 4

Filename E:\Music\Hoodoo Gurus - Purity Of Essence - flac\Hoodoo Gurus - Purity Of Essence - 04 - Burnt Orange.wav

Peak level 99.0 % Track quality 100.0 % Test CRC D00E713C Copy CRC D00E713C Accurately ripped (confidence 3) [B51BD4A7] Copy OK

Track 5

Filename E:\Music\Hoodoo Gurus - Purity Of Essence - flac\Hoodoo Gurus - Purity Of Essence - 05 - I Hope You're Happy.wav

Pre-gap length 0:00:00.72

Peak level 96.9 % Track quality 100.0 % Test CRC 671CFE20 Copy CRC 671CFE20 Accurately ripped (confidence 3) [EB65C0D3] Copy OK

Track 6

Filename E:\Music\Hoodoo Gurus - Purity Of Essence - flac\Hoodoo Gurus - Purity Of Essence - 06 - Ashamed Of Me.wav

Peak level 97.3 % Track quality 99.9 % Test CRC C9FEA016 Copy CRC C9FEA016 Accurately ripped (confidence 3) [53E1CB9B] Copy OK

Track 7

Filename E:\Music\Hoodoo Gurus - Purity Of Essence - flac\Hoodoo Gurus - Purity Of Essence - 07 - What's In It For Me .wav

Peak level 95.3 % Track quality 100.0 % Test CRC CA41C411 Copy CRC CA41C411 Accurately ripped (confidence 3) [7887BCF2] Copy OK

Track 8

Filename E:\Music\Hoodoo Gurus - Purity Of Essence - flac\Hoodoo Gurus - Purity Of Essence - 08 - Over Nothing.wav

Peak level 94.6 % Track quality 100.0 % Test CRC FB92621E Copy CRC FB92621E Accurately ripped (confidence 3) [39D824AC] Copy OK

Track 9

Filename E:\Music\Hoodoo Gurus - Purity Of Essence - flac\Hoodoo Gurus - Purity Of Essence - 09 - You've Got Another Thing Coming.wav

Peak level 96.3 % Track quality 99.9 % Test CRC 2025F85B Copy CRC 2025F85B Accurately ripped (confidence 3) [A1C5279B] Copy OK

Track 10

Filename E:\Music\Hoodoo Gurus - Purity Of Essence - flac\Hoodoo Gurus - Purity Of Essence - 10 - Only In America.wav

Peak level 97.3 % Track quality 100.0 % Test CRC F2E24836 Copy CRC F2E24836 Accurately ripped (confidence 3) [958C408C] Copy OK

Track 11

Filename E:\Music\Hoodoo Gurus - Purity Of Essence - flac\Hoodoo Gurus - Purity Of Essence - 11 - Somebody, Take Me Home.wav

Peak level 99.0 % Track quality 100.0 % Test CRC 01DCDD16 Copy CRC 01DCDD16 Accurately ripped (confidence 3) [9742541A] Copy OK

Track 12

Filename E:\Music\Hoodoo Gurus - Purity Of Essence - flac\Hoodoo Gurus - Purity Of Essence - 12 - Let Me In.wav

Pre-gap length 0:00:02.09

Peak level 95.8 % Track quality 100.0 % Test CRC 9C089A2E Copy CRC 9C089A2E Accurately ripped (confidence 3) [744F0608] Copy OK

Track 13

Filename E:\Music\Hoodoo Gurus - Purity Of Essence - flac\Hoodoo Gurus - Purity Of Essence - 13 - Evening Shade.wav

Pre-gap length 0:00:04.33

Peak level 95.2 % Track quality 100.0 % Test CRC 7BBE3535 Copy CRC 7BBE3535 Accurately ripped (confidence 3) [6324073C] Copy OK

Track 14

Filename E:\Music\Hoodoo Gurus - Purity Of Essence - flac\Hoodoo Gurus - Purity Of Essence - 14 - Why So Sad .wav

Pre-gap length 0:00:01.37

Peak level 96.5 % Track quality 100.0 % Test CRC D999427A Copy CRC D999427A Accurately ripped (confidence 3) [6EA2507F] Copy OK

Track 15

Filename E:\Music\Hoodoo Gurus - Purity Of Essence - flac\Hoodoo Gurus - Purity Of Essence - 15 - 1968.wav

Pre-gap length 0:00:01.58

Peak level 96.6 % Track quality 100.0 % Test CRC CA6FDFC2 Copy CRC CA6FDFC2 Accurately ripped (confidence 3) [018110D8] Copy OK

Track 16

Filename E:\Music\Hoodoo Gurus - Purity Of Essence - flac\Hoodoo Gurus - Purity Of Essence - 16 - The Stars Look Down.wav

Pre-gap length 0:00:02.34

Peak level 96.6 % Track quality 100.0 % Test CRC 16530714 Copy CRC 16530714 Accurately ripped (confidence 3) [6AF0C187] Copy OK

All tracks accurately ripped

No errors occurred

End of status report
  
REM GENRE RockREM DATE 2010REM DISCID E00E6410REM COMMENT "ExactAudioCopy v0.99pb5"FILE "Hoodoo Gurus - Purity Of Essence - 01 - Crackin' Up.wav" WAVE TRACK 01 AUDIO INDEX 01 00:00:00FILE "Hoodoo Gurus - Purity Of Essence - 02 - A Few Home Truths.wav" WAVE TRACK 02 AUDIO INDEX 01 00:00:00 TRACK 03 AUDIO INDEX 00 03:32:13FILE "Hoodoo Gurus - Purity Of Essence - 03 - Are You Sleeping .wav" WAVE INDEX 01 00:00:00FILE "Hoodoo Gurus - Purity Of Essence - 04 - Burnt Orange.wav" WAVE TRACK 04 AUDIO INDEX 01 00:00:00 TRACK 05 AUDIO INDEX 00 03:01:55FILE "Hoodoo Gurus - Purity Of Essence - 05 - I Hope You're Happy.wav" WAVE INDEX 01 00:00:00FILE "Hoodoo Gurus - Purity Of Essence - 06 - Ashamed Of Me.wav" WAVE TRACK 06 AUDIO INDEX 01 00:00:00FILE "Hoodoo Gurus - Purity Of Essence - 07 - What's In It For Me .wav" WAVE TRACK 07 AUDIO INDEX 01 00:00:00FILE "Hoodoo Gurus - Purity Of Essence - 08 - Over Nothing.wav" WAVE TRACK 08 AUDIO INDEX 01 00:00:00FILE "Hoodoo Gurus - Purity Of Essence - 09 - You've Got Another Thing Coming.wav" WAVE TRACK 09 AUDIO INDEX 01 00:00:00FILE "Hoodoo Gurus - Purity Of Essence - 10 - Only In America.wav" WAVE TRACK 10 AUDIO INDEX 01 00:00:00FILE "Hoodoo Gurus - Purity Of Essence - 11 - Somebody, Take Me Home.wav" WAVE TRACK 11 AUDIO INDEX 01 00:00:00 TRACK 12 AUDIO INDEX 00 03:04:03FILE "Hoodoo Gurus - Purity Of Essence - 12 - Let Me In.wav" WAVE INDEX 01 00:00:00 TRACK 13 AUDIO INDEX 00 03:21:03FILE "Hoodoo Gurus - Purity Of Essence - 13 - Evening Shade.wav" WAVE INDEX 01 00:00:00 TRACK 14 AUDIO INDEX 00 03:40:19FILE "Hoodoo Gurus - Purity Of Essence - 14 - Why So Sad .wav" WAVE INDEX 01 00:00:00 TRACK 15 AUDIO INDEX 00 04:26:56FILE "Hoodoo Gurus - Purity Of Essence - 15 - 1968.wav" WAVE INDEX 01 00:00:00 TRACK 16 AUDIO INDEX 00 02:36:60FILE "Hoodoo Gurus - Purity Of Essence - 16 - The Stars Look Down.wav" WAVE INDEX 01 00:00:00
Dave Faulkner – lead vocals, guitar
Rick Grossman – bass
Mark Kingsmill – drums
Brad Shepherd – guitar, vocals

Additional musicians

Andy Bickers – saxophone (tracks 4, 10)
Erina Clark – backing vocals (tracks 5, 10)
Ian Cooper – viola (track 8)
Garrett Costigan – pedal steel guitar (tracks 11, 16)
Anthony Kable – trombone (tracks 4, 10)
Adrian Keating – violin (track 8)
Stewart Kirwan – trumpet (tracks 4, 10)
Sophie Serafino – violin (track 8)
Prinnie Stevens – backing vocals (tracks 5, 10)


Трекер:  [ 18-Июл-2012 06:23 ]

  

Скачать .torrent

Размер .torrent файла 19 KB


Размер: 447 MB
Хэш (hash) релиза: 72447a4d644b0be54ce8ea59e79f07ba4fe788db

Еще никто не оставлял запись к записи скачать торрент Hoodoo Gurus - Purity Of Essence - 2010, FLAC . Будь первым!

!Обратная связь