Скачать через торрент музыку Geordie - The Best бесплатно без регистрации torrent

Если у вас наблюдаются проблемы со скриншотами, переходом по ссылками, скачиванием торрентов - проблемы в блокировщике рекламы AdBlock. #хорошегоДня!


Статистика раздачи
Размер:  1.6 GB   |    Зарегистрирован:  5 лет 4 месяца   |    .torrent скачан:  35 раз   |   
Раздают:  1  
   
Загрузка...
 
Автор Сообщение

Umakiro

avatar Umakiro


Geordie - The Best

Жанр: Glam Rock, Hard Rock
Страна-производитель диска: Germany
Год издания диска: 2011
Издатель (лейбл): Repertoire Records International
Номер по каталогу: 6400389
Страна: UK
Аудио кодек: FLAC (*.flac)
Тип рипа: image+.cue
Битрейт аудио: lossless
Продолжительность: 03:57:34
Источник (релизер): Victor
Наличие сканов в содержимом раздачи: да
Треклист:
01. Wonder Song 05:04
02. Can You Do It 03:13
03. Light In My Window 02:59
04. All Because Of You 02:45
05. Goodbye Love 03:23
06. Black Cat Woman 03:18
07. Give You Till Monday 04:00
08. Sweet Little Rock'n'Roller 03:00
09. Rock 'n' Roll (Alt.Version) 04:19
10. House Of The Rising Sun 04:59
11. No Sweat (Alt.Version) 03:18
12. Rockin' With The Boys Tonite 02:52
13. Save The World 03:04
14. Got To Know 03:24
15. Little Boy 04:41
16. Rock'n'Roll Fever 03:02
17. Move Away (Alt.Version) 04:09
18. Hope You Like It 03:41
19. Keep On Rockin' 03:21
20. Ain't It Just Like A Woman 03:52
21. So You Lose Again (Alt.Version) 03:31
22. Rocking Horse 03:21
  
Exact Audio Copy V1.0 beta 1 from 15. November 2010

EAC extraction logfile from 16. July 2012, 20:01

Geordie / The Best [CD1]

Used drive : ATAPI iHAP122 W Adapter: 1 ID: 0

Read mode : SecureUtilize accurate stream : YesDefeat audio cache : YesMake use of C2 pointers : No

Combined read/write offset correction : 6Overread into Lead-In and Lead-Out : NoFill up missing offset samples with silence : YesDelete leading and trailing silent blocks : NoNull samples used in CRC calculations : YesUsed interface : Native Win32 interface for Win NT & 2000

Used output format : Internal WAV RoutinesSample format : 44.100 Hz; 16 Bit; Stereo

TOC of the extracted CD

Track | Start | Length | Start sector | End sector --------------------------------------------------------- 1 | 0:00.00 | 5:04.69 | 0 | 22868 2 | 5:04.69 | 3:13.09 | 22869 | 37352 3 | 8:18.03 | 2:59.60 | 37353 | 50837 4 | 11:17.63 | 2:45.36 | 50838 | 63248 5 | 14:03.24 | 3:23.40 | 63249 | 78513 6 | 17:26.64 | 3:18.39 | 78514 | 93402 7 | 20:45.28 | 4:00.07 | 93403 | 111409 8 | 24:45.35 | 3:00.28 | 111410 | 124937 9 | 27:45.63 | 4:19.10 | 124938 | 144372 10 | 32:04.73 | 4:59.44 | 144373 | 166841 11 | 37:04.42 | 3:18.64 | 166842 | 181755 12 | 40:23.31 | 2:52.63 | 181756 | 194718 13 | 43:16.19 | 3:04.39 | 194719 | 208557 14 | 46:20.58 | 3:24.36 | 208558 | 223893 15 | 49:45.19 | 4:41.17 | 223894 | 244985 16 | 54:26.36 | 3:02.13 | 244986 | 258648 17 | 57:28.49 | 4:09.42 | 258649 | 277365 18 | 61:38.16 | 3:41.44 | 277366 | 293984 19 | 65:19.60 | 3:21.72 | 293985 | 309131 20 | 68:41.57 | 3:52.13 | 309132 | 326544 21 | 72:33.70 | 3:31.36 | 326545 | 342405 22 | 76:05.31 | 3:21.69 | 342406 | 357549

Range status and errors

Selected range

Filename C:\MusBox\Geordie - The Best [CD1].wav

Peak level 100.0 % Extraction speed 0.4 X Range quality 100.0 % Copy CRC AC7DB67A Copy OK

No errors occurred

End of status report
  
REM GENRE RockREM DATE 2011REM DISCID 54129F16REM COMMENT "ExactAudioCopy v1.0b1"PERFORMER "Geordie"TITLE "The Best [CD1]"FILE "Geordie - The Best [CD1].flac" WAVE TRACK 01 AUDIO TITLE "Wonder Song" PERFORMER "Geordie" INDEX 01 00:00:00 TRACK 02 AUDIO TITLE "Can You Do It" PERFORMER "Geordie" INDEX 01 05:04:69 TRACK 03 AUDIO TITLE "Light In My Window" PERFORMER "Geordie" INDEX 01 08:18:03 TRACK 04 AUDIO TITLE "All Because Of You" PERFORMER "Geordie" INDEX 01 11:17:63 TRACK 05 AUDIO TITLE "Goodbye Love" PERFORMER "Geordie" INDEX 01 14:03:24 TRACK 06 AUDIO TITLE "Black Cat Woman" PERFORMER "Geordie" INDEX 01 17:26:64 TRACK 07 AUDIO TITLE "Give You Till Monday" PERFORMER "Geordie" INDEX 01 20:45:28 TRACK 08 AUDIO TITLE "Sweet Little Rock'n'Roller" PERFORMER "Geordie" INDEX 01 24:45:35 TRACK 09 AUDIO TITLE "Rock 'n' Roll (Alt.Version)" PERFORMER "Geordie" INDEX 01 27:45:63 TRACK 10 AUDIO TITLE "House Of The Rising Sun" PERFORMER "Geordie" INDEX 01 32:04:73 TRACK 11 AUDIO TITLE "No Sweat (Alt.Version)" PERFORMER "Geordie" INDEX 01 37:04:42 TRACK 12 AUDIO TITLE "Rockin' With The Boys Tonite" PERFORMER "Geordie" INDEX 01 40:23:31 TRACK 13 AUDIO TITLE "Save The World" PERFORMER "Geordie" INDEX 01 43:16:19 TRACK 14 AUDIO TITLE "Got To Know" PERFORMER "Geordie" INDEX 01 46:20:58 TRACK 15 AUDIO TITLE "Little Boy" PERFORMER "Geordie" INDEX 01 49:45:19 TRACK 16 AUDIO TITLE "Rock'n'Roll Fever" PERFORMER "Geordie" INDEX 01 54:26:36 TRACK 17 AUDIO TITLE "Move Away (Alt.Version)" PERFORMER "Geordie" INDEX 01 57:28:49 TRACK 18 AUDIO TITLE "Hope You Like It" PERFORMER "Geordie" INDEX 01 61:38:16 TRACK 19 AUDIO TITLE "Keep On Rockin'" PERFORMER "Geordie" INDEX 01 65:19:60 TRACK 20 AUDIO TITLE "Ain't It Just Like A Woman" PERFORMER "Geordie" INDEX 01 68:41:57 TRACK 21 AUDIO TITLE "So You Lose Again (Alt.Version)" PERFORMER "Geordie" INDEX 01 72:33:70 TRACK 22 AUDIO TITLE "Rocking Horse" PERFORMER "Geordie" INDEX 01 76:05:31
  
-----------------------

DON'T MODIFY THIS FILE

-----------------------

PERFORMER: auCDtect Task Manager, ver. 1.5.1RC4 build 1.5.1.5Copyright (c) 2008-2010 y-soft. All rights reservedhttp://y-soft.org

ANALYZER: auCDtect: CD records authenticity detector, version 0.8.2Copyright (c) 2004 Oleg Berngardt. All rights reserved.Copyright (c) 2004 Alexander Djourik. All rights reserved.

FILE: Geordie - The Best [CD1].flac Size: 573496524 Hash: 2D50E912B33C865C168DE2BB9B91CA48 Accuracy: -m8 Conclusion: CDDA 100% Signature: 4470F8C480DFF8F76591E90FB026FBCE673CC668
01. No Good Woman 04:00
02. Geordie Stomp 02:42
03. Don't Do That 03:11
04. Treat Her Like A Lady 03:37
05. Ten Feet Tall 06:41
06. Going To The City 03:27
07. Oh No! 03:27
08. Ride On Baby 02:37
09. Ain't It A Shame 03:47
10. We're All Right Now 03:16
11. Electric Lady 02:56
12. Red Eyed Lady 03:03
13. She's A Lady 03:03
14. Natural Born Looser 04:15
15. Show Business 02:59
16. She's A Teaser 03:19
17. Time To Run 03:57
18. This Time 02:50
19. You Do This To Me 03:12
20. Francis Was A Rocker 02:54
21. Mama's Gonna Take You Home 02:54
22. Strange Man 03:32
23. Goin' Down 03:34
  
Exact Audio Copy V1.0 beta 1 from 15. November 2010

EAC extraction logfile from 16. July 2012, 20:18

Geordie / The Best [CD2]

Used drive : ATAPI iHAP122 W Adapter: 1 ID: 0

Read mode : SecureUtilize accurate stream : YesDefeat audio cache : YesMake use of C2 pointers : No

Combined read/write offset correction : 6Overread into Lead-In and Lead-Out : NoFill up missing offset samples with silence : YesDelete leading and trailing silent blocks : NoNull samples used in CRC calculations : YesUsed interface : Native Win32 interface for Win NT & 2000

Used output format : Internal WAV RoutinesSample format : 44.100 Hz; 16 Bit; Stereo

TOC of the extracted CD

Track | Start | Length | Start sector | End sector --------------------------------------------------------- 1 | 0:00.00 | 4:00.69 | 0 | 18068 2 | 4:00.69 | 2:42.53 | 18069 | 30271 3 | 6:43.47 | 3:11.00 | 30272 | 44596 4 | 9:54.47 | 3:37.21 | 44597 | 60892 5 | 13:31.68 | 6:41.23 | 60893 | 90990 6 | 20:13.16 | 3:27.30 | 90991 | 106545 7 | 23:40.46 | 3:27.71 | 106546 | 122141 8 | 27:08.42 | 2:37.48 | 122142 | 133964 9 | 29:46.15 | 3:47.06 | 133965 | 150995 10 | 33:33.21 | 3:16.13 | 150996 | 165708 11 | 36:49.34 | 2:56.65 | 165709 | 178973 12 | 39:46.24 | 3:03.40 | 178974 | 192738 13 | 42:49.64 | 3:03.69 | 192739 | 206532 14 | 45:53.58 | 4:15.51 | 206533 | 225708 15 | 50:09.34 | 2:59.73 | 225709 | 239206 16 | 53:09.32 | 3:19.42 | 239207 | 254173 17 | 56:28.74 | 3:57.37 | 254174 | 271985 18 | 60:26.36 | 2:50.39 | 271986 | 284774 19 | 63:17.00 | 3:12.17 | 284775 | 299191 20 | 66:29.17 | 2:54.56 | 299192 | 312297 21 | 69:23.73 | 2:54.54 | 312298 | 325401 22 | 72:18.52 | 3:32.05 | 325402 | 341306 23 | 75:50.57 | 3:34.56 | 341307 | 357412

Range status and errors

Selected range

Filename C:\MusBox\Geordie - The Best [CD2].wav

Peak level 100.0 % Extraction speed 0.4 X Range quality 100.0 % Copy CRC 0633000E Copy OK

No errors occurred

End of status report
  
REM GENRE RockREM DATE 2011REM DISCID 3F129D17REM COMMENT "ExactAudioCopy v1.0b1"PERFORMER "Geordie"TITLE "The Best [CD2]"FILE "Geordie - The Best [CD2].flac" WAVE TRACK 01 AUDIO TITLE "No Good Woman" PERFORMER "Geordie" INDEX 01 00:00:00 TRACK 02 AUDIO TITLE "Geordie Stomp" PERFORMER "Geordie" INDEX 01 04:00:69 TRACK 03 AUDIO TITLE "Don't Do That" PERFORMER "Geordie" INDEX 01 06:43:47 TRACK 04 AUDIO TITLE "Treat Her Like A Lady" PERFORMER "Geordie" INDEX 01 09:54:47 TRACK 05 AUDIO TITLE "Ten Feet Tall" PERFORMER "Geordie" INDEX 01 13:31:68 TRACK 06 AUDIO TITLE "Going To The City" PERFORMER "Geordie" INDEX 01 20:13:16 TRACK 07 AUDIO TITLE "Oh No!" PERFORMER "Geordie" INDEX 01 23:40:46 TRACK 08 AUDIO TITLE "Ride On Baby" PERFORMER "Geordie" INDEX 01 27:08:42 TRACK 09 AUDIO TITLE "Ain't It A Shame" PERFORMER "Geordie" INDEX 01 29:46:15 TRACK 10 AUDIO TITLE "We're All Right Now" PERFORMER "Geordie" INDEX 01 33:33:21 TRACK 11 AUDIO TITLE "Electric Lady" PERFORMER "Geordie" INDEX 01 36:49:34 TRACK 12 AUDIO TITLE "Red Eyed Lady" PERFORMER "Geordie" INDEX 01 39:46:24 TRACK 13 AUDIO TITLE "She's A Lady" PERFORMER "Geordie" INDEX 01 42:49:64 TRACK 14 AUDIO TITLE "Natural Born Looser" PERFORMER "Geordie" INDEX 01 45:53:58 TRACK 15 AUDIO TITLE "Show Business" PERFORMER "Geordie" INDEX 01 50:09:34 TRACK 16 AUDIO TITLE "She's A Teaser" PERFORMER "Geordie" INDEX 01 53:09:32 TRACK 17 AUDIO TITLE "Time To Run" PERFORMER "Geordie" INDEX 01 56:28:74 TRACK 18 AUDIO TITLE "This Time" PERFORMER "Geordie" INDEX 01 60:26:36 TRACK 19 AUDIO TITLE "You Do This To Me" PERFORMER "Geordie" INDEX 01 63:17:00 TRACK 20 AUDIO TITLE "Francis Was A Rocker" PERFORMER "Geordie" INDEX 01 66:29:17 TRACK 21 AUDIO TITLE "Mama's Gonna Take You Home" PERFORMER "Geordie" INDEX 01 69:23:73 TRACK 22 AUDIO TITLE "Strange Man" PERFORMER "Geordie" INDEX 01 72:18:52 TRACK 23 AUDIO TITLE "Goin' Down" PERFORMER "Geordie" INDEX 01 75:50:57
  
-----------------------

DON'T MODIFY THIS FILE

-----------------------

PERFORMER: auCDtect Task Manager, ver. 1.5.1RC4 build 1.5.1.5Copyright (c) 2008-2010 y-soft. All rights reservedhttp://y-soft.org

ANALYZER: auCDtect: CD records authenticity detector, version 0.8.2Copyright (c) 2004 Oleg Berngardt. All rights reserved.Copyright (c) 2004 Alexander Djourik. All rights reserved.

FILE: Geordie - The Best [CD2].flac Size: 575202378 Hash: 567D2B9ED9ACDB8E14BB5E399D1E1313 Accuracy: -m8 Conclusion: CDDA 100% Signature: 6D36D076EBFF5CA9354F9B635BFD3F2F2D33CC1C
01. Hungry 03:43
02. No Sweat 03:24
03. Fire Queen 03:36
04. Rock 'n' Roll 04:56
05. Give It All You Got 04:47
06. Move Away 03:46
07. So You Lose Again 03:44
08. So What 04:12
09. Dollars-Deutsche Marks 02:48
10. Oh Lord 05:10
11. Old Time Rocker 03:24
12. Mercenary Man 06:15
13. You've Got It 05:36
14. We Make It Rock 03:36
15. Victoria 03:28
16. Geordie's Lost His Liggie 03:27
17. Look At Me 05:00
18. I Cried Today 03:40
19. I Remember 04:01
  
Exact Audio Copy V1.0 beta 1 from 15. November 2010

EAC extraction logfile from 16. July 2012, 20:34

Geordie / The Best [CD3]

Used drive : ATAPI iHAP122 W Adapter: 1 ID: 0

Read mode : SecureUtilize accurate stream : YesDefeat audio cache : YesMake use of C2 pointers : No

Combined read/write offset correction : 6Overread into Lead-In and Lead-Out : NoFill up missing offset samples with silence : YesDelete leading and trailing silent blocks : NoNull samples used in CRC calculations : YesUsed interface : Native Win32 interface for Win NT & 2000

Used output format : Internal WAV RoutinesSample format : 44.100 Hz; 16 Bit; Stereo

TOC of the extracted CD

Track | Start | Length | Start sector | End sector --------------------------------------------------------- 1 | 0:00.00 | 3:43.00 | 0 | 16724 2 | 3:43.00 | 3:24.66 | 16725 | 32090 3 | 7:07.66 | 3:36.14 | 32091 | 48304 4 | 10:44.05 | 4:56.56 | 48305 | 70560 5 | 15:40.61 | 4:47.59 | 70561 | 92144 6 | 20:28.45 | 3:46.33 | 92145 | 109127 7 | 24:15.03 | 3:44.64 | 109128 | 125991 8 | 27:59.67 | 4:12.10 | 125992 | 144901 9 | 32:12.02 | 2:48.30 | 144902 | 157531 10 | 35:00.32 | 5:10.29 | 157532 | 180810 11 | 40:10.61 | 3:24.42 | 180811 | 196152 12 | 43:35.28 | 6:15.03 | 196153 | 224280 13 | 49:50.31 | 5:36.14 | 224281 | 249494 14 | 55:26.45 | 3:36.44 | 249495 | 265738 15 | 59:03.14 | 3:28.02 | 265739 | 281340 16 | 62:31.16 | 3:27.38 | 281341 | 296903 17 | 65:58.54 | 5:00.34 | 296904 | 319437 18 | 70:59.13 | 3:40.33 | 319438 | 335970 19 | 74:39.46 | 4:01.12 | 335971 | 354057

Range status and errors

Selected range

Filename C:\MusBox\Geordie - The Best [CD3].wav

Peak level 100.0 % Extraction speed 0.5 X Range quality 100.0 % Copy CRC E7040446 Copy OK

No errors occurred

End of status report
  
REM GENRE RockREM DATE 2011REM DISCID 09127013REM COMMENT "ExactAudioCopy v1.0b1"PERFORMER "Geordie"TITLE "The Best [CD3]"FILE "Geordie - The Best [CD3].flac" WAVE TRACK 01 AUDIO TITLE "Hungry" PERFORMER "Geordie" INDEX 01 00:00:00 TRACK 02 AUDIO TITLE "No Sweat" PERFORMER "Geordie" INDEX 01 03:43:00 TRACK 03 AUDIO TITLE "Fire Queen" PERFORMER "Geordie" INDEX 01 07:07:66 TRACK 04 AUDIO TITLE "Rock 'n' Roll" PERFORMER "Geordie" INDEX 01 10:44:05 TRACK 05 AUDIO TITLE "Give It All You Got" PERFORMER "Geordie" INDEX 01 15:40:61 TRACK 06 AUDIO TITLE "Move Away" PERFORMER "Geordie" INDEX 01 20:28:45 TRACK 07 AUDIO TITLE "So You Lose Again" PERFORMER "Geordie" INDEX 01 24:15:03 TRACK 08 AUDIO TITLE "So What" PERFORMER "Geordie" INDEX 01 27:59:67 TRACK 09 AUDIO TITLE "Dollars-Deutsche Marks" PERFORMER "Geordie" INDEX 01 32:12:02 TRACK 10 AUDIO TITLE "Oh Lord" PERFORMER "Geordie" INDEX 01 35:00:32 TRACK 11 AUDIO TITLE "Old Time Rocker" PERFORMER "Geordie" INDEX 01 40:10:61 TRACK 12 AUDIO TITLE "Mercenary Man" PERFORMER "Geordie" INDEX 01 43:35:28 TRACK 13 AUDIO TITLE "You've Got It" PERFORMER "Geordie" INDEX 01 49:50:31 TRACK 14 AUDIO TITLE "We Make It Rock" PERFORMER "Geordie" INDEX 01 55:26:45 TRACK 15 AUDIO TITLE "Victoria" PERFORMER "Geordie" INDEX 01 59:03:14 TRACK 16 AUDIO TITLE "Geordie's Lost His Liggie" PERFORMER "Geordie" INDEX 01 62:31:16 TRACK 17 AUDIO TITLE "Look At Me" PERFORMER "Geordie" INDEX 01 65:58:54 TRACK 18 AUDIO TITLE "I Cried Today" PERFORMER "Geordie" INDEX 01 70:59:13 TRACK 19 AUDIO TITLE "I Remember" PERFORMER "Geordie" INDEX 01 74:39:46
  
-----------------------

DON'T MODIFY THIS FILE

-----------------------

PERFORMER: auCDtect Task Manager, ver. 1.5.1RC4 build 1.5.1.5Copyright (c) 2008-2010 y-soft. All rights reservedhttp://y-soft.org

ANALYZER: auCDtect: CD records authenticity detector, version 0.8.2Copyright (c) 2004 Oleg Berngardt. All rights reserved.Copyright (c) 2004 Alexander Djourik. All rights reserved.

FILE: Geordie - The Best [CD3].flac Size: 559687200 Hash: 80843E491D2ECA82271DC056A91C220E Accuracy: -m8 Conclusion: CDDA 100% Signature: 50DB123444FB55CDE6BD9783BF24CC9B7A92DDE8
Доп. информация
Brian Johnson - vocal
Vic Malcolm - guitar, vocal
Tom Hill - bass
Brian Gibson - drums
Geordie — британская рок-группа, образовавшася в 1972 году в Ньюкасле, Англия, и исполнявшая хард-рок с элементами глэма и блюз-рока.
Их первый сингл, "Не делай этого" (Don't Do That) ворвался в Топ 40 UK в декабре 1972 года. В марте 1973 года, Джорди выпустили свой дебютный альбом "Hope You Like It" на Regal, лейбле EMI, Zonophone. В попытке конкурировать с такими группами британского глэм-рока, как Slade и Sweet, Джорди смогли войти в Топ 10-ку хитов UK - с песней "All Because Of You" в апреле 1973 (#6) и в Топ 20 хитов UK с "Can You Do It" в июле 1973, несколько раз появляясь на телевидении, в том числе - BBC Top Of The Pops в ноябре 1972 года. Но второй альбом "Don't Be Fooled By The Name" (1974), включавший ковер-версию известной песни The Animals - "House Of The Rising Sun", не позволил им сделать прорыв. Коммерчески альбом провалился. После их альбома 1976 года "Save The World", фронтмен Джонсон отправился в сольный проект. Последний альбом группы "No Good Woman", вышедший в 1978 году, состоял из трех неизданных треков с Джонсоном и нового материала, записанного Вики Малькольмом с будущим клавишником Dire Straits - Аланом Кларком, вокалистом Дэйвом Дитчберном, басистом Франком Гиббоном и барабанщиком Джорджем Дифтаем. Тем не менее, Брайан Джонсон в это время начал работать в Geordie нового состава, в котором он был единственным из первоначальных членов.
Вскоре после распада Geordie вокалист Брайан Джонсон заменил Бона Скотта (AC/DC). В 1983 году участники Geordie воссоединились (без Джонсона), выпустили альбом "No Sweat", а после ухода Вика Малкольма переименовались в Powerhouse, и в 1986 году выпустила одноимённый альбом "Powerhouse" (фирма Ambush Records).


Трекер:  [ 18-Июл-2012 06:23 ]

  

Скачать .torrent

Размер .torrent файла 18 KB


Размер: 1.6 GB
Хэш (hash) релиза: 12dad30f6e3327fa04cdd41465d29e4c580a7ae5

Еще никто не оставлял запись к записи скачать торрент Geordie - The Best . Будь первым!

!Обратная связь