Скачать через торрент музыку Robert Palmer - Collection, 8 Albums & 1 Single - 1975-1994, FLAC бесплатно без регистрации torrent

Если у вас наблюдаются проблемы со скриншотами, переходом по ссылками, скачиванием торрентов - проблемы в блокировщике рекламы AdBlock. #хорошегоДня!


Статистика раздачи
Размер:  2.58 GB   |    Зарегистрирован:  5 лет 4 месяца   |    .torrent скачан:  17 раз   |   
Раздают:  1  
   
Загрузка...
 
Автор Сообщение

Umakiro

avatar Umakiro


Robert Palmer – 8 Albums & 1 Single



Жанр: Rock, Pop-Rock
Страна-производитель диска: USA, UK, Germany
Годы издания: 1975-1994
Издатель (лейбл): Island Records, Karussell Ltd, EMI Records
Страна исполнителя: United Kingdom
Аудиокодек: FLAC (*.flac)
Тип рипа: image+.cue
Битрейт аудио: lossless
Продолжительность: 5:10:34
Rip by flac jacket
Наличие сканов в содержимом раздачи: да
Издатель (лейбл): Island Records
Номер по каталогу: 7 90087-2
Продолжительность: 37:30

Треклист:
01. Give Me An Inch (3:18)
02. Work To Make It Work (4:08)
03. Back In My Arms (3:33)
04. River Boat (3:48)
05. Pressure Drop (5:29)
06. Here With You Tonight (4:56)
07. Trouble (3:01)
08. Fine Time (5:52)
09. Which Of Us Is The Fool (3:25)
  
Exact Audio Copy V1.0 beta 2 from 29. April 2011

EAC extraction logfile from 22. June 2012, 19:46

Robert Palmer / Pressure Drop

Used drive : HL-DT-STDVDRAM GH60N Adapter: 0 ID: 1

Read mode : SecureUtilize accurate stream : YesDefeat audio cache : YesMake use of C2 pointers : No

Read offset correction : 667Overread into Lead-In and Lead-Out : NoFill up missing offset samples with silence : YesDelete leading and trailing silent blocks : NoNull samples used in CRC calculations : YesUsed interface : Native Win32 interface for Win NT & 2000

Used output format : User Defined EncoderSelected bitrate : 1024 kBit/sQuality : HighAdd ID3 tag : NoCommand line compressor : C:\Program Files (x86)\Exact Audio Copy\Flac\flac.exeAdditional command line options : -V -8 -T "artist=%albumartist%" -T "title=%title%" -T "album=%albumtitle%" -T "date=%year%" -T "genre=%genre%" -T "tracknumber=%tracknr%" %source%

TOC of the extracted CD

Track | Start | Length | Start sector | End sector --------------------------------------------------------- 1 | 0:00.30 | 3:18.07 | 30 | 14886 2 | 3:18.37 | 4:08.23 | 14887 | 33509 3 | 7:26.60 | 3:33.00 | 33510 | 49484 4 | 10:59.60 | 3:47.42 | 49485 | 66551 5 | 14:47.27 | 5:28.65 | 66552 | 91216 6 | 20:16.17 | 4:56.08 | 91217 | 113424 7 | 25:12.25 | 3:00.62 | 113425 | 126986 8 | 28:13.12 | 5:51.43 | 126987 | 153354 9 | 34:04.55 | 3:25.15 | 153355 | 168744

Range status and errors

Selected range

Filename C:\EAC\Robert Palmer - (1975) Pressure Drop\Robert Palmer - Pressure Drop.wav

Peak level 100.0 % Extraction speed 1.5 X Range quality 99.9 % Test CRC 7613F8C1 Copy CRC 7613F8C1 Copy OK

No errors occurred

AccurateRip summary

Track 1 cannot be verified as accurate (confidence 7) [B4102363], AccurateRip returned [12BDBE87] (AR v2)Track 2 cannot be verified as accurate (confidence 7) [B1BBE1B9], AccurateRip returned [63B48634] (AR v2)Track 3 cannot be verified as accurate (confidence 7) [CCF398CF], AccurateRip returned [CEF0827E] (AR v2)Track 4 cannot be verified as accurate (confidence 7) [6D1548D3], AccurateRip returned [549C6ADA] (AR v2)Track 5 cannot be verified as accurate (confidence 7) [3FA1E8E6], AccurateRip returned [40321C3F] (AR v2)Track 6 cannot be verified as accurate (confidence 7) [76947795], AccurateRip returned [1F255DD5] (AR v2)Track 7 cannot be verified as accurate (confidence 7) [2BE01938], AccurateRip returned [748C15E7] (AR v2)Track 8 cannot be verified as accurate (confidence 7) [70218C05], AccurateRip returned [8CF7C5D0] (AR v2)Track 9 cannot be verified as accurate (confidence 7) [FB088C05], AccurateRip returned [D26FFC06] (AR v2)

No tracks could be verified as accurateYou may have a different pressing from the one(s) in the database

End of status report

==== Log checksum D8203E49102268BB41221A3349C850C44011A12DF994CF6CC6CF8919B7E4F0AD ====
  
REM GENRE RockREM DATE 1975REM DISCID 7208C909REM COMMENT "ExactAudioCopy v1.0b2"PERFORMER "Robert Palmer"TITLE "Pressure Drop"FILE "Robert Palmer - Pressure Drop.flac" WAVE TRACK 01 AUDIO TITLE "Give Me An Inch" PERFORMER "Robert Palmer" INDEX 00 00:00:00 INDEX 01 00:00:30 TRACK 02 AUDIO TITLE "Work To Make It Work" PERFORMER "Robert Palmer" INDEX 00 03:17:22 INDEX 01 03:18:37 TRACK 03 AUDIO TITLE "Back In My Arms" PERFORMER "Robert Palmer" INDEX 00 07:22:17 INDEX 01 07:26:60 TRACK 04 AUDIO TITLE "River Boat" PERFORMER "Robert Palmer" INDEX 00 10:58:42 INDEX 01 10:59:60 TRACK 05 AUDIO TITLE "Pressure Drop" PERFORMER "Robert Palmer" INDEX 00 14:44:02 INDEX 01 14:47:27 TRACK 06 AUDIO TITLE "Here With You Tonight" PERFORMER "Robert Palmer" INDEX 00 20:13:25 INDEX 01 20:16:17 TRACK 07 AUDIO TITLE "Trouble" PERFORMER "Robert Palmer" INDEX 00 25:09:27 INDEX 01 25:12:25 TRACK 08 AUDIO TITLE "Fine Time" PERFORMER "Robert Palmer" INDEX 01 28:13:12 TRACK 09 AUDIO TITLE "Which Of Us Is The Fool" PERFORMER "Robert Palmer" INDEX 00 34:02:22 INDEX 01 34:04:55
  
[CUETools log; Date: 13.07.2012 23:58:31; Version: 2.0.9]Pregap length 00:00:30.[AccurateRip ID: 000c7c11-005cdcdc-7208c909] found.Track [ CRC ] Status 01 [87b0f427] (0/7) No match 02 [8e0267be] (0/7) No match 03 [bb86f435] (0/7) No match 04 [e404a41d] (0/7) No match 05 [bcda6598] (0/7) No match 06 [d91d385b] (0/7) No match 07 [a2ed79bf] (0/7) No match 08 [e344502d] (0/7) No match 09 [bb6352e4] (0/7) No matchOffsetted by -1353: 01 [12bdbe87] (7/7) Accurately ripped 02 [63b48634] (7/7) Accurately ripped 03 [cef0827e] (7/7) Accurately ripped 04 [549c6ada] (7/7) Accurately ripped 05 [40321c3f] (7/7) Accurately ripped 06 [1f255dd5] (7/7) Accurately ripped 07 [748c15e7] (7/7) Accurately ripped 08 [8cf7c5d0] (7/7) Accurately ripped 09 [d26ffc06] (7/7) Accurately ripped

Track Peak [ CRC32 ] [W/O NULL] [ LOG ] -- 100,0 [7613F8C1] [84A5E949] CRC32 01 78,8 [995883C2] [6914C46E] 02 85,5 [A05E02BF] [DF550758] 03 87,0 [C5636E93] [5ACC4DF3] 04 83,1 [A73C59F5] [8E5DC57D] 05 99,9 [4F5FD01A] [56531CBA] 06 100,0 [55D3AFFF] [369588E6] 07 96,5 [69B2BCEE] [A3D003F4] 08 88,0 [17240D50] [D9E63679] 09 94,8 [4A95BDBE] [5F068142]
Издатель (лейбл): Island Records
Номер по каталогу: 7 90494-2
Продолжительность: 35:25

Треклист:
01. Every Kinda People (3:19)
02. Best Of Both Worlds (3:59)
03. Come Over (4:10)
04. Where Can It Go? (3:22)
05. Night People (4:18)
06. Love Can Run Faster (4:08)
07. You Overwhelm Me (3:11)
08. You Really Got Me (4:27)
09. You're Gonna Get What's Coming (4:31)
  
Exact Audio Copy V1.0 beta 2 from 29. April 2011

EAC extraction logfile from 23. June 2012, 17:15

Robert Palmer / Double Fun

Used drive : HL-DT-STDVDRAM GH60N Adapter: 0 ID: 1

Read mode : SecureUtilize accurate stream : YesDefeat audio cache : YesMake use of C2 pointers : No

Read offset correction : 667Overread into Lead-In and Lead-Out : NoFill up missing offset samples with silence : YesDelete leading and trailing silent blocks : NoNull samples used in CRC calculations : YesUsed interface : Native Win32 interface for Win NT & 2000

Used output format : User Defined EncoderSelected bitrate : 1024 kBit/sQuality : HighAdd ID3 tag : NoCommand line compressor : C:\Program Files (x86)\Exact Audio Copy\Flac\flac.exeAdditional command line options : -V -8 -T "artist=%albumartist%" -T "title=%title%" -T "album=%albumtitle%" -T "date=%year%" -T "genre=%genre%" -T "tracknumber=%tracknr%" %source%

TOC of the extracted CD

Track | Start | Length | Start sector | End sector --------------------------------------------------------- 1 | 0:00.32 | 3:19.15 | 32 | 14971 2 | 3:19.47 | 3:59.33 | 14972 | 32929 3 | 7:19.05 | 4:10.35 | 32930 | 51714 4 | 11:29.40 | 3:21.40 | 51715 | 66829 5 | 14:51.05 | 4:17.67 | 66830 | 86171 6 | 19:08.72 | 4:07.68 | 86172 | 104764 7 | 23:16.65 | 3:11.10 | 104765 | 119099 8 | 26:28.00 | 4:27.10 | 119100 | 139134 9 | 30:55.10 | 4:30.52 | 139135 | 159436

Range status and errors

Selected range

Filename C:\EAC\Robert Palmer - (1978) Double Fun\Robert Palmer - Double Fun.wav

Peak level 100.0 % Extraction speed 1.5 X Range quality 99.9 % Test CRC 0B3D8930 Copy CRC 0B3D8930 Copy OK

No errors occurred

AccurateRip summary

Track 1 accurately ripped (confidence 7) [8FA40DE8] (AR v1)Track 2 accurately ripped (confidence 7) [540C1994] (AR v1)Track 3 accurately ripped (confidence 6) [73B8012E] (AR v1)Track 4 accurately ripped (confidence 7) [2CE41470] (AR v1)Track 5 accurately ripped (confidence 7) [4A8B32A5] (AR v1)Track 6 accurately ripped (confidence 7) [F63F6291] (AR v1)Track 7 accurately ripped (confidence 7) [053C123C] (AR v1)Track 8 accurately ripped (confidence 7) [BF00BF15] (AR v1)Track 9 accurately ripped (confidence 7) [CF3D6731] (AR v1)

All tracks accurately ripped

End of status report

==== Log checksum DB02EBAF69447A38D042AD6BCE46064D8C9744D7A977AA4B70BF25001B59E8DE ====
  
REM GENRE RockREM DATE 1978REM DISCID 72084D09REM COMMENT "ExactAudioCopy v1.0b2"PERFORMER "Robert Palmer"TITLE "Double Fun"FILE "Robert Palmer - Double Fun.flac" WAVE TRACK 01 AUDIO TITLE "Every Kinda People" PERFORMER "Robert Palmer" INDEX 00 00:00:00 INDEX 01 00:00:32 TRACK 02 AUDIO TITLE "Best Of Both Worlds" PERFORMER "Robert Palmer" INDEX 00 03:16:32 INDEX 01 03:19:47 TRACK 03 AUDIO TITLE "Come Over" PERFORMER "Robert Palmer" INDEX 00 07:15:12 INDEX 01 07:19:05 TRACK 04 AUDIO TITLE "Where Can It Go?" PERFORMER "Robert Palmer" INDEX 00 11:25:50 INDEX 01 11:29:40 TRACK 05 AUDIO TITLE "Night People" PERFORMER "Robert Palmer" INDEX 00 14:49:32 INDEX 01 14:51:05 TRACK 06 AUDIO TITLE "Love Can Run Faster" PERFORMER "Robert Palmer" INDEX 00 19:05:51 INDEX 01 19:08:72 TRACK 07 AUDIO TITLE "You Overwhelm Me" PERFORMER "Robert Palmer" INDEX 00 23:12:30 INDEX 01 23:16:65 TRACK 08 AUDIO TITLE "You Really Got Me" PERFORMER "Robert Palmer" INDEX 00 26:24:12 INDEX 01 26:28:00 TRACK 09 AUDIO TITLE "You're Gonna Get What's Coming" PERFORMER "Robert Palmer" INDEX 00 30:51:40 INDEX 01 30:55:10
  
[CUETools log; Date: 16.07.2012 0:26:40; Version: 2.0.9]Pregap length 00:00:32.[AccurateRip ID: 000bd3b0-005745fc-72084d09] found.Track [ CRC ] Status 01 [8fa40de8] (7/7) Accurately ripped 02 [540c1994] (7/7) Accurately ripped 03 [73b8012e] (6/6) Accurately ripped 04 [2ce41470] (7/7) Accurately ripped 05 [4a8b32a5] (7/7) Accurately ripped 06 [f63f6291] (7/7) Accurately ripped 07 [053c123c] (7/7) Accurately ripped 08 [bf00bf15] (7/7) Accurately ripped 09 [cf3d6731] (7/7) Accurately ripped

Track Peak [ CRC32 ] [W/O NULL] [ LOG ] -- 100,0 [0B3D8930] [B2D8267E] CRC32 01 100,0 [795688EE] [B41DF691] 02 100,0 [BB34F01D] [7D26D806] 03 99,8 [588B2CBB] [A5DF9CA4] 04 90,5 [7F0BE9F2] [BED77AB3] 05 92,0 [5CCDBE7C] [7F37B44B] 06 100,0 [FD027854] [33F14BD0] 07 88,6 [EF25032A] [1284C2A8] 08 93,2 [109E05EC] [8B071D90] 09 89,7 [E29DF605] [D9D28956]
Издатель (лейбл): Island Records
Номер по каталогу: 7 90089-2
Продолжительность: 37:02

Треклист:
01. Bad Case Of Lovin' You (Doctor, Doctor) (3:13)
02. Too Good To Be True (3:00)
03. Can We Still Be Friends? (3:39)
04. In Walks Love Again (2:49)
05. Mean Ol' World (3:38)
06. Love Stop (3:01)
07. Jealous (3:17)
08. Under Suspicion (3:24)
09. Woman You're Wonderful (4:00)
10. What's It Take? (3:29)
11. Remember To Remember (3:32)
  
Exact Audio Copy V1.0 beta 2 from 29. April 2011

EAC extraction logfile from 23. June 2012, 20:21

Robert Palmer / Secrets

Used drive : HL-DT-STDVDRAM GH60N Adapter: 0 ID: 1

Read mode : SecureUtilize accurate stream : YesDefeat audio cache : YesMake use of C2 pointers : No

Read offset correction : 667Overread into Lead-In and Lead-Out : NoFill up missing offset samples with silence : YesDelete leading and trailing silent blocks : NoNull samples used in CRC calculations : YesUsed interface : Native Win32 interface for Win NT & 2000

Used output format : User Defined EncoderSelected bitrate : 1024 kBit/sQuality : HighAdd ID3 tag : NoCommand line compressor : C:\Program Files (x86)\Exact Audio Copy\Flac\flac.exeAdditional command line options : -V -8 -T "artist=%albumartist%" -T "title=%title%" -T "album=%albumtitle%" -T "date=%year%" -T "genre=%genre%" -T "tracknumber=%tracknr%" %source%

TOC of the extracted CD

Track | Start | Length | Start sector | End sector --------------------------------------------------------- 1 | 0:00.33 | 3:12.47 | 33 | 14479 2 | 3:13.05 | 3:00.28 | 14480 | 28007 3 | 6:13.33 | 3:39.20 | 28008 | 44452 4 | 9:52.53 | 2:48.55 | 44453 | 57107 5 | 12:41.33 | 3:38.15 | 57108 | 73472 6 | 16:19.48 | 3:00.55 | 73473 | 87027 7 | 19:20.28 | 3:16.45 | 87028 | 101772 8 | 22:36.73 | 3:24.00 | 101773 | 117072 9 | 26:00.73 | 4:00.32 | 117073 | 135104 10 | 30:01.30 | 3:28.40 | 135105 | 150744 11 | 33:29.70 | 3:32.18 | 150745 | 166662

Range status and errors

Selected range

Filename C:\EAC\Robert Palmer - (1979) Secrets\Robert Palmer - Secrets.wav

Peak level 99.4 % Extraction speed 1.6 X Range quality 100.0 % Copy CRC 202467DF Copy OK

No errors occurred

AccurateRip summary

Track 1 accurately ripped (confidence 6) [5F5726AA] (AR v1)Track 2 accurately ripped (confidence 6) [1EB1DB4A] (AR v1)Track 3 accurately ripped (confidence 6) [59DD459C] (AR v1)Track 4 accurately ripped (confidence 6) [09989D5C] (AR v1)Track 5 accurately ripped (confidence 6) [090B839C] (AR v1)Track 6 accurately ripped (confidence 6) [67C3DB1C] (AR v1)Track 7 accurately ripped (confidence 6) [A36E2996] (AR v1)Track 8 accurately ripped (confidence 6) [1683B9EF] (AR v1)Track 9 accurately ripped (confidence 6) [A0AC3C58] (AR v1)Track 10 accurately ripped (confidence 6) [A3014315] (AR v1)Track 11 accurately ripped (confidence 6) [AA196ED1] (AR v1)

All tracks accurately ripped

End of status report

==== Log checksum DB257F6C66AEE75C4691C24CE4AC08B912449523D9E48346B1E47221962BB0B4 ====
  
REM GENRE RockREM DATE 1979REM DISCID 8D08AE0BREM COMMENT "ExactAudioCopy v1.0b2"PERFORMER "Robert Palmer"TITLE "Secrets"FILE "Robert Palmer - Secrets.flac" WAVE TRACK 01 AUDIO TITLE "Bad Case Of Lovin' You (Doctor, Doctor)" PERFORMER "Robert Palmer" INDEX 00 00:00:00 INDEX 01 00:00:33 TRACK 02 AUDIO TITLE "Too Good To Be True" PERFORMER "Robert Palmer" INDEX 00 03:12:10 INDEX 01 03:13:05 TRACK 03 AUDIO TITLE "Can We Still Be Friends?" PERFORMER "Robert Palmer" INDEX 00 06:09:28 INDEX 01 06:13:33 TRACK 04 AUDIO TITLE "In Walks Love Again" PERFORMER "Robert Palmer" INDEX 00 09:51:68 INDEX 01 09:52:53 TRACK 05 AUDIO TITLE "Mean Ol' World" PERFORMER "Robert Palmer" INDEX 00 12:39:23 INDEX 01 12:41:33 TRACK 06 AUDIO TITLE "Love Stop" PERFORMER "Robert Palmer" INDEX 00 16:16:50 INDEX 01 16:19:48 TRACK 07 AUDIO TITLE "Jealous" PERFORMER "Robert Palmer" INDEX 00 19:18:03 INDEX 01 19:20:28 TRACK 08 AUDIO TITLE "Under Suspicion" PERFORMER "Robert Palmer" INDEX 00 22:35:53 INDEX 01 22:36:73 TRACK 09 AUDIO TITLE "Woman You're Wonderful" PERFORMER "Robert Palmer" INDEX 01 26:00:73 TRACK 10 AUDIO TITLE "What's It Take?" PERFORMER "Robert Palmer" INDEX 01 30:01:30 TRACK 11 AUDIO TITLE "Remember To Remember" PERFORMER "Robert Palmer" INDEX 00 33:28:25 INDEX 01 33:29:70
  
[CUETools log; Date: 14.07.2012 10:00:52; Version: 2.0.9]Pregap length 00:00:33.[CTDB TOCID: d1c6CzQC52ynof4xNLBI6vLD4A8-] disk not present in database.[AccurateRip ID: 000ee446-0081c095-8d08ae0b] found.Track [ CRC ] Status 01 [5f5726aa] (6/6) Accurately ripped 02 [1eb1db4a] (6/6) Accurately ripped 03 [59dd459c] (6/6) Accurately ripped 04 [09989d5c] (6/6) Accurately ripped 05 [090b839c] (6/6) Accurately ripped 06 [67c3db1c] (6/6) Accurately ripped 07 [a36e2996] (6/6) Accurately ripped 08 [1683b9ef] (6/6) Accurately ripped 09 [a0ac3c58] (6/6) Accurately ripped 10 [a3014315] (6/6) Accurately ripped 11 [aa196ed1] (6/6) Accurately ripped

Track Peak [ CRC32 ] [W/O NULL] [ LOG ] -- 99,4 [202467DF] [D7622834] CRC32 01 96,7 [23F57545] [A5B5229A] 02 95,5 [27679B5E] [8F4162FA] 03 87,8 [6BA78E43] [7466A545] 04 89,7 [98055253] [E75EC5C8] 05 97,1 [1DCBC17E] [A9D2B91B] 06 95,1 [47C162DB] [8F5D7EE7] 07 95,9 [6D29A9B7] [C6599794] 08 94,4 [C6685B77] [DF0EA6AA] 09 92,0 [044ED48C] [21E5D5DF] 10 99,4 [6CE1100B] [70C291DB] 11 94,0 [1D068FFC] [0B394BD0]
Издатель (лейбл): Island Records
Номер по каталогу: 7 90493-2
Продолжительность: 31:14

Треклист:
01. Looking For Clues (4:52)
02. Sulky Girl (4:08)
03. Johnny And Mary (3:58)
04. What Do You Care (2:45)
05. I Dream Of Wires (4:34)
06. Woke Up Laughing (3:35)
07. Not A Second Time (2:48)
08. Found You Now (4:34)
  
Exact Audio Copy V1.0 beta 2 from 29. April 2011

EAC extraction logfile from 24. June 2012, 17:32

Robert Palmer / Clues

Used drive : HL-DT-STDVDRAM GH60N Adapter: 0 ID: 1

Read mode : SecureUtilize accurate stream : YesDefeat audio cache : YesMake use of C2 pointers : No

Read offset correction : 667Overread into Lead-In and Lead-Out : NoFill up missing offset samples with silence : YesDelete leading and trailing silent blocks : NoNull samples used in CRC calculations : YesUsed interface : Native Win32 interface for Win NT & 2000

Used output format : User Defined EncoderSelected bitrate : 1024 kBit/sQuality : HighAdd ID3 tag : NoCommand line compressor : C:\Program Files (x86)\Exact Audio Copy\Flac\flac.exeAdditional command line options : -V -8 -T "artist=%albumartist%" -T "title=%title%" -T "album=%albumtitle%" -T "date=%year%" -T "genre=%genre%" -T "tracknumber=%tracknr%" %source%

TOC of the extracted CD

Track | Start | Length | Start sector | End sector --------------------------------------------------------- 1 | 0:00.00 | 4:52.20 | 0 | 21919 2 | 4:52.20 | 4:07.45 | 21920 | 40489 3 | 8:59.65 | 3:57.72 | 40490 | 58336 4 | 12:57.62 | 2:45.30 | 58337 | 70741 5 | 15:43.17 | 4:33.48 | 70742 | 91264 6 | 20:16.65 | 3:34.60 | 91265 | 107374 7 | 23:51.50 | 2:48.25 | 107375 | 119999 8 | 26:40.00 | 4:33.57 | 120000 | 140531

Range status and errors

Selected range

Filename C:\EAC\Robert Palmer - (1980) Clues\Robert Palmer - Clues.wav

Peak level 93.1 % Extraction speed 1.5 X Range quality 99.9 % Test CRC 201D3E64 Copy CRC 201D3E64 Copy OK

No errors occurred

AccurateRip summary

Track 1 accurately ripped (confidence 8) [0F82212E] (AR v1)Track 2 accurately ripped (confidence 6) [DB7A42C1] (AR v1)Track 3 accurately ripped (confidence 7) [AE728C43] (AR v1)Track 4 accurately ripped (confidence 6) [28291B3B] (AR v1)Track 5 accurately ripped (confidence 7) [CD6A67F3] (AR v1)Track 6 accurately ripped (confidence 7) [218E6A77] (AR v1)Track 7 accurately ripped (confidence 6) [47395D22] (AR v1)Track 8 accurately ripped (confidence 7) [6951CEC6] (AR v1)

All tracks accurately ripped

End of status report

==== Log checksum 27FD0312A724B8191AF14E2F2CAF2C077564EC4467EB6911675BE3479DB05302 ====
  
REM GENRE RockREM DATE 1980REM DISCID 64075108REM COMMENT "ExactAudioCopy v1.0b2"PERFORMER "Robert Palmer"TITLE "Clues"FILE "Robert Palmer - Clues.flac" WAVE TRACK 01 AUDIO TITLE "Looking For Clues" PERFORMER "Robert Palmer" INDEX 01 00:00:00 TRACK 02 AUDIO TITLE "Sulky Girl" PERFORMER "Robert Palmer" INDEX 01 04:52:20 TRACK 03 AUDIO TITLE "Johnny And Mary" PERFORMER "Robert Palmer" INDEX 01 08:59:65 TRACK 04 AUDIO TITLE "What Do You Care" PERFORMER "Robert Palmer" INDEX 01 12:57:62 TRACK 05 AUDIO TITLE "I Dream Of Wires" PERFORMER "Robert Palmer" INDEX 00 15:42:57 INDEX 01 15:43:17 TRACK 06 AUDIO TITLE "Woke Up Laughing" PERFORMER "Robert Palmer" INDEX 01 20:16:65 TRACK 07 AUDIO TITLE "Not A Second Time" PERFORMER "Robert Palmer" INDEX 01 23:51:50 TRACK 08 AUDIO TITLE "Found You Now" PERFORMER "Robert Palmer" INDEX 01 26:40:00
  
[CUETools log; Date: 16.07.2012 1:29:13; Version: 2.0.9][CTDB TOCID: ni1u2Bbg5cumFVA_NjzCn47ANgc-] found. [ CTDBID ] Status [267255f3] (7/7) Accurately ripped[AccurateRip ID: 0009eda5-00414094-64075108] found.Track [ CRC ] Status 01 [0f82212e] (8/8) Accurately ripped 02 [db7a42c1] (6/6) Accurately ripped 03 [ae728c43] (7/7) Accurately ripped 04 [28291b3b] (6/6) Accurately ripped 05 [cd6a67f3] (7/7) Accurately ripped 06 [218e6a77] (7/7) Accurately ripped 07 [47395d22] (6/6) Accurately ripped 08 [6951cec6] (7/7) Accurately ripped

Track Peak [ CRC32 ] [W/O NULL] [ LOG ] -- 93,1 [201D3E64] [4375B5EB] CRC32 01 90,7 [402A4AEC] [877F108A] 02 77,4 [7B94FD18] [E10264A8] 03 91,6 [D6FB888B] [89EC92FF] 04 80,3 [BCC9533D] [004A684C] 05 91,1 [F4ACD684] [814628A3] 06 77,5 [F729766F] [F88C68D2] 07 93,1 [1260B77F] [9BEF8B0F] 08 91,2 [118A44E0] [A5FA933C]
Год издания: 1993
Издатель (лейбл): Karussell
Номер по каталогу: 550 0682
Продолжительность: 36:35

Треклист:
01. Sneakin' Sally Thru The Alley (4:10)
02. What's It Take (2:56)
03. Best Of Both Worlds (3:06)
04. Every Kinda People (4:19)
05. Bad Case Of Lovin' You (Doctor, Doctor) (3:58)
06. Some Guys Have All The Luck (3:10)
07. Style Kills (4:17)
08. Si Chatouilleux (4:34)
09. Maybe It's You (3:44)
10. What Do You Care (2:21)
  
Exact Audio Copy V1.0 beta 2 from 29. April 2011

EAC extraction logfile from 24. June 2012, 20:37

Robert Palmer / Maybe It's Live

Used drive : HL-DT-STDVDRAM GH60N Adapter: 0 ID: 1

Read mode : SecureUtilize accurate stream : YesDefeat audio cache : YesMake use of C2 pointers : No

Read offset correction : 667Overread into Lead-In and Lead-Out : NoFill up missing offset samples with silence : YesDelete leading and trailing silent blocks : NoNull samples used in CRC calculations : YesUsed interface : Native Win32 interface for Win NT & 2000

Used output format : User Defined EncoderSelected bitrate : 1024 kBit/sQuality : HighAdd ID3 tag : NoCommand line compressor : C:\Program Files (x86)\Exact Audio Copy\Flac\flac.exeAdditional command line options : -V -8 -T "artist=%albumartist%" -T "title=%title%" -T "album=%albumtitle%" -T "date=%year%" -T "genre=%genre%" -T "tracknumber=%tracknr%" %source%

TOC of the extracted CD

Track | Start | Length | Start sector | End sector --------------------------------------------------------- 1 | 0:00.33 | 4:10.12 | 33 | 18794 2 | 4:10.45 | 2:56.03 | 18795 | 31997 3 | 7:06.48 | 3:06.32 | 31998 | 45979 4 | 10:13.05 | 4:18.40 | 45980 | 65369 5 | 14:31.45 | 3:58.35 | 65370 | 83254 6 | 18:30.05 | 3:09.45 | 83255 | 97474 7 | 21:39.50 | 4:17.05 | 97475 | 116754 8 | 25:56.55 | 4:34.23 | 116755 | 137327 9 | 30:31.03 | 3:43.47 | 137328 | 154099 10 | 34:14.50 | 2:21.15 | 154100 | 164689

Range status and errors

Selected range

Filename C:\EAC\Robert Palmer - (1982) Maybe It's Live\Robert Palmer - Maybe It's Live.wav

Peak level 98.6 % Extraction speed 1.5 X Range quality 99.9 % Test CRC 45AE4C74 Copy CRC 45AE4C74 Copy OK

No errors occurred

AccurateRip summary

Track 1 accurately ripped (confidence 8) [1F56FCE9] (AR v1)Track 2 accurately ripped (confidence 8) [F5881263] (AR v1)Track 3 accurately ripped (confidence 8) [24C54CBC] (AR v1)Track 4 accurately ripped (confidence 9) [3895BAF9] (AR v1)Track 5 accurately ripped (confidence 9) [F6AC16D8] (AR v1)Track 6 accurately ripped (confidence 9) [FF6C8EC9] (AR v1)Track 7 accurately ripped (confidence 8) [9F884C20] (AR v1)Track 8 accurately ripped (confidence 9) [D51306CC] (AR v1)Track 9 accurately ripped (confidence 9) [D33B08CD] (AR v1)Track 10 accurately ripped (confidence 9) [7DFD1AF3] (AR v1)

All tracks accurately ripped

End of status report

==== Log checksum CCB5B3582EAC2D96E4D8032589282E5BD94CECDE81EA38D75BBFF2C9DF7B1BD5 ====
  
REM GENRE RockREM DATE 1982REM DISCID 7008930AREM COMMENT "ExactAudioCopy v1.0b2"PERFORMER "Robert Palmer"TITLE "Maybe It's Live"FILE "Robert Palmer - Maybe It's Live.flac" WAVE TRACK 01 AUDIO TITLE "Sneakin' Sally Thru The Alley" PERFORMER "Robert Palmer" INDEX 00 00:00:00 INDEX 01 00:00:33 TRACK 02 AUDIO TITLE "What's It Take" PERFORMER "Robert Palmer" INDEX 01 04:10:45 TRACK 03 AUDIO TITLE "Best Of Both Worlds" PERFORMER "Robert Palmer" INDEX 01 07:06:48 TRACK 04 AUDIO TITLE "Every Kinda People" PERFORMER "Robert Palmer" INDEX 01 10:13:05 TRACK 05 AUDIO TITLE "Bad Case Of Lovin' You (Doctor, Doctor)" PERFORMER "Robert Palmer" INDEX 01 14:31:45 TRACK 06 AUDIO TITLE "Some Guys Have All The Luck" PERFORMER "Robert Palmer" INDEX 00 18:27:38 INDEX 01 18:30:05 TRACK 07 AUDIO TITLE "Style Kills" PERFORMER "Robert Palmer" INDEX 00 21:38:05 INDEX 01 21:39:50 TRACK 08 AUDIO TITLE "Si Chatouilleux" PERFORMER "Robert Palmer" INDEX 00 25:53:43 INDEX 01 25:56:55 TRACK 09 AUDIO TITLE "Maybe It's You" PERFORMER "Robert Palmer" INDEX 00 30:27:63 INDEX 01 30:31:03 TRACK 10 AUDIO TITLE "What Do You Care" PERFORMER "Robert Palmer" INDEX 01 34:14:50
  
[CUETools log; Date: 14.07.2012 9:59:45; Version: 2.0.9]Pregap length 00:00:33.[CTDB TOCID: q6gDOeW85aRmuo5jmMCpdGtG078-] disk not present in database.[AccurateRip ID: 000df943-00702258-7008930a] found.Track [ CRC ] Status 01 [1f56fce9] (8/8) Accurately ripped 02 [f5881263] (8/8) Accurately ripped 03 [24c54cbc] (8/8) Accurately ripped 04 [3895baf9] (9/9) Accurately ripped 05 [f6ac16d8] (9/9) Accurately ripped 06 [ff6c8ec9] (9/9) Accurately ripped 07 [9f884c20] (8/8) Accurately ripped 08 [d51306cc] (9/9) Accurately ripped 09 [d33b08cd] (9/9) Accurately ripped 10 [7dfd1af3] (9/9) Accurately ripped

Track Peak [ CRC32 ] [W/O NULL] [ LOG ] -- 98,6 [45AE4C74] [83BABA9D] CRC32 01 93,0 [4B288F2B] [00AFD726] 02 96,4 [8C2967AD] [9358E929] 03 93,7 [AD1EBE09] [4CBF049F] 04 94,2 [790944BE] [313548E5] 05 98,6 [682ED783] [AB4F64AE] 06 91,6 [F6CF05B2] [B74E1EC6] 07 98,6 [D74B384D] [EFD2DA0F] 08 92,2 [42C9A320] [879C7291] 09 95,9 [2D67DA48] [3EFAB675] 10 83,9 [C1985294] [C55E3534]
Издатель (лейбл): Island Records
Номер по каталогу: 7 90471-2
Продолжительность: 35:20

Треклист:
01. Riptide (2:27)
02. Hyperactive (5:10)
03. Addicted To Love (6:04)
04. Trick Bag (3:03)
05. Get It Through Your Heart (2:51)
06. I Didn't Mean To Turn You On (3:45)
07. Flesh Wound (3:46)
08. Discipline Of Love (6:09)
09. Riptide (reprise) (2:06)
  
Exact Audio Copy V1.0 beta 2 from 29. April 2011

EAC extraction logfile from 25. June 2012, 16:18

Robert Palmer / Riptide

Used drive : HL-DT-STDVDRAM GH60N Adapter: 0 ID: 1

Read mode : SecureUtilize accurate stream : YesDefeat audio cache : YesMake use of C2 pointers : No

Read offset correction : 667Overread into Lead-In and Lead-Out : NoFill up missing offset samples with silence : YesDelete leading and trailing silent blocks : NoNull samples used in CRC calculations : YesUsed interface : Native Win32 interface for Win NT & 2000

Used output format : User Defined EncoderSelected bitrate : 1024 kBit/sQuality : HighAdd ID3 tag : NoCommand line compressor : C:\Program Files (x86)\Exact Audio Copy\Flac\flac.exeAdditional command line options : -V -8 -T "artist=%albumartist%" -T "title=%title%" -T "album=%albumtitle%" -T "date=%year%" -T "genre=%genre%" -T "tracknumber=%tracknr%" %source%

TOC of the extracted CD

Track | Start | Length | Start sector | End sector --------------------------------------------------------- 1 | 0:00.33 | 2:27.22 | 33 | 11079 2 | 2:27.55 | 5:10.08 | 11080 | 34337 3 | 7:37.63 | 6:03.47 | 34338 | 61609 4 | 13:41.35 | 3:02.58 | 61610 | 75317 5 | 16:44.18 | 2:51.32 | 75318 | 88174 6 | 19:35.50 | 3:44.58 | 88175 | 105032 7 | 23:20.33 | 3:45.57 | 105033 | 121964 8 | 27:06.15 | 6:08.55 | 121965 | 149619 9 | 33:14.70 | 2:05.55 | 149620 | 159049

Range status and errors

Selected range

Filename C:\EAC\Robert Palmer - (1985) Riptide\Robert Palmer - Riptide.wav

Peak level 91.2 % Extraction speed 1.6 X Range quality 100.0 % Test CRC 982D8BEE Copy CRC 982D8BEE Copy OK

No errors occurred

AccurateRip summary

Track 1 cannot be verified as accurate (confidence 15) [862EC5CD], AccurateRip returned [314B8957] (AR v2)Track 2 cannot be verified as accurate (confidence 15) [F81B7A94], AccurateRip returned [E3104EC6] (AR v2)Track 3 cannot be verified as accurate (confidence 14) [CBBCF47B], AccurateRip returned [5BF5BD56] (AR v2)Track 4 cannot be verified as accurate (confidence 16) [DB0336F8], AccurateRip returned [1B46F456] (AR v2)Track 5 cannot be verified as accurate (confidence 16) [64AA01BF], AccurateRip returned [714B0922] (AR v2)Track 6 cannot be verified as accurate (confidence 16) [1D03CC59], AccurateRip returned [B66DEB1B] (AR v2)Track 7 cannot be verified as accurate (confidence 15) [5EFFD8FD], AccurateRip returned [C2A11F7A] (AR v2)Track 8 cannot be verified as accurate (confidence 16) [812A7585], AccurateRip returned [60D6509D] (AR v2)Track 9 cannot be verified as accurate (confidence 16) [52862D4A], AccurateRip returned [DE00FF18] (AR v2)

No tracks could be verified as accurateYou may have a different pressing from the one(s) in the database

End of status report

==== Log checksum 61DA73544CFD5E370B789E21A912A82F83AC962DA9ECC161163DBE66AC1E859D ====
  
REM GENRE RockREM DATE 1985REM DISCID 77084809REM COMMENT "ExactAudioCopy v1.0b2"PERFORMER "Robert Palmer"TITLE "Riptide"FILE "Robert Palmer - Riptide.flac" WAVE TRACK 01 AUDIO TITLE "Riptide" PERFORMER "Robert Palmer" INDEX 00 00:00:00 INDEX 01 00:00:33 TRACK 02 AUDIO TITLE "Hyperactive" PERFORMER "Robert Palmer" INDEX 00 02:25:13 INDEX 01 02:27:55 TRACK 03 AUDIO TITLE "Addicted To Love" PERFORMER "Robert Palmer" INDEX 01 07:37:63 TRACK 04 AUDIO TITLE "Trick Bag" PERFORMER "Robert Palmer" INDEX 00 13:40:45 INDEX 01 13:41:35 TRACK 05 AUDIO TITLE "Get It Through Your Heart" PERFORMER "Robert Palmer" INDEX 00 16:43:23 INDEX 01 16:44:18 TRACK 06 AUDIO TITLE "I Didn't Mean To Turn You On" PERFORMER "Robert Palmer" INDEX 00 19:34:58 INDEX 01 19:35:50 TRACK 07 AUDIO TITLE "Flesh Wound" PERFORMER "Robert Palmer" INDEX 00 23:20:03 INDEX 01 23:20:33 TRACK 08 AUDIO TITLE "Discipline Of Love" PERFORMER "Robert Palmer" INDEX 00 27:04:38 INDEX 01 27:06:15 TRACK 09 AUDIO TITLE "Riptide (reprise)" PERFORMER "Robert Palmer" INDEX 01 33:14:70
  
[CUETools log; Date: 16.07.2012 12:32:07; Version: 2.0.9]Pregap length 00:00:33.[AccurateRip ID: 000c4d4e-005a69c6-77084809] found.Track [ CRC ] Status 01 [b3acccb3] (00/37) No match 02 [29b1afc5] (00/37) No match 03 [88a045cc] (00/36) No match 04 [c7117e99] (00/38) No match 05 [3c9c67dc] (00/38) No match 06 [63b0985c] (00/38) No match 07 [f868a365] (00/37) No match 08 [9ff015ae] (00/37) No match 09 [773ffbd8] (00/37) No matchOffsetted by -836: 01 [eec879be] (09/37) Accurately ripped 02 [041636a9] (09/37) Accurately ripped 03 [78633d6c] (09/36) Accurately ripped 04 [82776e80] (09/38) Accurately ripped 05 [8e2676e7] (09/38) Accurately ripped 06 [e8cf6a48] (09/38) Accurately ripped 07 [11da2c35] (09/37) Accurately ripped 08 [ccd48d4d] (08/37) Accurately ripped 09 [602755e6] (08/37) Accurately rippedOffsetted by 1378: 01 [314b8957] (15/37) Accurately ripped 02 [e3104ec6] (15/37) Accurately ripped 03 [5bf5bd56] (14/36) Accurately ripped 04 [1b46f456] (16/38) Accurately ripped 05 [714b0922] (16/38) Accurately ripped 06 [b66deb1b] (16/38) Accurately ripped 07 [c2a11f7a] (15/37) Accurately ripped 08 [60d6509d] (16/37) Accurately ripped 09 [de00ff18] (16/37) Accurately ripped

Track Peak [ CRC32 ] [W/O NULL] [ LOG ] -- 91,1 [982D8BEE] [A415C3DD] CRC32 01 75,8 [6DAE8B2B] [BCBAA0FC] 02 75,8 [05BD06B1] [12266E47] 03 88,3 [6553024F] [FAA51615] 04 91,1 [8933247C] [DC91B80B] 05 62,1 [AC2E792F] [3AB38F80] 06 89,1 [9103968F] [18062AD3] 07 84,3 [2E05F331] [689C61E3] 08 89,1 [D81FBC5E] [28E6F612] 09 50,8 [D4491AA5] [403D22EF]
Издатель (лейбл): EMI-Manhattan Records
Номер по каталогу: CDP 7-48057-2
Продолжительность: 38:36

Треклист:
01. Simply Irresistible (4:15)
02. More Than Ever (3:26)
03. Change His Ways (2:57)
04. Disturbing Behavior (3:46)
05. Early In The Morning (4:42)
06. It Could Happen To You (2:33)
07. She Makes My Day (4:24)
08. Between Us (4:50)
09. Casting A Spell (3:57)
10. Tell Me I'm Not Dreaming (3:47)
  
Exact Audio Copy V1.0 beta 2 from 29. April 2011

EAC extraction logfile from 25. June 2012, 17:38

Robert Palmer / Heavy Nova

Used drive : HL-DT-STDVDRAM GH60N Adapter: 0 ID: 1

Read mode : SecureUtilize accurate stream : YesDefeat audio cache : YesMake use of C2 pointers : No

Read offset correction : 667Overread into Lead-In and Lead-Out : NoFill up missing offset samples with silence : YesDelete leading and trailing silent blocks : NoNull samples used in CRC calculations : YesUsed interface : Native Win32 interface for Win NT & 2000

Used output format : User Defined EncoderSelected bitrate : 1024 kBit/sQuality : HighAdd ID3 tag : NoCommand line compressor : C:\Program Files (x86)\Exact Audio Copy\Flac\flac.exeAdditional command line options : -V -8 -T "artist=%albumartist%" -T "title=%title%" -T "album=%albumtitle%" -T "date=%year%" -T "genre=%genre%" -T "tracknumber=%tracknr%" %source%

TOC of the extracted CD

Track | Start | Length | Start sector | End sector --------------------------------------------------------- 1 | 0:00.00 | 4:14.62 | 0 | 19111 2 | 4:14.62 | 3:25.45 | 19112 | 34531 3 | 7:40.32 | 2:56.58 | 34532 | 47789 4 | 10:37.15 | 3:45.50 | 47790 | 64714 5 | 14:22.65 | 4:42.00 | 64715 | 85864 6 | 19:04.65 | 2:33.07 | 85865 | 97346 7 | 21:37.72 | 4:23.48 | 97347 | 117119 8 | 26:01.45 | 4:49.62 | 117120 | 138856 9 | 30:51.32 | 3:57.15 | 138857 | 156646 10 | 34:48.47 | 3:47.18 | 156647 | 173689

Range status and errors

Selected range

Filename C:\EAC\Robert Palmer - (1988) Heavy Nova\Robert Palmer - Heavy Nova.wav

Peak level 97.6 % Extraction speed 1.8 X Range quality 100.0 % Test CRC 55DE4640 Copy CRC 55DE4640 Copy OK

No errors occurred

AccurateRip summary

Track 1 accurately ripped (confidence 2) [8B6510A4] (AR v1)Track 2 accurately ripped (confidence 2) [47207289] (AR v1)Track 3 accurately ripped (confidence 2) [CF15F1B1] (AR v1)Track 4 accurately ripped (confidence 2) [2D9037D3] (AR v1)Track 5 accurately ripped (confidence 2) [BAC61DC6] (AR v1)Track 6 accurately ripped (confidence 2) [0F08BDAF] (AR v1)Track 7 accurately ripped (confidence 2) [699111FB] (AR v1)Track 8 accurately ripped (confidence 2) [A858B806] (AR v1)Track 9 accurately ripped (confidence 2) [2E96DBC4] (AR v1)Track 10 accurately ripped (confidence 2) [4D287442] (AR v1)

All tracks accurately ripped

End of status report

==== Log checksum 35CDD2E0FB8C3DAF9F883F84C22BE01C8AA38F5FB7568FC7BE9BBF779A6709BF ====
  
REM GENRE RockREM DATE 1988REM DISCID 8B090B0AREM COMMENT "ExactAudioCopy v1.0b2"PERFORMER "Robert Palmer"TITLE "Heavy Nova"FILE "Robert Palmer - Heavy Nova.flac" WAVE TRACK 01 AUDIO TITLE "Simply Irresistible" PERFORMER "Robert Palmer" INDEX 01 00:00:00 TRACK 02 AUDIO TITLE "More Than Ever" PERFORMER "Robert Palmer" INDEX 00 04:14:47 INDEX 01 04:14:62 TRACK 03 AUDIO TITLE "Change His Ways" PERFORMER "Robert Palmer" INDEX 00 07:40:25 INDEX 01 07:40:32 TRACK 04 AUDIO TITLE "Disturbing Behavior" PERFORMER "Robert Palmer" INDEX 00 10:37:07 INDEX 01 10:37:15 TRACK 05 AUDIO TITLE "Early In The Morning" PERFORMER "Robert Palmer" INDEX 00 14:22:25 INDEX 01 14:22:65 TRACK 06 AUDIO TITLE "It Could Happen To You" PERFORMER "Robert Palmer" INDEX 00 19:04:52 INDEX 01 19:04:65 TRACK 07 AUDIO TITLE "She Makes My Day" PERFORMER "Robert Palmer" INDEX 00 21:37:37 INDEX 01 21:37:72 TRACK 08 AUDIO TITLE "Between Us" PERFORMER "Robert Palmer" INDEX 00 26:00:65 INDEX 01 26:01:45 TRACK 09 AUDIO TITLE "Casting A Spell" PERFORMER "Robert Palmer" INDEX 00 30:51:25 INDEX 01 30:51:32 TRACK 10 AUDIO TITLE "Tell Me I'm Not Dreaming" PERFORMER "Robert Palmer" INDEX 00 34:48:40 INDEX 01 34:48:47
  
[CUETools log; Date: 17.07.2012 7:03:56; Version: 2.0.9][CTDB TOCID: KMB4YuMv3dLk8yJYGQp51.ATIYY-] found. [ CTDBID ] Status [5aa6df7d] (102/102) Accurately ripped[AccurateRip ID: 000e46fb-0072b2ec-8b090b0a] found.Track [ CRC ] Status 01 [8b6510a4] (002/121) Accurately ripped 02 [47207289] (002/120) Accurately ripped 03 [cf15f1b1] (002/121) Accurately ripped 04 [2d9037d3] (002/120) Accurately ripped 05 [bac61dc6] (002/119) Accurately ripped 06 [0f08bdaf] (002/119) Accurately ripped 07 [699111fb] (002/119) Accurately ripped 08 [a858b806] (002/120) Accurately ripped 09 [2e96dbc4] (002/117) Accurately ripped 10 [4d287442] (002/115) Accurately rippedOffsetted by -1476: 01 [de96b935] (002/121) Accurately ripped 02 [db0f8541] (002/120) Accurately ripped 03 [61f4420d] (002/121) Accurately ripped 04 [600e86f8] (002/120) Accurately ripped 05 [909b5d10] (002/119) Accurately ripped 06 [0e69f206] (002/119) Accurately ripped 07 [b6dcb31e] (002/119) Accurately ripped 08 [549648c6] (002/120) Accurately ripped 09 [2fb53201] (002/117) Accurately ripped 10 [cf1869df] (002/115) Accurately rippedOffsetted by -406: 01 [a0ca973f] (071/121) Accurately ripped 02 [212c7e77] (070/120) Accurately ripped 03 [629c64a2] (071/121) Accurately ripped 04 [64946c17] (070/120) Accurately ripped 05 [20ce15c0] (070/119) Accurately ripped 06 [0b613414] (070/119) Accurately ripped 07 [2ad86567] (070/119) Accurately ripped 08 [0dbdb8b4] (070/120) Accurately ripped 09 [4a670e7e] (067/117) Accurately ripped 10 [b8260fad] (067/115) Accurately rippedOffsetted by -325: 01 [be71ffd7] (009/121) Accurately ripped 02 [7c181ed8] (009/120) Accurately ripped 03 [73b951c9] (009/121) Accurately ripped 04 [64e66ce4] (009/120) Accurately ripped 05 [b763ee8f] (009/119) Accurately ripped 06 [e260d234] (009/119) Accurately ripped 07 [11d235a8] (009/119) Accurately ripped 08 [e1feaa62] (009/120) Accurately ripped 09 [b354ef64] (009/117) Accurately ripped 10 [2f588718] (008/115) Accurately rippedOffsetted by -240: 01 [73aed124] (008/121) Accurately ripped 02 [c1050bc4] (008/120) Accurately ripped 03 [e38fb523] (008/121) Accurately ripped 04 [933506fc] (008/120) Accurately ripped 05 [3dc328dc] (008/119) Accurately ripped 06 [9d3befa9] (008/119) Accurately ripped 07 [dd44b9e1] (008/119) Accurately ripped 08 [345d512f] (008/120) Accurately ripped 09 [6d62dfca] (008/117) Accurately ripped 10 [d1adf357] (008/115) Accurately rippedOffsetted by 51: 01 [118df28d] (024/121) Accurately ripped 02 [e5d625d3] (024/120) Accurately ripped 03 [96237e87] (024/121) Accurately ripped 04 [5a15f525] (024/120) Accurately ripped 05 [317cdacb] (023/119) Accurately ripped 06 [e5069e3a] (023/119) Accurately ripped 07 [1081268b] (023/119) Accurately ripped 08 [2ad108eb] (024/120) Accurately ripped 09 [04f21641] (024/117) Accurately ripped 10 [2fb8a4b9] (023/115) Accurately ripped

Track Peak [ CRC32 ] [W/O NULL] [ LOG ] -- 97,6 [55DE4640] [45968291] CRC32 01 76,7 [7E4D10FC] [C29B355C] 02 96,2 [E83FB077] [8E959BF2] 03 84,9 [64613ECA] [40840B83] 04 85,9 [09B19675] [7D95C154] 05 94,6 [8A5C7874] [F14DEDF6] 06 52,6 [CEAD14C0] [C4500AA7] 07 94,2 [C1F0D539] [24696B35] 08 97,6 [37E4F5B3] [2D6039B7] 09 81,7 [107AC3C8] [845FA9F9] 10 80,9 [44954130] [44A2C138]
Издатель (лейбл): EMI Records
Номер по каталогу: 7243 8 30301 2 5
Продолжительность: 47:50

Треклист:
01. Honey A (1:35)
02. Honey B (4:04)
03. You're Mine (4:14)
04. Know By Now (4:11)
05. Nobody But You (3:55)
06. Love Takes Time (5:04)
07. Honeymoon (2:17)
08. You Blow Me Away (4:33)
09. Close To The Edge (2:28)
10. Closer To The Edge (2:42)
11. Girl U Want (2:23)
12. Wham Bam Boogie (3:15)
13. Big Trouble (3:57)
14. Dreams Come True (3:12)
  
Exact Audio Copy V1.0 beta 2 from 29. April 2011

EAC extraction logfile from 9. July 2012, 20:52

Robert Palmer / Honey

Used drive : HL-DT-STDVDRAM GH60N Adapter: 0 ID: 1

Read mode : SecureUtilize accurate stream : YesDefeat audio cache : YesMake use of C2 pointers : No

Read offset correction : 667Overread into Lead-In and Lead-Out : NoFill up missing offset samples with silence : YesDelete leading and trailing silent blocks : NoNull samples used in CRC calculations : YesUsed interface : Native Win32 interface for Win NT & 2000

Used output format : User Defined EncoderSelected bitrate : 1024 kBit/sQuality : HighAdd ID3 tag : NoCommand line compressor : C:\Program Files (x86)\Exact Audio Copy\Flac\flac.exeAdditional command line options : -V -8 -T "artist=%albumartist%" -T "title=%title%" -T "album=%albumtitle%" -T "date=%year%" -T "genre=%genre%" -T "tracknumber=%tracknr%" %source%

TOC of the extracted CD

Track | Start | Length | Start sector | End sector --------------------------------------------------------- 1 | 0:00.00 | 1:35.25 | 0 | 7149 2 | 1:35.25 | 4:04.20 | 7150 | 25469 3 | 5:39.45 | 4:13.45 | 25470 | 44489 4 | 9:53.15 | 4:10.52 | 44490 | 63291 5 | 14:03.67 | 3:54.68 | 63292 | 80909 6 | 17:58.60 | 5:03.47 | 80910 | 103681 7 | 23:02.32 | 2:16.43 | 103682 | 113924 8 | 25:19.00 | 4:32.70 | 113925 | 134394 9 | 29:51.70 | 2:28.17 | 134395 | 145511 10 | 32:20.12 | 2:42.08 | 145512 | 157669 11 | 35:02.20 | 2:23.27 | 157670 | 168421 12 | 37:25.47 | 3:15.23 | 168422 | 183069 13 | 40:40.70 | 3:56.62 | 183070 | 200831 14 | 44:37.57 | 3:12.08 | 200832 | 215239

Range status and errors

Selected range

Filename C:\EAC\Robert Palmer - (1994) Honey\Robert Palmer - Honey.wav

Peak level 95.8 % Extraction speed 2.0 X Range quality 100.0 % Test CRC BA91F988 Copy CRC BA91F988 Copy OK

No errors occurred

AccurateRip summary

Track 1 accurately ripped (confidence 12) [7B199C55] (AR v1)Track 2 accurately ripped (confidence 12) [E9496D07] (AR v1)Track 3 accurately ripped (confidence 12) [8456E4FE] (AR v1)Track 4 accurately ripped (confidence 12) [ED42AC0B] (AR v1)Track 5 accurately ripped (confidence 12) [A3365441] (AR v1)Track 6 accurately ripped (confidence 12) [F880CC90] (AR v1)Track 7 accurately ripped (confidence 12) [393125D2] (AR v1)Track 8 accurately ripped (confidence 12) [94B66096] (AR v1)Track 9 accurately ripped (confidence 12) [DBB16D74] (AR v1)Track 10 accurately ripped (confidence 12) [B8A03D80] (AR v1)Track 11 accurately ripped (confidence 12) [5B559D2D] (AR v1)Track 12 accurately ripped (confidence 12) [8D33DD7A] (AR v1)Track 13 accurately ripped (confidence 12) [52CAEBC2] (AR v1)Track 14 accurately ripped (confidence 12) [669ECC38] (AR v1)

All tracks accurately ripped

End of status report

==== Log checksum B7AFEA9362939055D492D10E69E908B2C345A60BB17AD2381FE8E41A9F8175A9 ====
  
REM GENRE RockREM DATE 1994REM DISCID BE0B350EREM COMMENT "ExactAudioCopy v1.0b2"PERFORMER "Robert Palmer"TITLE "Honey"FILE "Robert Palmer - Honey.flac" WAVE TRACK 01 AUDIO TITLE "Honey A" PERFORMER "Robert Palmer" INDEX 01 00:00:00 TRACK 02 AUDIO TITLE "Honey B" PERFORMER "Robert Palmer" INDEX 01 01:35:25 TRACK 03 AUDIO TITLE "You're Mine" PERFORMER "Robert Palmer" INDEX 00 05:39:20 INDEX 01 05:39:45 TRACK 04 AUDIO TITLE "Know By Now" PERFORMER "Robert Palmer" INDEX 00 09:52:12 INDEX 01 09:53:15 TRACK 05 AUDIO TITLE "Nobody But You" PERFORMER "Robert Palmer" INDEX 00 14:03:60 INDEX 01 14:03:67 TRACK 06 AUDIO TITLE "Love Takes Time" PERFORMER "Robert Palmer" INDEX 00 17:57:47 INDEX 01 17:58:60 TRACK 07 AUDIO TITLE "Honeymoon" PERFORMER "Robert Palmer" INDEX 00 23:01:32 INDEX 01 23:02:32 TRACK 08 AUDIO TITLE "You Blow Me Away" PERFORMER "Robert Palmer" INDEX 01 25:19:00 TRACK 09 AUDIO TITLE "Close To The Edge" PERFORMER "Robert Palmer" INDEX 01 29:51:70 TRACK 10 AUDIO TITLE "Closer To The Edge" PERFORMER "Robert Palmer" INDEX 01 32:20:12 TRACK 11 AUDIO TITLE "Girl U Want" PERFORMER "Robert Palmer" INDEX 01 35:02:20 TRACK 12 AUDIO TITLE "Wham Bam Boogie" PERFORMER "Robert Palmer" INDEX 01 37:25:47 TRACK 13 AUDIO TITLE "Big Trouble" PERFORMER "Robert Palmer" INDEX 00 40:40:42 INDEX 01 40:40:70 TRACK 14 AUDIO TITLE "Dreams Come True" PERFORMER "Robert Palmer" INDEX 00 44:31:20 INDEX 01 44:37:57
  
[CUETools log; Date: 17.07.2012 10:07:26; Version: 2.0.9][CTDB TOCID: fPfpnlbMERgRvLgMKCHB0jb3wvU-] found. [ CTDBID ] Status [1daa301f] (1/1) Accurately ripped[AccurateRip ID: 0019161c-010bc300-be0b350e] found.Track [ CRC ] Status 01 [7b199c55] (12/12) Accurately ripped 02 [e9496d07] (12/12) Accurately ripped 03 [8456e4fe] (12/12) Accurately ripped 04 [ed42ac0b] (12/12) Accurately ripped 05 [a3365441] (12/12) Accurately ripped 06 [f880cc90] (12/12) Accurately ripped 07 [393125d2] (12/12) Accurately ripped 08 [94b66096] (12/12) Accurately ripped 09 [dbb16d74] (12/12) Accurately ripped 10 [b8a03d80] (12/12) Accurately ripped 11 [5b559d2d] (12/12) Accurately ripped 12 [8d33dd7a] (12/12) Accurately ripped 13 [52caebc2] (12/12) Accurately ripped 14 [669ecc38] (12/12) Accurately ripped

Track Peak [ CRC32 ] [W/O NULL] [ LOG ] -- 95,8 [BA91F988] [081E6B70] CRC32 01 85,3 [8967AD6B] [5B21F12D] 02 92,2 [4BAC6979] [F701063E] 03 95,5 [CF905D52] [4B8117CC] 04 95,5 [86155C5F] [767B46AC] 05 95,5 [8FCDBFB2] [A400B39F] 06 81,8 [33810248] [8AB8FD51] 07 68,5 [4CF8BE0C] [1A767274] 08 95,1 [A90EB8DE] [A65CD73D] 09 66,0 [2CCBC763] [78F76A83] 10 95,6 [9BF5864C] [9DCF684C] 11 95,4 [F8376FC7] [7972BCA3] 12 95,5 [8F382290] [869D4048] 13 95,8 [A62DE43A] [CD0F2AD0] 14 94,4 [23AED7C5] [3F558AA7]
Издатель (лейбл): EMI Records
Номер по каталогу: CDEM 186
Продолжительность: 10:59

Треклист:
01. Happiness (7' Version) (2:52)
02. Happiness (12' Remix) (5:20)
03. All Shook Up (2:47)
  
Exact Audio Copy V1.0 beta 2 from 29. April 2011

EAC extraction logfile from 9. July 2012, 18:22

Robert Palmer / ''Happiness''

Used drive : HL-DT-STDVDRAM GH60N Adapter: 0 ID: 1

Read mode : SecureUtilize accurate stream : YesDefeat audio cache : YesMake use of C2 pointers : No

Read offset correction : 667Overread into Lead-In and Lead-Out : NoFill up missing offset samples with silence : YesDelete leading and trailing silent blocks : NoNull samples used in CRC calculations : YesUsed interface : Native Win32 interface for Win NT & 2000

Used output format : User Defined EncoderSelected bitrate : 1024 kBit/sQuality : HighAdd ID3 tag : NoCommand line compressor : C:\Program Files (x86)\Exact Audio Copy\Flac\flac.exeAdditional command line options : -V -8 -T "artist=%albumartist%" -T "title=%title%" -T "album=%albumtitle%" -T "date=%year%" -T "genre=%genre%" -T "tracknumber=%tracknr%" %source%

TOC of the extracted CD

Track | Start | Length | Start sector | End sector --------------------------------------------------------- 1 | 0:00.33 | 2:52.32 | 33 | 12964 2 | 2:52.65 | 5:20.23 | 12965 | 36987 3 | 8:13.13 | 2:46.52 | 36988 | 49489

Range status and errors

Selected range

Filename C:\EAC\Robert Palmer - (1991) ''Happiness'' (CD Single)\Robert Palmer - ''Happiness''.wav

Peak level 100.0 % Extraction speed 1.2 X Range quality 100.0 % Test CRC B059C5C8 Copy CRC B059C5C8 Copy OK

No errors occurred

AccurateRip summary

Track 1 accurately ripped (confidence 1) [7CDE150A] (AR v1)Track 2 not present in databaseTrack 3 not present in database

1 track(s) accurately ripped 2 track(s) not present in the AccurateRip database

Some tracks could not be verified as accurate

End of status report

==== Log checksum DDC1116AC8ADC17CBC4EC99EBBD2C06A10DABDB5FF435BACF9888EE63DC333C1 ====
  
REM GENRE RockREM DATE 1991REM DISCID 20029303REM COMMENT "ExactAudioCopy v1.0b2"PERFORMER "Robert Palmer"TITLE "''Happiness''"FILE "Robert Palmer - ''Happiness''.flac" WAVE TRACK 01 AUDIO TITLE "Happiness (7' Version)" PERFORMER "Robert Palmer" INDEX 00 00:00:00 INDEX 01 00:00:33 TRACK 02 AUDIO TITLE "Happiness (12' Remix)" PERFORMER "Robert Palmer" INDEX 00 02:52:55 INDEX 01 02:52:65 TRACK 03 AUDIO TITLE "All Shook Up" PERFORMER "Robert Palmer" INDEX 00 08:11:53 INDEX 01 08:13:13
  
[CUETools log; Date: 17.07.2012 7:29:35; Version: 2.0.9]Pregap length 00:00:33.[CTDB TOCID: MuB_J2EaIBp4xACg4RvxEXSF65s-] disk not present in database.[AccurateRip ID: 00018494-00051c27-20029303] found.Track [ CRC ] Status 01 [7cde150a] (1/1) Accurately ripped 02 [3ef61e8a] (0/0) No match 03 [85acaf42] (0/0) No match

Track Peak [ CRC32 ] [W/O NULL] [ LOG ] -- 100,0 [B059C5C8] [9A9D0E35] CRC32 01 100,0 [95C16D26] [9833F33A] 02 100,0 [8EB2DA71] [EA0C07DF] 03 100,0 [C99B8758] [973E2F0E]


Трекер:  [ 18-Июл-2012 06:23 ]

  

Скачать .torrent

Размер .torrent файла 23 KB


Размер: 2.58 GB
Хэш (hash) релиза: 65a2d969d8ee0a3d3adab1a19b897af5060b20ec

Еще никто не оставлял запись к записи скачать торрент Robert Palmer - Collection, 8 Albums & 1 Single - 1975-1994, FLAC . Будь первым!

!Обратная связь