Скачать через торрент музыку Steve Morse Band - Stand Up - 1985 бесплатно без регистрации torrent

Если у вас наблюдаются проблемы со скриншотами, переходом по ссылками, скачиванием торрентов - проблемы в блокировщике рекламы AdBlock. #хорошегоДня!


Статистика раздачи
Размер:  274 MB   |    Зарегистрирован:  5 лет 1 месяц   |    .torrent скачан:  15 раз   |   
Раздают:  1  
   
Загрузка...
 
Автор Сообщение

Umakiro

avatar Umakiro


Steve Morse Band / Stand Up
Жанр: Country Rock / Soft Rock / Prog Rock / Страна-производитель диска: U.S.A.
Год издания: 1985 (Remastered 1997) / Издатель (лейбл): Dregs Records
Номер по каталогу: DRG 0297 / Страна: Hamilton, Ohio, U.S.
Аудиокодек: FLAC (*.flac) / Тип рипа: image+.cue
Битрейт аудио: lossless / Продолжительность: 00:39:20
Источник (релизер): I Am / Наличие сканов в содержимом раздачи: нет
Треклист:01. Book Of Dreams - 03:25
02. English Rancher - 04:25
03. Rockin' Guitars - 04:20
04. Distant Star - 03:56
05. Pick Your Position - 03:30
06. Stand Up - 03:40
07. Travels Of Marco Polo - 05:57
08. Golden Quest - 04:15
09. Unity Gain - 05:47
  
Exact Audio Copy V0.99 prebeta 5 from 4. May 2009

Отчёт EAC об извлечении, выполненном 28. июня 2012, 16:34

Steve Morse Band / Stand Up

Дисковод: ATAPI iHAP122 9 Adapter: 0 ID: 0

Режим чтения : ДостоверностьИспользование точного потока : ДаОтключение кэша аудио : ДаИспользование указателей C2 : Нет

Коррекция смещения при чтении : 6Способность читать области Lead-in и Lead-out : НетЗаполнение пропущенных сэмплов тишиной : ДаУдаление блоков с тишиной в начале и конце : НетПри вычислениях CRC использовались нулевые сэмплы : ДаИнтерфейс : Встроенный Win32-интерфейс для Win NT/2000

Выходной формат : Внутренние WAV-операцииФормат сэмплов : 44.100 Гц; 16 бит; стерео

TOC извлечённого CD

Трек | Старт | Длительность | Начальный сектор | Конечный сектор --------------------------------------------------------------------- 1 | 0:00.00 | 3:25.57 | 0 | 15431 2 | 3:25.57 | 4:25.55 | 15432 | 35361 3 | 7:51.37 | 4:20.02 | 35362 | 54863 4 | 12:11.39 | 3:56.04 | 54864 | 72567 5 | 16:07.43 | 3:30.51 | 72568 | 88368 6 | 19:38.19 | 3:40.70 | 88369 | 104938 7 | 23:19.14 | 5:57.12 | 104939 | 131725 8 | 29:16.26 | 4:15.00 | 131726 | 150850 9 | 33:31.26 | 5:47.42 | 150851 | 176917

Характеристики диапазона извлечения и сообщения об ошибках

Выбранный диапазон

Имя файла D:\Запись\Steve Morse Band - Stand Up\Steve Morse Band - Stand Up.wav

Пиковый уровень 100.0 % Качество диапазона 100.0 % CRC теста 02A3726C CRC копии 02A3726C Копирование... OK

Ошибок не произошло

AccurateRip: сводка

Трек 1 точность не определена (достоверность 14) [075C7D1F], AccurateRip вернул [6835294D]Трек 2 точность не определена (достоверность 14) [44A6AC05], AccurateRip вернул [B5C54183]Трек 3 точность не определена (достоверность 15) [A4A1564D], AccurateRip вернул [26225DE7]Трек 4 точность не определена (достоверность 14) [B4167BDC], AccurateRip вернул [6C2B4244]Трек 5 точность не определена (достоверность 14) [7BB1BC6B], AccurateRip вернул [D222CB71]Трек 6 точность не определена (достоверность 14) [1722ECA5], AccurateRip вернул [AA17FB65]Трек 7 точность не определена (достоверность 14) [5363752A], AccurateRip вернул [1BB43EA8]Трек 8 точность не определена (достоверность 14) [563A9740], AccurateRip вернул [ACACCC72]Трек 9 точность не определена (достоверность 14) [DA893645], AccurateRip вернул [8B8D6DAB]

Ни один трек не прошёл проверки на точностьВ вашей базе может быть иной вариант штамповки диска

Конец отчёта
  
AUDIOCHECKER v2.0 beta (build 457) - by Dester - <a href="mailto:opdester@freemail.hu" class="postLink">opdester@freemail.hu</a>~~~~~~~~~~~~~~~~~~~~~~~~~~~~~~~~~~

Started at: четверг, 28. 06. 2012. - 16:46.131 file found

1 -===- D:\Запись\Steve Morse Band - Stand Up\Steve Morse Band - Stand Up.flac Extracted successfully Conclusion: this track is CDDA with probability 95% Tempfile successfully deleted.

Finished at: четверг, 28. 06. 2012. - 16:48.15 (operation time: 0:02.01)
Steve Morse - Synthesizer, Guitar (Acoustic), Guitar (Electric), Guitar (Synthesizer), Producer, Engineer
Rod Morgenstein - Percussion, Piano, Drums, Producer
Jerry Peek - Guitar (Bass)

Guests:

Peter Frampton - Guitar
Eric Johnson - Guitar & Vocals on "Distant Star"
T Lavitz - Piano on “Unity Gain”
Albert Lee - Guitar & Vocals on “Rockin' Guitars”
Alex Ligertwood - Vocals on “Stand Up”
Mark O'Connor - Violin on “Pick Your Position”
Van Temple - Vocals on “Book of Dreams”



Трекер:  [ 18-Июл-2012 06:24 ]

  

Скачать .torrent

Размер .torrent файла 11 KB


Размер: 274 MB
Хэш (hash) релиза: 39a6b1cdaebfd1273b6ff663fa9eb79708a27fb5

Еще никто не оставлял запись к записи скачать торрент Steve Morse Band - Stand Up - 1985 . Будь первым!

!Обратная связь