Скачать через торрент музыку Eagles - Greatest Hits бесплатно без регистрации torrent

Если у вас наблюдаются проблемы со скриншотами, переходом по ссылками, скачиванием торрентов - проблемы в блокировщике рекламы AdBlock. #хорошегоДня!


Статистика раздачи
Размер:  1.06 GB   |    Зарегистрирован:  5 лет 4 месяца   |    .torrent скачан:  25 раз   |   
Раздают:  1  
   
Загрузка...
 
Автор Сообщение

Umakiro

avatar Umakiro


Eagles - Greatest Hits

Жанр: Rock, Blues Rock, Country Rock
Страна-производитель диска: Russia
Год издания диска: 2010
Издатель (лейбл): Warner Music Group/AOL Time Warner Company
Номер по каталогу: R2 73971
Страна: USA
Аудио кодек: FLAC (*.flac)
Тип рипа: image+.cue
Битрейт аудио: lossless
Продолжительность: 02:39:37
Источник (релизер): Victor
Наличие сканов в содержимом раздачи: да
Треклист:
01. The Long Run 03:41
02. Tequila Sunrise 02:52
03. The Greeks Don't Want No Freaks 02:20
04. Witchy Woman 04:11
05. Get Over It 03:30
06. Heartache Tonight 04:25
07. Hotel California 06:29
08. The Disco Strangler 02:44
09. I Can't Tell You Why 04:53
10. James Dean 03:38
11. King Of Hollywood 06:28
12. Lyin' Eyes 06:20
13. New Kid In Town 05:05
14. One Of These Nights 04:50
15. Outlaw Man 03:34
16. Is It True? 03:14
17. Love Will Keep Us Alive 04:02
18. Take It Easy 03:30
19. In The City 03:44
  
Exact Audio Copy V1.0 beta 1 from 15. November 2010

EAC extraction logfile from 7. July 2012, 14:33

Eagles / Greatest Hits (CD1)

Used drive : ATAPI iHAP122 W Adapter: 1 ID: 0

Read mode : SecureUtilize accurate stream : YesDefeat audio cache : YesMake use of C2 pointers : No

Combined read/write offset correction : 6Overread into Lead-In and Lead-Out : NoFill up missing offset samples with silence : YesDelete leading and trailing silent blocks : NoNull samples used in CRC calculations : YesUsed interface : Native Win32 interface for Win NT & 2000

Used output format : Internal WAV RoutinesSample format : 44.100 Hz; 16 Bit; Stereo

TOC of the extracted CD

Track | Start | Length | Start sector | End sector --------------------------------------------------------- 1 | 0:00.00 | 3:41.39 | 0 | 16613 2 | 3:41.39 | 2:52.15 | 16614 | 29528 3 | 6:33.54 | 2:20.33 | 29529 | 40061 4 | 8:54.12 | 4:11.03 | 40062 | 58889 5 | 13:05.15 | 3:30.52 | 58890 | 74691 6 | 16:35.67 | 4:25.39 | 74692 | 94605 7 | 21:01.31 | 6:29.73 | 94606 | 123853 8 | 27:31.29 | 2:44.42 | 123854 | 136195 9 | 30:15.71 | 4:53.24 | 136196 | 158194 10 | 35:09.20 | 3:38.13 | 158195 | 174557 11 | 38:47.33 | 6:28.60 | 174558 | 203717 12 | 45:16.18 | 6:20.65 | 203718 | 232282 13 | 51:37.08 | 5:05.63 | 232283 | 255220 14 | 56:42.71 | 4:50.33 | 255221 | 277003 15 | 61:33.29 | 3:34.68 | 277004 | 293121 16 | 65:08.22 | 3:14.55 | 293122 | 307726 17 | 68:23.02 | 4:02.40 | 307727 | 325916 18 | 72:25.42 | 3:30.50 | 325917 | 341716 19 | 75:56.17 | 3:44.70 | 341717 | 358586

Range status and errors

Selected range

Filename C:\MusBox\Eagles - Greatest Hits (CD1).wav

Peak level 100.0 % Extraction speed 0.4 X Range quality 100.0 % Copy CRC B62C6237 Copy OK

No errors occurred

End of status report
  
REM GENRE RockREM DATE 2010REM DISCID 2112AD13REM COMMENT "ExactAudioCopy v1.0b1"PERFORMER "Eagles"TITLE "Greatest Hits (CD1)"FILE "Eagles - Greatest Hits (CD1).flac" WAVE TRACK 01 AUDIO TITLE "The Long Run" PERFORMER "Eagles" INDEX 01 00:00:00 TRACK 02 AUDIO TITLE "Tequila Sunrise" PERFORMER "Eagles" INDEX 01 03:41:39 TRACK 03 AUDIO TITLE "The Greeks Don't Want No Freaks" PERFORMER "Eagles" INDEX 01 06:33:54 TRACK 04 AUDIO TITLE "Witchy Woman" PERFORMER "Eagles" INDEX 01 08:54:12 TRACK 05 AUDIO TITLE "Get Over It" PERFORMER "Eagles" INDEX 01 13:05:15 TRACK 06 AUDIO TITLE "Heartache Tonight" PERFORMER "Eagles" INDEX 01 16:35:67 TRACK 07 AUDIO TITLE "Hotel California" PERFORMER "Eagles" INDEX 01 21:01:31 TRACK 08 AUDIO TITLE "The Disco Strangler" PERFORMER "Eagles" INDEX 01 27:31:29 TRACK 09 AUDIO TITLE "I Can't Tell You Why" PERFORMER "Eagles" INDEX 01 30:15:71 TRACK 10 AUDIO TITLE "James Dean" PERFORMER "Eagles" INDEX 01 35:09:20 TRACK 11 AUDIO TITLE "King Of Hollywood" PERFORMER "Eagles" INDEX 01 38:47:33 TRACK 12 AUDIO TITLE "Lyin' Eyes" PERFORMER "Eagles" INDEX 01 45:16:18 TRACK 13 AUDIO TITLE "New Kid In Town" PERFORMER "Eagles" INDEX 01 51:37:08 TRACK 14 AUDIO TITLE "One Of These Nights" PERFORMER "Eagles" INDEX 01 56:42:71 TRACK 15 AUDIO TITLE "Outlaw Man" PERFORMER "Eagles" INDEX 01 61:33:29 TRACK 16 AUDIO TITLE "Is It True?" PERFORMER "Eagles" INDEX 01 65:08:22 TRACK 17 AUDIO TITLE "Love Will Keep Us Alive" PERFORMER "Eagles" INDEX 01 68:23:02 TRACK 18 AUDIO TITLE "Take It Easy" PERFORMER "Eagles" INDEX 01 72:25:42 TRACK 19 AUDIO TITLE "In The City" PERFORMER "Eagles" INDEX 01 75:56:17
  
-----------------------

DON'T MODIFY THIS FILE

-----------------------

PERFORMER: auCDtect Task Manager, ver. 1.5.1RC4 build 1.5.1.5Copyright (c) 2008-2010 y-soft. All rights reservedhttp://y-soft.org

ANALYZER: auCDtect: CD records authenticity detector, version 0.8.2Copyright (c) 2004 Oleg Berngardt. All rights reserved.Copyright (c) 2004 Alexander Djourik. All rights reserved.

FILE: Eagles - Greatest Hits (CD1).flac Size: 559314055 Hash: 7C2EFFEA4CE36057C6B77A267FD5E4BD Accuracy: -m8 Conclusion: CDDA 100% Signature: 8E26E762960C93CDC565349B869B2FF7B6D81A4C
01. Try And Love Again 05:10
02. Peaceful Easy Feeling 04:16
03. The Sad Cafe 05:33
04. Nightingale 04:08
05. Ol' '55 04:22
06. Those Shoes 04:56
07. Good Day In Hell 04:26
08. Hole In The World 04:19
09. Journey Of The Sorcerer 06:36
10. Hollywood Waltz 04:01
11. Life In The Fast Lane 04:46
12. Midnight Flyer 03:58
13. The Best Of My Love 04:34
14. My Man 03:30
15. Please Come Home For Christmas 02:58
16. Take It To The Limit 04:47
17. The Last Resort 07:28
  
Exact Audio Copy V1.0 beta 1 from 15. November 2010

EAC extraction logfile from 7. July 2012, 15:16

Eagles / Greatest Hits (CD2)

Used drive : ATAPI iHAP122 W Adapter: 1 ID: 0

Read mode : SecureUtilize accurate stream : YesDefeat audio cache : YesMake use of C2 pointers : No

Combined read/write offset correction : 6Overread into Lead-In and Lead-Out : NoFill up missing offset samples with silence : YesDelete leading and trailing silent blocks : NoNull samples used in CRC calculations : YesUsed interface : Native Win32 interface for Win NT & 2000

Used output format : Internal WAV RoutinesSample format : 44.100 Hz; 16 Bit; Stereo

TOC of the extracted CD

Track | Start | Length | Start sector | End sector --------------------------------------------------------- 1 | 0:00.00 | 5:10.52 | 0 | 23301 2 | 5:10.52 | 4:16.12 | 23302 | 42513 3 | 9:26.64 | 5:33.60 | 42514 | 67548 4 | 15:00.49 | 4:08.10 | 67549 | 86158 5 | 19:08.59 | 4:22.33 | 86159 | 105841 6 | 23:31.17 | 4:56.27 | 105842 | 128068 7 | 28:27.44 | 4:26.37 | 128069 | 148055 8 | 32:54.06 | 4:19.55 | 148056 | 167535 9 | 37:13.61 | 6:36.67 | 167536 | 197302 10 | 43:50.53 | 4:01.40 | 197303 | 215417 11 | 47:52.18 | 4:46.07 | 215418 | 236874 12 | 52:38.25 | 3:58.19 | 236875 | 254743 13 | 56:36.44 | 4:34.01 | 254744 | 275294 14 | 61:10.45 | 3:30.49 | 275295 | 291093 15 | 64:41.19 | 2:58.60 | 291094 | 304503 16 | 67:40.04 | 4:47.33 | 304504 | 326061 17 | 72:27.37 | 7:28.40 | 326062 | 359701

Range status and errors

Selected range

Filename C:\MusBox\Eagles - Greatest Hits (CD2).wav

Peak level 100.0 % Extraction speed 0.8 X Range quality 99.9 % Copy CRC 78F03585 Copy OK

No errors occurred

End of status report
  
REM GENRE RockREM DATE 2010REM DISCID F512BC11REM COMMENT "ExactAudioCopy v1.0b1"PERFORMER "Eagles"TITLE "Greatest Hits (CD2)"FILE "Eagles - Greatest Hits (CD2).flac" WAVE TRACK 01 AUDIO TITLE "Try And Love Again" PERFORMER "Eagles" INDEX 01 00:00:00 TRACK 02 AUDIO TITLE "Peaceful Easy Feeling" PERFORMER "Eagles" INDEX 01 05:10:52 TRACK 03 AUDIO TITLE "The Sad Cafe" PERFORMER "Eagles" INDEX 01 09:26:64 TRACK 04 AUDIO TITLE "Nightingale" PERFORMER "Eagles" INDEX 01 15:00:49 TRACK 05 AUDIO TITLE "Ol' '55" PERFORMER "Eagles" INDEX 01 19:08:59 TRACK 06 AUDIO TITLE "Those Shoes" PERFORMER "Eagles" INDEX 01 23:31:17 TRACK 07 AUDIO TITLE "Good Day In Hell" PERFORMER "Eagles" INDEX 01 28:27:44 TRACK 08 AUDIO TITLE "Hole In The World" PERFORMER "Eagles" INDEX 01 32:54:06 TRACK 09 AUDIO TITLE "Journey Of The Sorcerer" PERFORMER "Eagles" INDEX 01 37:13:61 TRACK 10 AUDIO TITLE "Hollywood Waltz" PERFORMER "Eagles" INDEX 01 43:50:53 TRACK 11 AUDIO TITLE "Life In The Fast Lane" PERFORMER "Eagles" INDEX 01 47:52:18 TRACK 12 AUDIO TITLE "Midnight Flyer" PERFORMER "Eagles" INDEX 01 52:38:25 TRACK 13 AUDIO TITLE "The Best Of My Love" PERFORMER "Eagles" INDEX 01 56:36:44 TRACK 14 AUDIO TITLE "My Man" PERFORMER "Eagles" INDEX 01 61:10:45 TRACK 15 AUDIO TITLE "Please Come Home For Christmas" PERFORMER "Eagles" INDEX 01 64:41:19 TRACK 16 AUDIO TITLE "Take It To The Limit" PERFORMER "Eagles" INDEX 01 67:40:04 TRACK 17 AUDIO TITLE "The Last Resort" PERFORMER "Eagles" INDEX 01 72:27:37
  
-----------------------

DON'T MODIFY THIS FILE

-----------------------

PERFORMER: auCDtect Task Manager, ver. 1.5.1RC4 build 1.5.1.5Copyright (c) 2008-2010 y-soft. All rights reservedhttp://y-soft.org

ANALYZER: auCDtect: CD records authenticity detector, version 0.8.2Copyright (c) 2004 Oleg Berngardt. All rights reserved.Copyright (c) 2004 Alexander Djourik. All rights reserved.

FILE: Eagles - Greatest Hits (CD2).flac Size: 548300696 Hash: 779E08138B3B155B108ACAAB52A5966D Accuracy: -m8 Conclusion: CDDA 100% Signature: 3224C9D72F8CA3CC0A1C83FC7924E0BA796A3AF0
Доп. информация
Glenn Frey - keyboards
Don Henley - drums
Bernie Leadon, Don Felder, Joe Walsh - guitars
Randy Meisner, Timothy B. Schmit - bass
Группа была образована Доном Хенли и Гленном Фраем в Лос-Анджелесе в 1971 году. У истоков коллектива стоял продюсер Линды Ронштадт, а участники были набраны из рок-команд различной музыкальной направленности. По этой причине они органично впитали и переработали множество музыкальных влияний, среди которых не последнее место занимали Боб Дилан и Нил Янг. В первом крупном хите «орлов» — «Witchy Woman» (1972) — преобладали блюзовые мотивы; второй альбом Desperado (1973) отдал дань ковбойским темам, и только с третьим диском On the Border (1974) они смогли вступить в борьбу за самые верхние строчки чартов продаж.
Классический рок с налётом кантри- и фолк-музыки продолжал оставаться в основе фирменного звучания Eagles и при записи их четвёртого альбома One of These Nights (1975). В этот период они стали играть более энергичный, «мускулистый» рок, значительно расширив свою аудиторию. Особенно восхищали поклонников глубокомысленные тексты ключевых композиций, не чуждые символизма. В 1976 году выходит один из самых коммерчески успешных альбомов в истории рок-музыки — Hotel California с одноименным хитом, который стал визитной карточкой «самой американской из рок-групп» за пределами Штатов.
В конце 1970-х Eagles много гастролируют. К моменту выхода их долгожданного шестого альбома (1979) между участниками накопились значительные разногласия. С 1980 они перестают записываться вместе, а в 1982 Дон Хенли официально объявляет о распаде легендарной команды. На вопросы о возможности воссоединения участников он отвечал кратко: «только когда замерзнет преисподняя». Однако в 1994 году, к радости поклонников, «орлы» временно воссоединились, чтобы провести гастроли по США и записать новый альбом Hell Freezes Over (буквально — «преисподняя замерзает»), который стал одним из самых продаваемых дисков года и подтвердил, что группа находится в блестящей творческой форме. В 2003 г. ветераны рок-музыки выпустили сингл «Hole in the World», посвящённый памяти жертв атак 11 сентября.


Трекер:  [ 18-Июл-2012 06:24 ]

  

Скачать .torrent

Размер .torrent файла 12 KB


Размер: 1.06 GB
Хэш (hash) релиза: 88398ba0709090b17dece19895094a10a5592d99

Торренты, похожие на Eagles - Greatest Hits скачать торрент

Форум Название Автор Размер S L Добавлен
Rосk | Mеtаl | Аltеrnаtivе, Рunk, Indереndеnt (mр3) ·· (Classic Rock & Hard Rock) The Eagles - Greatest Hits Live - 1993, MP3 (tracks), 192 kbps Galfimbul 178175978170 MB 0 0 1499592852

12:34

9-Июл-17

Rосk | Mеtаl | Аltеrnаtivе, Рunk, Indереndеnt (losslеss) ·· (Rock) Eagles - The Complete Greatest Hits - 2003, FLAC (tracks), lossless Galfimbul 10563503331007 MB 0 0 1297876037

20:07

16-Фев-11

Еще никто не оставлял запись к записи скачать торрент Eagles - Greatest Hits . Будь первым!

!Обратная связь